Leif Ove Andsnes, Artemis Quartet - Schumann, Brahms: Piano Quintets (2007)

Download Now

Leif Ove Andsnes, Artemis Quartet - Schumann, Brahms: Piano Quintets (2007)

Leif Ove Andsnes, Artemis Quartet - Schumann, Brahms: Piano Quintets (2007)
EAC | APE | Image (Cue&Log) ~ 281 Mb (incl 5%) | Mp3 (CBR320) ~ 193 Mb (incl 5%) | Scans included
Genre: Classical | Label: Virgin Classics | # 00946 395143 2 8 | Time: 01:08:31

"EMI Classics pianist Leif Ove Andsnes and Virgin Classics' string quartet, the Artemis, have joined their formidable musical forces to record two of the most beautiful piano quintets of the Romantic chamber music repertoire. Their collaboration makes for what will certainly be considered a landmark recording, bringing a new vigour to these well-known masterpieces. The programme couples 2 major piano quintets by Brahms and Schumann. Brahms' Piano Quintet in F minor Op.34 is the composer's only piano quintet and is considered one of his finest compositions. The work began life as a string quintet, later evolving into a sonata for two pianos, before taking its final form in 1866. Of Schumann's Piano Quintet in E Op 44, Clara Schumann, who premiered it said: "A glorious piece, extremely brilliant and effective. Schumann's sole composition for piano quintet was composed in 1842, a year practically devoted to the composition of chamber works for piano and strings."

"Leif Ove Andsnes has an uncanny knack of revealing the inner truth of the music he plays without recourse to excessive gimmickry. He also has exquisite taste when it comes to choosing his chamber music collaborators, as this pairing of the two cornerstones of the piano quintet repertoire demonstrates.

Schumann's Quintet has become the most famous of his chamber works, with its boundless energy and melodic generosity. Andsnes and the Artemis let the notes speak for themselves, never lingering too lovingly on mere details. It's an approach that serves the work well, and an ideal instrumental balance helps illuminate the work's compelling textures throughout.

It's a similar story in the Brahms. Andsnes and the Artemis are alive to all the possibilities in the pregnant opening phrases of each movement and maintain the intensity of the impetuous passion implicit in this youthful music. The Brahms hasn't fared as well on disc as the Schumann and this recording of it can certainly take its place among the finest. As for the Schumann, it's undoubtedly up there with the best.

Review by David Threasher, Gramophone
"


"Before issuing this recording, the Artemis Quartett had already made clean, tight, and driven performances of several Beethoven quartets and a Verklärte Nacht that could seduce even the most chaste listener, and Leif Ove Andsnes was already established as one of the finest living pianists. But something about the combination of the two here doesn't work. Naturally, the Artemis and Andsnes play with a cogent ensemble and unified interpretation, but their interpretations are surprisingly cool in the fast movements. The fugue that concludes Schumann's quintet and the Scherzo in the center of Brahms' work are more like well-balanced machines than aesthetic dramas, and the slow movements come off as cold. Certainly these are very listenable performances, but they may not warrant repeated listenings. Recorded in Teldex Studios in Berlin, the sound here is bright and crisp, if a bit lacking in depth.

Review by James Leonard, Allmusic.com
"




Tracklist:

Robert Schumann (1810-1856)
Piano Quintet In E Flat Major Op. 44
01. I. Allegro brillante (08:15)
02. II. In modo d'uina marcia, Un poco largamente (07:56)
03. III. Scherzo - Molto vivace (04:45)
04. IV. Allegro ma no troppo (07:13)

Johannes Brahms (1833-1897)
Piano Quintet In F Minor Op. 34
05. I. Allegro ma non troppo, Poco sustenuto, Tempo I (14:54)
06. II. Andante, un poco adagio (08:13)
07. III. Scherzo (Allegro) & Trio (07:07)
08. IV. Finale (10:04)


Exact Audio Copy V0.99 prebeta 4 from 23. January 2008

Отчёт EAC об извлечении, выполненном 22. июля 2009, 2:15

Lief Ove Andsnes, Artemis Quartet / Schumann & Brahms - Piano Quintets

Дисковод: HL-DT-STDVDRAM GSA-H62N Adapter: 2 ID: 0

Режим чтения : Достоверность
Использование точного потока : Да
Отключение кэша аудио : Да
Использование указателей C2 : Нет

Коррекция смещения при чтении : 667
Способность читать области Lead-in и Lead-out : Нет
Заполнение пропущенных сэмплов тишиной : Да
Удаление блоков с тишиной в начале и конце : Нет
При вычислениях CRC использовались нулевые сэмплы : Да
Интерфейс : Установленный внешний ASPI-интерфейс

Выходной формат : Внутренние WAV-операции
Формат сэмплов : 44.100 Гц; 16 бит; стерео

TOC извлечённого CD Трек | Старт | Длительность | Начальный сектор | Конечный сектор

1 | 0:00.00 | 8:15.18 | 0 | 37142
2 | 8:15.18 | 7:56.44 | 37143 | 72886
3 | 16:11.62 | 4:45.23 | 72887 | 94284
4 | 20:57.10 | 7:13.62 | 94285 | 126821
5 | 28:10.72 | 14:54.31 | 126822 | 193902
6 | 43:05.28 | 8:13.40 | 193903 | 230917
7 | 51:18.68 | 7:07.31 | 230918 | 262973
8 | 58:26.24 | 10:04.28 | 262974 | 308301

Характеристики диапазона извлечения и сообщения об ошибках

Выбранный диапазон Имя файла D:\временная\Lief Ove Andsnes, Artemis Quartet - Schumann & Brahms - Piano Quintets.wav Пиковый уровень 97.4 %
Качество диапазона 100.0 %
CRC копии 526BEE5D
Копирование... OK

Ошибок не произошло


AccurateRip: сводка

Трек 1 нет в базе данных
Трек 2 нет в базе данных
Трек 3 нет в базе данных
Трек 4 нет в базе данных
Трек 5 нет в базе данных
Трек 6 нет в базе данных
Трек 7 нет в базе данных
Трек 8 нет в базе данных

Ни одного трека нет в базе AccurateRip

Конец отчёта

[CUETools log; Date: 13.09.2015 0:47:31; Version: 2.1.4]
[CTDB TOCID: pulu1jPPfGlQJN9vI.w83IkAyFg-] found.
Track | CTDB Status
1 | (1/1) Accurately ripped
2 | (1/1) Accurately ripped
3 | (1/1) Accurately ripped
4 | (1/1) Accurately ripped
5 | (1/1) Accurately ripped
6 | (1/1) Accurately ripped
7 | (1/1) Accurately ripped
8 | (1/1) Accurately ripped
[AccurateRip ID: 00144082-0088c1f8-7d100e08] found.
Track [ CRC | V2 ] Status
01 121ec37|48f4b9e7 (1+0/1) Accurately ripped
02 71febc0|81b8a81e (1+0/1) Accurately ripped
03 [1e8ad84a|a53862df] (1+0/1) Accurately ripped
04 [d3f38e24|400a5f17] (1+0/1) Accurately ripped
05 [37e42d7a|dba0b3d8] (1+0/1) Accurately ripped
06 [73af61de|5732e0b3] (1+0/1) Accurately ripped
07 [5810b0f8|f39702b6] (1+0/1) Accurately ripped
08 [4d6f2fa0|9c3f5463] (1+0/1) Accurately ripped

Track Peak [ CRC32 ] [W/O NULL] [ LOG ]
-- 97,4 [526BEE5D] [85445657] CRC32
01 91,3 [CF9867C4] [E31F23D1]
02 67,0 [C54C1EFB] [13CE2D4A]
03 63,8 [372E76D3] [219690B1]
04 76,6 [70CB07B8] [5641811F]
05 97,4 [625E8C65] [08DBACC6]
06 50,2 [4901ADD5] [E9EBBAB0]
07 84,0 [2C73BA29] [33F459B5]
08 78,5 [A0FF9B70] [22A690FD]

foobar2000 1.2 / Dynamic Range Meter 1.1.1
log date: 2015-09-13 01:03:01

Analyzed: Lief Ove Andsnes, Artemis Quartet / Schumann & Brahms - Piano Quintets

DR Peak RMS Duration Track

DR15 -0.79 dB -22.29 dB 8:15 01-01 Schumann - Piano Quintet - I. Allegro brillante
DR15 -3.48 dB -26.31 dB 7:57 02-02 - II. In modo d'uina marcia, Un poco largamente
DR13 -3.90 dB -21.94 dB 4:45 03-03 - III. Scherzo - Molto vivace
DR14 -2.31 dB -21.45 dB 7:14 04-04 - IV. Allegro ma no troppo
DR15 -0.23 dB -21.80 dB 14:54 05-05 Brahms - Piano Quintet - I. Allegro ma non troppo, Poco sustenuto, Tempo I
DR14 -5.98 dB -26.87 dB 8:14 06-06 - II. Andante, un poco adagio
DR14 -1.51 dB -21.09 dB 7:07 07-07 - III. Scherzo (Allegro) & Trio
DR14 -2.10 dB -22.20 dB 10:04 08-08 - IV. Finale

Number of tracks: 8
Official DR value: DR14

Samplerate: 44100 Hz
Channels: 2
Bits per sample: 16
Bitrate: 492 kbps
Codec: Monkey's Audio

Leif Ove Andsnes, Artemis Quartet - Schumann, Brahms: Piano Quintets (2007)

Leif Ove Andsnes, Artemis Quartet - Schumann, Brahms: Piano Quintets (2007)

All thanks to original releaser - xxxxx5
Password: designol

DOWNLOAD LINKS
Buy Premium From My Links To Get Resumable Support & Max Speed & To Support Me


Links are Interchangeable - No Password - Single Extraction
Direct Download

Tags: Andsnes, Artemis, Quartet, Schumann, Brahms, Quintets

Leif Ove Andsnes, Artemis Quartet - Schumann, Brahms: Piano Quintets (2007) Download via Hotfile Rapidshare Fileserve Megaupload & FileSonic, Leif Ove Andsnes, Artemis Quartet - Schumann, Brahms: Piano Quintets (2007) free torrent downloads included crack, serial, keygen.Leif Ove Andsnes, Artemis Quartet - Schumann, Brahms: Piano Quintets (2007) Fast Download via Rapidshare Hotfile Fileserve Filesonic Megaupload, Leif Ove Andsnes, Artemis Quartet - Schumann, Brahms: Piano Quintets (2007) Torrents and Emule Download or anything related.
Leave a Comment
Your Name:
E-Mail:
Add Comments:

Enter Code: