Zach Day - Redefined (2015)

Download Now

Zach Day - Redefined (2015)

Zach Day - Redefined (2015)
EAC Rip | FLAC (Img) + Cue + Log ~ 376 Mb | MP3 CBR320 ~ 161 Mb
Scans Included (JPG, 300 dpi) | RAR 5% Recovery
Jazzy Blues | Zach Day & Full Throttle #888295282611

"This all original album contains Zach Day''s personnel flavor of modern blues with jazz harmonies laced throughout. "We live in a society that is ever changing. Music must evolve to maintain relevance. Blues is no different. This idea does not mean that we abandon the roots that so many great bluesmen throughout history have planted, but we use what they have imparted us to grow. Blues as any other music is ever being Redefined.""

All Music
***************

Zach Day - Redefined (2015)

Track List:

01. Back To The Beginning [03:59]
02. We'll Stay [05:33]
03. Midnight Passion [06:35]
04. Another Time, Another Place [04:10]
05. I Don't Know [03:54]
06. We Could Never Mend [05:22]
07. I Know [05:46]
08. It Has Changed [06:36]
09. Keep Movin' On [06:35]
10. Won't Be Back Around [03:25]
11. Little By Little [04:46]

Exact Audio Copy V1.0 beta 3 from 29. August 2011

Отчёт EAC об извлечении, выполненном 13. сентября 2015, 12:02

Zach Day / Redefined

Дисковод: PLEXTOR DVDR PX-880SA Adapter: 1 ID: 0

Режим чтения : Достоверность
Использование точного потока : Да
Отключение кэша аудио : Да
Использование указателей C2 : Нет

Коррекция смещения при чтении : 6
Способность читать области Lead-in и Lead-out : Нет
Заполнение пропущенных сэмплов тишиной : Да
Удаление блоков с тишиной в начале и конце : Нет
При вычислениях CRC использовались нулевые сэмплы : Да
Интерфейс : Установленный внешний ASPI-интерфейс

Выходной формат : Пользовательский кодировщик
Выбранный битрейт : 1024 kBit/s
Качество : Высокий
Добавление ID3-тега : Нет
Утилита сжатия : C:\Program Files\Exact Audio Copy\FLAC\FLAC.EXE
Дополнительные параметры : -8 -V -T "ARTIST=%artist%" -T "ALBUM=%albumtitle%" -T "DATE=%year%" -T "GENRE=%genre%" -T "COMMENT=ripped by izia1956" %source%

TOC извлечённого CD Трек | Старт | Длительность | Начальный сектор | Конечный сектор

1 | 0:00.00 | 3:58.23 | 0 | 17872
2 | 3:58.23 | 5:32.49 | 17873 | 42821
3 | 9:30.72 | 6:34.54 | 42822 | 72425
4 | 16:05.51 | 4:09.55 | 72426 | 91155
5 | 20:15.31 | 3:53.19 | 91156 | 108649
6 | 24:08.50 | 5:21.55 | 108650 | 132779
7 | 29:30.30 | 5:45.46 | 132780 | 158700
8 | 35:16.01 | 6:35.05 | 158701 | 188330
9 | 41:51.06 | 6:34.51 | 188331 | 217931
10 | 48:25.57 | 3:24.72 | 217932 | 233303
11 | 51:50.54 | 4:45.48 | 233304 | 254726

Характеристики диапазона извлечения и сообщения об ошибках

Выбранный диапазон Имя файла D:\BitComet\Zach Day (flac)\2015 - Redefined\Zach Day - Redefined.wav Пиковый уровень 99.3 %
Скорость извлечения 2.8 X
Качество диапазона 99.9 %
CRC теста 7C89E775
CRC копии 7C89E775
Копирование... OK

Ошибок не произошло


AccurateRip: сводка

Трек 1 отсутствует в базе данных
Трек 2 отсутствует в базе данных
Трек 3 отсутствует в базе данных
Трек 4 отсутствует в базе данных
Трек 5 отсутствует в базе данных
Трек 6 отсутствует в базе данных
Трек 7 отсутствует в базе данных
Трек 8 отсутствует в базе данных
Трек 9 отсутствует в базе данных
Трек 10 отсутствует в базе данных
Трек 11 отсутствует в базе данных

Ни одного трека нет в базе AccurateRip

Конец отчёта

==== Контрольная сумма отчёта 229CD16B39DB0DDD7F247DEEFA82AFA28C6B9B8156E1D4C8F1E0B250CBC353A3 ====

foobar2000 1.2.6 / Dynamic Range Meter 1.1.1
log date: 2015-09-15 00:53:19

Analyzed: Zach Day / Redefined

DR Peak RMS Duration Track

DR8 -0.07 dB -9.32 dB 3:58 01-Back To The Beginning
DR7 -0.11 dB -8.73 dB 5:33 02-We'll Stay
DR7 -0.10 dB -9.26 dB 6:35 03-Midnight Passion
DR7 -0.06 dB -9.49 dB 4:10 04-Another Time, Another Place
DR9 -0.11 dB -10.45 dB 3:53 05-I Don't Know
DR6 -0.06 dB -7.91 dB 5:22 06-We Could Never Mend
DR6 -0.05 dB -9.14 dB 5:46 07-I Know
DR7 -0.13 dB -9.70 dB 6:35 08-It Has Changed
DR6 -0.07 dB -8.34 dB 6:35 09-Keep Movin' On
DR8 -0.09 dB -10.03 dB 3:25 10-Won't Be Back Around
DR8 -0.05 dB -9.79 dB 4:46 11-Little By Little

Number of tracks: 11
Official DR value: DR7

Samplerate: 44100 Hz
Channels: 2
Bits per sample: 16
Bitrate: 826 kbps
Codec: FLAC

[CUETools log; Date: 15.09.2015 0:53:06; Version: 2.1.5]
[CTDB TOCID: IixJds7UxBKyIo8_IUxl4c67.n8-] disk not present in database.
[AccurateRip ID: 00172c6e-00ca4d30-820d440b] disk not present in database.

Track Peak [ CRC32 ] [W/O NULL] [ LOG ]
-- 99,3 [7C89E775] [51D352A3] CRC32
01 99,2 5C5582B [ECEA8ECD]
02 98,8 [72E460E6] [87EEDE01]
03 98,8 [3CCDC53A] [3BB62C60]
04 99,3 [9C6BC5EA] [E7F95FE1]
05 98,7 [596879E8] [1C5E9010]
06 99,2 [9C3E442E] [13F4BAAA]
07 99,3 [47F53620] [FD5949BE]
08 98,5 [15C6AB9C] [C9A41FDF]
09 99,1 [72B66B7B] [6916FAA8]
10 98,9 [8510BF5E] [13D5E475]
11 99,3 [A525E459] 3E4A4F7

Zach Day - Redefined (2015)

DOWNLOAD LINKS
Buy Premium From My Links To Get Resumable Support & Max Speed & To Support Me


Links are Interchangeable - No Password - Single Extraction
Direct Download

Tags: Redefined

Zach Day - Redefined (2015) Download via Hotfile Rapidshare Fileserve Megaupload & FileSonic, Zach Day - Redefined (2015) free torrent downloads included crack, serial, keygen.Zach Day - Redefined (2015) Fast Download via Rapidshare Hotfile Fileserve Filesonic Megaupload, Zach Day - Redefined (2015) Torrents and Emule Download or anything related.
Leave a Comment
Your Name:
E-Mail:
Add Comments:

Enter Code: