Robbie Williams - Live In Talinn (2013) [BDRip 1080p]

Download Now

Robbie Williams - Live In Talinn (2013) [BDRip 1080p]

Robbie Williams - Live In Talinn (2013)
BDRip 1080p | MKV | 8145 kbps, 1920x1080 at 29.970 fps, AVC ([email protected]) | 7.94 GB
Audio: 1509 kbps, 48 kHz, 16 bits, 6 channels, DTS | Length: 01:57:00
Genre: Post | Nitroflare/Uploadable

"Pop showman Robbie Williams played to 1.5 million fans during his sold out 2013 European Stadium tour in support of Williams' album Take the Crown. This is his concert film recorded live in high definition and surround sound at Estonia's 70,000 capacity Tallinn Song Festival Grounds"


Robbie Williams - Live In Talinn (2013) [BDRip 1080p]


Tracklist
Hey Wow Yeah Yeah
Let Me Entertain You
Monsoon
Not Like the Others
Minnie the Moocher
Kids
Sin Sin Sin
Bodies
Come Undone
Everything Changes
Strong
Gospel
Be a Boy
Millennium
Better Man
Sexed Up
Me and My Monkey
Candy
Hot Fudge/Rudebox
Rock DJ
Feel
She's the One
Angels

General
Unique ID
: 212388936221586538641922855077078003712 (0x9FC89F07C979E1558FE2AEE2680A7000)
Complete name : C:\Users\ggu\Desktop\ggu\Robbie.Williams.Live.In.Talinn.2013.1080p.MBluRay.x264-TREBLE\robbie talinn.mkv
Format
: Matroska
Format version : Version 4 / Version 2
File size
: 7.94 GiB
Duration
: 1h 57mn
Overall bit rate : 9 655 Kbps
Encoded date : UTC 2014-12-07 11:40:12
Writing application

: mkvmerge v7.1.0 ('Good Love') 32bit built on Jul 27 2014 12:59:18
Writing library : libebml v1.3.0 + libmatroska v1.4.1
DURATION
: 01:57:46.027000000
NUMBER_OF_FRAMES : 662440
NUMBER_OF_BYTES : 1332830004
_STATISTICS_WRITING_APP : mkvmerge v7.1.0 ('Good Love') 32bit built on Jul 27 2014 12:59:18
_STATISTICS_WRITING_DATE_UTC : 2014-12-07 11:40:12
_STATISTICS_TAGS : BPS DURATION NUMBER_OF_FRAMES NUMBER_OF_BYTES

Video
ID : 1
Format
: AVC
Format/Info
: Advanced Video Codec
Format profile : [email protected]
Format settings, CABAC : Yes
Format settings, ReFrames : 4 frames
Codec ID
: V_MPEG4/ISO/AVC
Duration
: 1h 57mn
Bit rate
: 8 145 Kbps
Width
: 1 920 pixels
Height
: 1 080 pixels
Display aspect ratio : 16:9
Frame rate mode : Constant
Frame rate
: 29.970 fps
Color space
: YUV
Chroma subsampling

: 4:2:0
Bit depth
: 8 bits
Scan type
: Progressive
Bits/(Pixel*Frame)

: 0.131
Stream size
: 6.54 GiB (82%)
Title
: English
Writing library : x264 core 142 r2491 24e4fed
Encoding settings: cabac=1 / ref=4 / deblock=1:0:0 / analyse=0x3:0x113 / me=umh / subme=8 / psy=1 / psy_rd=1.00:0.00 / mixed_ref=1 / me_range=16 / chroma_me=1 / trellis=1 / 8x8dct=1 / cqm=0 / deadzone=21,11 / fast_pskip=1 / chroma_qp_offset=-2 / threads=6 / lookahead_threads=1 / sliced_threads=0 / nr=0 / decimate=1 / interlaced=0 / bluray_compat=0 / constrained_intra=0 / bframes=3 / b_pyramid=2 / b_adapt=2 / b_bias=0 / direct=3 / weightb=1 / open_gop=0 / weightp=2 / keyint=240 / keyint_min=24 / scenecut=40 / intra_refresh=0 / rc_lookahead=50 / rc=2pass / mbtree=1 / bitrate=8145 / ratetol=1.0 / qcomp=0.60 / qpmin=0 / qpmax=69 / qpstep=4 / cplxblur=20.0 / qblur=0.5 / ip_ratio=1.40 / aq=1:1.00
Language
: English
Default
: Yes
Forced
: No
DURATION
: 01:57:46.059000000
NUMBER_OF_FRAMES : 211770
NUMBER_OF_BYTES : 7192940216
_STATISTICS_WRITING_APP : mkvmerge v7.1.0 ('Good Love') 32bit built on Jul 27 2014 12:59:18
_STATISTICS_WRITING_DATE_UTC : 2014-12-07 11:40:12
_STATISTICS_TAGS : BPS DURATION NUMBER_OF_FRAMES NUMBER_OF_BYTES

Audio
ID : 2
Format
: DTS
Format/Info
: Digital Theater Systems
Mode
: 16
Format settings, Endianness : Big
Codec ID
: A_DTS
Duration
: 1h 57mn
Bit rate mode : Constant
Bit rate
: 1 509 Kbps
Channel(s)
: 6 channels
Channel positions: Front: L C R, Side: L R, LFE
Sampling rate : 48.0 KHz
Bit depth
: 16 bits
Compression mode : Lossy
Stream size
: 1.24 GiB (16%)
Title
: English
Language
: English
Default
: Yes
Forced
: No

Menu
00:00:00.000 : en:00:00:00.000
00:03:09.556 : en:00:03:09.556
00:07:55.675 : en:00:07:55.675
00:12:27.880 : en:00:12:27.880
00:17:32.318 : en:00:17:32.318
00:20:31.363 : en:00:20:31.363
00:25:45.277 : en:00:25:45.277
00:30:09.508 : en:00:30:09.508
00:33:45.557 : en:00:33:45.557
00:49:56.827 : en:00:49:56.827
00:54:55.392 : en:00:54:55.392
01:00:17.280 : en:01:00:17.280
01:06:17.040 : en:01:06:17.040
01:08:54.230 : en:01:08:54.230
01:11:42.665 : en:01:11:42.665
01:15:31.827 : en:01:15:31.827
01:23:15.090 : en:01:23:15.090
01:27:05.187 : en:01:27:05.187
01:30:50.145 : en:01:30:50.145
01:36:23.745 : en:01:36:23.745
01:42:49.163 : en:01:42:49.163
01:48:20.160 : en:01:48:20.160

Thanks to the original uploader








DOWNLOAD LINKS
Buy Premium From My Links To Get Resumable Support & Max Speed & To Support Me

Uploaded.net:
http://uploaded.net/file/3tbzelxp/81mwf.R.W.L.I.T.2013.BDR.1080p.part01.rar
http://uploaded.net/file/3r4zh7sz/81mwf.R.W.L.I.T.2013.BDR.1080p.part02.rar
http://uploaded.net/file/oq9vo450/81mwf.R.W.L.I.T.2013.BDR.1080p.part03.rar
http://uploaded.net/file/yqo2aqia/81mwf.R.W.L.I.T.2013.BDR.1080p.part04.rar
http://uploaded.net/file/jzvfznua/81mwf.R.W.L.I.T.2013.BDR.1080p.part05.rar
http://uploaded.net/file/ugu0r4dg/81mwf.R.W.L.I.T.2013.BDR.1080p.part06.rar
http://uploaded.net/file/yvp16dcg/81mwf.R.W.L.I.T.2013.BDR.1080p.part07.rar
http://uploaded.net/file/0d4jk295/81mwf.R.W.L.I.T.2013.BDR.1080p.part08.rar
http://uploaded.net/file/4054woyv/81mwf.R.W.L.I.T.2013.BDR.1080p.part09.rar

nitroflare_com:
http://nitroflare.com/view/5A416EEC0448B52/81mwf.R.W.L.I.T.2013.BDR.1080p.part01.rar
http://nitroflare.com/view/3A8773D55465799/81mwf.R.W.L.I.T.2013.BDR.1080p.part02.rar
http://nitroflare.com/view/4352841D10E10BB/81mwf.R.W.L.I.T.2013.BDR.1080p.part03.rar
http://nitroflare.com/view/FEA8D15744ECDA9/81mwf.R.W.L.I.T.2013.BDR.1080p.part04.rar
http://nitroflare.com/view/906E1A7F6E47D75/81mwf.R.W.L.I.T.2013.BDR.1080p.part05.rar
http://nitroflare.com/view/CDDECA49A60EB83/81mwf.R.W.L.I.T.2013.BDR.1080p.part06.rar
http://nitroflare.com/view/6EACE4C56E2E660/81mwf.R.W.L.I.T.2013.BDR.1080p.part07.rar
http://nitroflare.com/view/524BE05683B5319/81mwf.R.W.L.I.T.2013.BDR.1080p.part08.rar
http://nitroflare.com/view/4EADCEFCB980594/81mwf.R.W.L.I.T.2013.BDR.1080p.part09.rar

Uploadable.ch:
http://www.uploadable.ch/file/Xz3MTwjrhxK7/81mwf.R.W.L.I.T.2013.BDR.1080p.part01.rar
http://www.uploadable.ch/file/ChhDnPZf5XyS/81mwf.R.W.L.I.T.2013.BDR.1080p.part02.rar
http://www.uploadable.ch/file/vPjAtkebXwXM/81mwf.R.W.L.I.T.2013.BDR.1080p.part03.rar
http://www.uploadable.ch/file/Puf6kfVkKF5X/81mwf.R.W.L.I.T.2013.BDR.1080p.part04.rar
http://www.uploadable.ch/file/74UBNTsGdHdx/81mwf.R.W.L.I.T.2013.BDR.1080p.part05.rar
http://www.uploadable.ch/file/VW3VqcgzuP8S/81mwf.R.W.L.I.T.2013.BDR.1080p.part06.rar
http://www.uploadable.ch/file/RVSZbycqg7BX/81mwf.R.W.L.I.T.2013.BDR.1080p.part07.rar
http://www.uploadable.ch/file/B7hgtHjnt2pJ/81mwf.R.W.L.I.T.2013.BDR.1080p.part08.rar
http://www.uploadable.ch/file/AmyxyNA9PjKt/81mwf.R.W.L.I.T.2013.BDR.1080p.part09.rar

Links are Interchangeable - No Password - Single Extraction
Direct Download

Tags: Robbie, Williams, Talinn

Robbie Williams - Live In Talinn (2013) [BDRip 1080p] Download via Hotfile Rapidshare Fileserve Megaupload & FileSonic, Robbie Williams - Live In Talinn (2013) [BDRip 1080p] free torrent downloads included crack, serial, keygen.Robbie Williams - Live In Talinn (2013) [BDRip 1080p] Fast Download via Rapidshare Hotfile Fileserve Filesonic Megaupload, Robbie Williams - Live In Talinn (2013) [BDRip 1080p] Torrents and Emule Download or anything related.
Leave a Comment
Your Name:
E-Mail:
Add Comments:

Enter Code: