Bryce Janey - Burning Flame (2013)

Download Now

Bryce Janey - Burning Flame (2013)

Bryce Janey - Burning Flame (2013)
EAC Rip | FLAC (Img) + Cue + Log ~ 409 Mb | MP3 CBR320 ~ 166 Mb
Scans Included (JPG, 600 dpi) | RAR 5% Recovery
Blues Rock | Grooveyard Records #GYR112

"Outstanding ninth solo disc by this awesome blues/rock axeslinger from Iowa featuring 11 tracks of excellent, dynamic, deep, soul-powered, bluesy heavy guitar power trio rock that stands tall in a class all its own. Bryce Janey is a killer guitar slinger who unleashes a righteous, earthy, low-down, ass-kickin' set of hard, electric rockin' blues complete with seriously kool six string mojo, soulful whiskey soaked vocals & strong songs on the impressive, classic "Burning Flame" disc. An essential blues guitar rocker that is Highly Recommended to music fans of Jimi Hendrix, Robin Trower, Eric Clapton, SRV, Johnny Winter, Rory Gallagher, Billy Gibbons ala vintage ZZ Top, Doyle Bramhall II, Tony Spinner, The Janeys & all other top-shelf, world-class blues/rock guitar cats including Bryce Janey's other excellent discs."

All Music
***************

Bryce Janey - Burning Flame (2013)

Track List:

01. Chrome Horse [04:42]
02. Long Ways Home [04:59]
03. Guitar Playing Fool [04:46]
04. Can You Feel It [04:57]
05. The Stealer [04:46]
06. Stone Cold Killer [05:14]
07. The Revenuers [05:19]
08. Special Ryder Blues [05:14]
09. The Last Goodbye [04:50]
10. Organic Man [05:30]
11. Burning Flame [05:16]

Exact Audio Copy V1.0 beta 3 from 29. August 2011

Отчёт EAC об извлечении, выполненном 6. сентября 2015, 10:30

Bryce Janey / Burning Flame

Дисковод: ATAPI iHAS424 A Adapter: 0 ID: 0

Режим чтения : Достоверность
Использование точного потока : Да
Отключение кэша аудио : Да
Использование указателей C2 : Нет

Коррекция смещения при чтении : 6
Способность читать области Lead-in и Lead-out : Нет
Заполнение пропущенных сэмплов тишиной : Да
Удаление блоков с тишиной в начале и конце : Нет
При вычислениях CRC использовались нулевые сэмплы : Да
Интерфейс : Установленный внешний ASPI-интерфейс

Выходной формат : Пользовательский кодировщик
Выбранный битрейт : 1024 kBit/s
Качество : Высокий
Добавление ID3-тега : Нет
Утилита сжатия : C:\Program Files\Exact Audio Copy\FLAC\FLAC.EXE
Дополнительные параметры : -8 -V -T "ARTIST=%artist%" -T "ALBUM=%albumtitle%" -T "DATE=%year%" -T "GENRE=%genre%" -T "COMMENT=ripped by izia1956" %source%

TOC извлечённого CD Трек | Старт | Длительность | Начальный сектор | Конечный сектор

1 | 0:00.00 | 4:41.48 | 0 | 21122
2 | 4:41.48 | 4:58.48 | 21123 | 43520
3 | 9:40.21 | 4:45.48 | 43521 | 64943
4 | 14:25.69 | 4:56.48 | 64944 | 87191
5 | 19:22.42 | 4:45.48 | 87192 | 108614
6 | 24:08.15 | 5:13.48 | 108615 | 132137
7 | 29:21.63 | 5:18.48 | 132138 | 156035
8 | 34:40.36 | 5:13.48 | 156036 | 179558
9 | 39:54.09 | 4:49.48 | 179559 | 201281
10 | 44:43.57 | 5:29.48 | 201282 | 226004
11 | 50:13.30 | 5:15.48 | 226005 | 249677

Характеристики диапазона извлечения и сообщения об ошибках

Выбранный диапазон Имя файла D:\BitComet\Bryce Janey\2013 - Burning Flame\Bryce Janey - Burning Flame.wav Пиковый уровень 100.0 %
Скорость извлечения 5.8 X
Качество диапазона 100.0 %
CRC теста 527718B7
CRC копии 527718B7
Копирование... OK

Ошибок не произошло


AccurateRip: сводка

Трек 1 : извлечено точно (доверие 2) [16385364] (AR v2)
Трек 2 : извлечено точно (доверие 3) 7ED0504 (AR v2)
Трек 3 : извлечено точно (доверие 3) [C75FA650] (AR v2)
Трек 4 : извлечено точно (доверие 3) [3DFDE9AF] (AR v2)
Трек 5 : извлечено точно (доверие 3) [A51E2170] (AR v2)
Трек 6 : извлечено точно (доверие 3) [46BC2C72] (AR v2)
Трек 7 : извлечено точно (доверие 3) [F0E0F7CA] (AR v2)
Трек 8 : извлечено точно (доверие 3) [450B6739] (AR v2)
Трек 9 : извлечено точно (доверие 3) [25A578FF] (AR v2)
Трек 10 : извлечено точно (доверие 3) [65FC8A38] (AR v2)
Трек 11 : извлечено точно (доверие 3) [A30B7DCA] (AR v2)

Все треки извлечены точно

Конец отчёта

==== Контрольная сумма отчёта E90E080FAE01A375CC88D6C7C3F6935F6EC38EA2C30EFFE42A373ECD1C5EC59B ====

foobar2000 1.2.6 / Dynamic Range Meter 1.1.1
log date: 2015-09-13 10:47:06

Analyzed: Bryce Janey / Burning Flame

DR Peak RMS Duration Track

DR6 -0.36 dB -7.76 dB 4:42 01-Chrome Horse
DR7 -0.01 dB -7.93 dB 4:59 02-Long Ways Home
DR7 0.00 dB -7.51 dB 4:46 03-Guitar Playing Fool
DR6 -0.06 dB -6.95 dB 4:57 04-Can You Feel It
DR6 -0.38 dB -7.52 dB 4:46 05-The Stealer
DR7 -0.23 dB -8.45 dB 5:14 06-Stone Cold Killer
DR6 -0.93 dB -8.31 dB 5:19 07-The Revenuers
DR8 -0.24 dB -9.12 dB 5:14 08-Special Ryder Blues
DR7 -0.51 dB -8.74 dB 4:50 09-The Last Goodbye
DR8 -0.82 dB -10.48 dB 5:30 10-Organic Man
DR6 -1.42 dB -9.00 dB 5:16 11-Burning Flame

Number of tracks: 11
Official DR value: DR7

Samplerate: 44100 Hz
Channels: 2
Bits per sample: 16
Bitrate: 904 kbps
Codec: FLAC

[CUETools log; Date: 13.09.2015 10:47:07; Version: 2.1.5]
[CTDB TOCID: 2.sQ1jQ9rT2vaeHtUU11_foXR.E-] found.
Track | CTDB Status
1 | (4/4) Accurately ripped
2 | (4/4) Accurately ripped
3 | (4/4) Accurately ripped
4 | (4/4) Accurately ripped
5 | (4/4) Accurately ripped
6 | (4/4) Accurately ripped
7 | (4/4) Accurately ripped
8 | (4/4) Accurately ripped
9 | (4/4) Accurately ripped
10 | (4/4) Accurately ripped
11 | (4/4) Accurately ripped
[AccurateRip ID: 00166e8d-00c361b4-980d010b] found.
Track [ CRC | V2 ] Status
01 [d9b63827|16385364] (0+2/2) Accurately ripped
02 [4a24fcc1|b7ed0504] (0+3/3) Accurately ripped
03 [1be26a9b|c75fa650] (0+3/3) Accurately ripped
04 [d6afeca5|3dfde9af] (0+3/3) Accurately ripped
05 [3044a8aa|a51e2170] (0+3/3) Accurately ripped
06 [87399852|46bc2c72] (0+3/3) Accurately ripped
07 [ccfa62db|f0e0f7ca] (0+3/3) Accurately ripped
08 0cf0543|450b6739 (0+3/3) Accurately ripped
09 [a99014bc|25a578ff] (0+3/3) Accurately ripped
10 [e291ad4e|65fc8a38] (0+3/3) Accurately ripped
11 [57f0ef72|a30b7dca] (0+3/3) Accurately ripped

Track Peak [ CRC32 ] [W/O NULL] [ LOG ]
-- 100,0 [527718B7] [DFDCDC2D] CRC32
01 95,9 [68DE68BA] [83DB9A9C]
02 99,9 [DA9ED51D] [24168E95]
03 100,0 749BCE0 [25DAFC0C]
04 99,3 [C0A820EF] [FD6096DA]
05 95,7 [C6DA23FD] [2749161F]
06 97,3 [62B0AFF1] [A4774C04]
07 89,8 [F7633079] [2B64DDBD]
08 97,2 [6BD6652B] [8BEB3E93]
09 94,3 1F81E10 [C4B6F575]
10 91,0 [406AE024] [3078E0F2]
11 84,9 [034CCD7D] [054C2A2A]

Bryce Janey - Burning Flame (2013)

DOWNLOAD LINKS
Buy Premium From My Links To Get Resumable Support & Max Speed & To Support Me


Links are Interchangeable - No Password - Single Extraction
Direct Download

Tags: Burning

Bryce Janey - Burning Flame (2013) Download via Hotfile Rapidshare Fileserve Megaupload & FileSonic, Bryce Janey - Burning Flame (2013) free torrent downloads included crack, serial, keygen.Bryce Janey - Burning Flame (2013) Fast Download via Rapidshare Hotfile Fileserve Filesonic Megaupload, Bryce Janey - Burning Flame (2013) Torrents and Emule Download or anything related.
Leave a Comment
Your Name:
E-Mail:
Add Comments:

Enter Code: