John Zorn & Mycale - Gomory - Book Of Angels Volume 25 (2015) {Tzadik TZ 8332}

Download Now


John Zorn & Mycale - Gomory - Book Of Angels Volume 25 (2015) {Tzadik TZ 8332}
John Zorn & Mycale - Gomory - Book Of Angels Volume 25 (2015) {Tzadik TZ 8332}
EAC rip (secure mode) | FLAC (tracks)+CUE+LOG -> 247 Mb | MP3 @320 -> 100 Mb
Full Artwork @ 600 dpi (png) -> 139 Mb | 5% repair rar
© 2015 Tzadik | TZ 8332 | Tzadik Archival Series
Vocal Music / Jazz / World Music / Contemporary Jazz

"One of the most beautiful of all Book of Angels ensembles, Mycale is an evocative a cappella vocal quartet featuring four of the most creative voices in New Music. In their second CD release they are tighter than ever and approach the Masada music with a sensitive ear, an open heart and a creative imagination. Using a variety of texts in Portuguese, Berber, Hebrew, French and Spanish, they fashion lush harmonies and strong rhythmic drive to bring Zorn's lyrical and elusive melodies to life like never before. A transcendent follow up to their debut recording, Gomory is truly Music of the Angels."

John Zorn & Mycale - Gomory - Book Of Angels Volume 25 (2015) {Tzadik TZ 8332}


Personnel:
Ayelet Rose Gottlieb: Vocals
Sofia Rei: Vocals
Sara Serpa: Vocals
Malika Zarra: Vocals

tracklist:
01 - Huzia
02 - Tzadkiel
03 - Mumiah
04 - Yofiel
05 - Peliel
06 - Achusaton
07 - Qaddisin
08 - Belial
09 - Grial
10 - Shahariel
11 - Paschar

Exact Audio Copy V1.1 from 23. June 2015

EAC extraction logfile from 13. September 2015, 0:17

John Zorn & Mycale / Gomory: Book of Angels Volume 25

Used drive : TSSTcorpCDDVDW SE-208DB Adapter: 7 ID: 0

Read mode : Secure
Utilize accurate stream : Yes
Defeat audio cache : Yes
Make use of C2 pointers : No

Read offset correction

: 6
Overread into Lead-In and Lead-Out : No
Fill up missing offset samples with silence : Yes
Delete leading and trailing silent blocks : No
Null samples used in CRC calculations : Yes
Used interface
: Installed external ASPI interface
Gap handling
: Appended to previous track

Used output format : User Defined Encoder
Selected bitrate : 1024 kBit/s
Quality : High
Add ID3 tag : No
Command line compressor : C:\Program Files (x86)\FLAC Frontend\tools\flac.exe
Additional command line options : -8 -V -T "ARTIST=%artist%" -T "TITLE=%title%" -T "ALBUM=%albumtitle%" -T "DATE=%year%" -T "TRACKNUMBER=%tracknr%" -T "TOTALTRACKS=%numtracks%" -T "GENRE=%genre%" -T "ALBUMARTIST=%albumartist%" -T "ALBUM ARTIST=%albumartist%" -T "COMMENT=EAC Secure Mode, Test & Copy, AccurateRip, FLAC -8" %source%

TOC of the extracted CD Track | Start | Length | Start sector | End sector
--1 | 0:00.00 | 4:47.46 | 0 | 21570 2 | 4:47.46 | 3:28.67 | 21571 | 37237 3 | 8:16.38 | 3:45.50 | 37238 | 54162 4 | 12:02.13 | 4:19.72 | 54163 | 73659 5 | 16:22.10 | 4:10.48 | 73660 | 92457 6 | 20:32.58 | 3:23.37 | 92458 | 107719 7 | 23:56.20 | 4:54.11 | 107720 | 129780 8 | 28:50.31 | 2:32.29 | 129781 | 141209 9 | 31:22.60 | 3:23.11 | 141210 | 156445
10 | 34:45.71 | 4:58.06 | 156446 | 178801
11 | 39:44.02 | 1:46.47 | 178802 | 186798

Track 1 Filename M:\_EAC\John Zorn & Mycale - Gomory - Book Of Angels Volume 25 (2015) [FLAC] {Tzadik TZ 8332}\01 - Huzia.wav Pre-gap length 0:00:02.00 Peak level 97.2 %
Extraction speed 1.0 X
Track quality 100.0 %
Test CRC 746D3603
Copy CRC 746D3603
Accurately ripped (confidence 1) [E2AA54D8] (AR v2)
Copy OK

Track 2 Filename M:\_EAC\John Zorn & Mycale - Gomory - Book Of Angels Volume 25 (2015) [FLAC] {Tzadik TZ 8332}\02 - Tzadkiel.wav Peak level 97.7 %
Extraction speed 1.0 X
Track quality 100.0 %
Test CRC 8A9725F3
Copy CRC 8A9725F3
Accurately ripped (confidence 1) [653783D0] (AR v2)
Copy OK

Track 3 Filename M:\_EAC\John Zorn & Mycale - Gomory - Book Of Angels Volume 25 (2015) [FLAC] {Tzadik TZ 8332}\03 - Mumiah.wav Peak level 94.9 %
Extraction speed 1.2 X
Track quality 100.0 %
Test CRC DA509842
Copy CRC DA509842
Accurately ripped (confidence 1) [0413739F] (AR v2)
Copy OK

Track 4 Filename M:\_EAC\John Zorn & Mycale - Gomory - Book Of Angels Volume 25 (2015) [FLAC] {Tzadik TZ 8332}\04 - Yofiel.wav Peak level 95.6 %
Extraction speed 1.1 X
Track quality 99.9 %
Test CRC B3CE5423
Copy CRC B3CE5423
Accurately ripped (confidence 1) [9AD51181] (AR v2)
Copy OK

Track 5 Filename M:\_EAC\John Zorn & Mycale - Gomory - Book Of Angels Volume 25 (2015) [FLAC] {Tzadik TZ 8332}\05 - Peliel.wav Peak level 94.6 %
Extraction speed 1.1 X
Track quality 99.9 %
Test CRC D49CAE1A
Copy CRC D49CAE1A
Accurately ripped (confidence 1) [153C3740] (AR v2)
Copy OK

Track 6 Filename M:\_EAC\John Zorn & Mycale - Gomory - Book Of Angels Volume 25 (2015) [FLAC] {Tzadik TZ 8332}\06 - Achusaton.wav Peak level 94.5 %
Extraction speed 1.1 X
Track quality 99.9 %
Test CRC 9D1F302D
Copy CRC 9D1F302D
Accurately ripped (confidence 1) [8A88EE24] (AR v2)
Copy OK

Track 7 Filename M:\_EAC\John Zorn & Mycale - Gomory - Book Of Angels Volume 25 (2015) [FLAC] {Tzadik TZ 8332}\07 - Qaddisin.wav Peak level 91.3 %
Extraction speed 1.3 X
Track quality 99.9 %
Test CRC BA98BB32
Copy CRC BA98BB32
Accurately ripped (confidence 1) [946F9E84] (AR v2)
Copy OK

Track 8 Filename M:\_EAC\John Zorn & Mycale - Gomory - Book Of Angels Volume 25 (2015) [FLAC] {Tzadik TZ 8332}\08 - Belial.wav Peak level 95.1 %
Extraction speed 1.1 X
Track quality 99.9 %
Test CRC 8C8CDB19
Copy CRC 8C8CDB19
Accurately ripped (confidence 1) [FFA5958E] (AR v2)
Copy OK

Track 9 Filename M:\_EAC\John Zorn & Mycale - Gomory - Book Of Angels Volume 25 (2015) [FLAC] {Tzadik TZ 8332}\09 - Grial.wav Peak level 99.2 %
Extraction speed 1.3 X
Track quality 99.9 %
Test CRC 67B1275D
Copy CRC 67B1275D
Accurately ripped (confidence 1) [C4F53013] (AR v2)
Copy OK

Track 10 Filename M:\_EAC\John Zorn & Mycale - Gomory - Book Of Angels Volume 25 (2015) [FLAC] {Tzadik TZ 8332}\10 - Shahariel.wav Peak level 95.1 %
Extraction speed 1.6 X
Track quality 100.0 %
Test CRC ED15A118
Copy CRC ED15A118
Accurately ripped (confidence 1) [8198348A] (AR v2)
Copy OK

Track 11 Filename M:\_EAC\John Zorn & Mycale - Gomory - Book Of Angels Volume 25 (2015) [FLAC] {Tzadik TZ 8332}\11 - Paschar.wav Peak level 85.0 %
Extraction speed 1.3 X
Track quality 100.0 %
Test CRC C0BFAAFD
Copy CRC C0BFAAFD
Accurately ripped (confidence 1) [8AE66142] (AR v2)
Copy OK

All tracks accurately ripped

No errors occurred

End of status report

==== Log checksum 75F4045FA77291D420B0A3F1AAE2FCBF0BC8234D320B37F52B4DC82DC2705B80 ====

John Zorn & Mycale - Gomory - Book Of Angels Volume 25 (2015) {Tzadik TZ 8332}

John Zorn & Mycale - Gomory - Book Of Angels Volume 25 (2015) {Tzadik TZ 8332}

DOWNLOAD LINKS
Buy Premium From My Links To Get Resumable Support & Max Speed & To Support Me


Links are Interchangeable - No Password - Single Extraction
Direct Download

Tags: Mycale, Gomory, Angels, Tzadik

John Zorn & Mycale - Gomory - Book Of Angels Volume 25 (2015) {Tzadik TZ 8332} Download via Hotfile Rapidshare Fileserve Megaupload & FileSonic, John Zorn & Mycale - Gomory - Book Of Angels Volume 25 (2015) {Tzadik TZ 8332} free torrent downloads included crack, serial, keygen.John Zorn & Mycale - Gomory - Book Of Angels Volume 25 (2015) {Tzadik TZ 8332} Fast Download via Rapidshare Hotfile Fileserve Filesonic Megaupload, John Zorn & Mycale - Gomory - Book Of Angels Volume 25 (2015) {Tzadik TZ 8332} Torrents and Emule Download or anything related.
Leave a Comment
Your Name:
E-Mail:
Add Comments:

Enter Code: