Groove Ltd. - First Class (2015)

Download Now

Groove Ltd. - First Class (2015)

Groove Ltd. - First Class (2015)
EAC Rip | FLAC (Img) + Cue + Log ~ 487 Mb | MP3 CBR320 ~ 151 Mb
Scans (JPG, 600 dpi) ~ 46 Mb | RAR 5% Recovery
Smooth Jazz, R&B | Sky Town Records #STR005

"When two musical elemental forces come together, something extraordinary is created. Guitarist U-NAM is known by his solo projects The Past Builds The Future (2005), Back From the 80's (2007), Unanimity (2009), Weekend in L.A. (A Tribute To George Benson) (2012) and C'est Le Funk (2014). Saxophonist Shannon Kennedy received attention with Angel Eyes (2005) and in 2007 with Steppin Up and Never My Love. Now both reveal their collective debut under the group name Groove LTD. releasing the album First Class. The duo is joined by keyboardist Jonathan Fritzen, vocalist Maysa Leak, percussionist Paulinho DaCosta, drummer Michael White, bassist Dwayne Smitty Smith , Neo-Soul singer Myron Davis, steel drums master Andy Narell, as well as many more. Groove LTD. opens the album with First Class and covers its name with glory..."

Groove Ltd. - First Class (2015)

Track List:

01. First Class [04:21]
02. Uprising feat. Jonathan Fritzen [05:02]
03. It's Only Love [04:00]
04. Pheromones [04:19]
05. Coastline [04:30]
06. Lovedrive [06:28]
07. It's Alright Now feat. Maysa Leak [06:45]
08. Summer Nights [06:22]
09. Teardrops [03:55]
10. You've Got It All feat. Myron Davis [05:23]
11. Uprising (Radio Edit) [03:44]
12. First Class (Radio Edit) [03:39]
13. It's Alright Now feat. Maysa Leak (Groove Mix) [04:25]

Exact Audio Copy V1.0 beta 3 from 29. August 2011

Отчёт EAC об извлечении, выполненном 14. сентября 2015, 19:28

Groove Ltd. feat. U-Nam & Shannon Kennedy / First Class

Дисковод: PLEXTOR DVDR PX-880SA Adapter: 1 ID: 0

Режим чтения : Достоверность
Использование точного потока : Да
Отключение кэша аудио : Да
Использование указателей C2 : Нет

Коррекция смещения при чтении : 6
Способность читать области Lead-in и Lead-out : Нет
Заполнение пропущенных сэмплов тишиной : Да
Удаление блоков с тишиной в начале и конце : Нет
При вычислениях CRC использовались нулевые сэмплы : Да
Интерфейс : Установленный внешний ASPI-интерфейс

Выходной формат : Пользовательский кодировщик
Выбранный битрейт : 1024 kBit/s
Качество : Высокий
Добавление ID3-тега : Нет
Утилита сжатия : C:\Program Files\Exact Audio Copy\FLAC\FLAC.EXE
Дополнительные параметры : -8 -V -T "ARTIST=%artist%" -T "ALBUM=%albumtitle%" -T "DATE=%year%" -T "GENRE=%genre%" -T "COMMENT=ripped by izia1956" %source%

TOC извлечённого CD Трек | Старт | Длительность | Начальный сектор | Конечный сектор

1 | 0:00.00 | 4:20.03 | 0 | 19502
2 | 4:20.03 | 5:01.42 | 19503 | 42119
3 | 9:21.45 | 3:59.12 | 42120 | 60056
4 | 13:20.57 | 4:18.34 | 60057 | 79440
5 | 17:39.16 | 4:29.16 | 79441 | 99631
6 | 22:08.32 | 6:27.05 | 99632 | 128661
7 | 28:35.37 | 6:44.22 | 128662 | 158983
8 | 35:19.59 | 6:21.49 | 158984 | 187607
9 | 41:41.33 | 3:54.09 | 187608 | 205166
10 | 45:35.42 | 5:22.44 | 205167 | 229360
11 | 50:58.11 | 3:43.51 | 229361 | 246136
12 | 54:41.62 | 3:38.69 | 246137 | 262555
13 | 58:20.56 | 4:24.12 | 262556 | 282367

Характеристики диапазона извлечения и сообщения об ошибках

Выбранный диапазон Имя файла D:\BitComet\Groove Ltd. - First Class(2015)(flac)\Groove Ltd. feat. U-Nam & Shannon Kennedy - First Class.wav Пиковый уровень 99.8 %
Скорость извлечения 2.8 X
Качество диапазона 99.9 %
CRC теста 823A814B
CRC копии 823A814B
Копирование... OK

Ошибок не произошло


AccurateRip: сводка

Трек 1 отсутствует в базе данных
Трек 2 отсутствует в базе данных
Трек 3 отсутствует в базе данных
Трек 4 отсутствует в базе данных
Трек 5 отсутствует в базе данных
Трек 6 отсутствует в базе данных
Трек 7 отсутствует в базе данных
Трек 8 отсутствует в базе данных
Трек 9 отсутствует в базе данных
Трек 10 отсутствует в базе данных
Трек 11 отсутствует в базе данных
Трек 12 отсутствует в базе данных
Трек 13 отсутствует в базе данных

Ни одного трека нет в базе AccurateRip

Конец отчёта

==== Контрольная сумма отчёта 00D0B45E1E713AAAD2C5BF56AB4629BF99117CA31639FE616D424FA123F7B942 ====

foobar2000 1.2.6 / Dynamic Range Meter 1.1.1
log date: 2015-09-15 09:49:05

Analyzed: Groove Ltd. feat. U-Nam & Shannon Kennedy / First Class

DR Peak RMS Duration Track

DR6 -0.01 dB -6.98 dB 4:20 01-First Class
DR6 -0.01 dB -7.30 dB 5:02 02-Uprising feat. Jonathan Fritzen
DR6 -0.02 dB -7.37 dB 3:59 03-It's Only Love
DR7 -0.01 dB -8.08 dB 4:18 04-Pheromones
DR6 -0.01 dB -7.44 dB 4:29 05-Coastline
DR6 -0.01 dB -7.59 dB 6:27 06-Lovedrive
DR7 -0.01 dB -8.12 dB 6:44 07-It's Alright Now feat. Maysa Leak
DR7 -0.01 dB -8.00 dB 6:22 08-Summer Nights
DR6 -0.01 dB -7.05 dB 3:54 09-Teardrops
DR7 -0.01 dB -8.00 dB 5:23 10-You've Got It All feat. Myron Davis
DR6 -0.01 dB -7.19 dB 3:44 11-Uprising (Radio Edit)
DR6 -0.01 dB -7.00 dB 3:39 12-First Class (Radio Edit)
DR7 -0.01 dB -7.89 dB 4:24 13-It's Alright Now feat. Maysa Leak (Groove Mix)

Number of tracks: 13
Official DR value: DR6

Samplerate: 44100 Hz
Channels: 2
Bits per sample: 16
Bitrate: 1032 kbps
Codec: FLAC

[CUETools log; Date: 15.09.2015 9:48:57; Version: 2.1.5]
[CTDB TOCID: CShMEBnVsNz_w.v0Y6t0X66ZgtE-] disk not present in database.
[AccurateRip ID: 001e8abc-01338f4b-890eb40d] disk not present in database.

Track Peak [ CRC32 ] [W/O NULL] [ LOG ]
-- 99,8 [823A814B] [FC4D249F] CRC32
01 99,8 [30FAAE69] [666EEEFF]
02 99,8 2A9091B [D2B6F29B]
03 99,7 [AA66D8C0] [8BAA9E92]
04 99,8 [5A396C3C] [91B619A6]
05 99,8 [C2496E18] [3A11292D]
06 99,8 [504BA50D] [C4C6CE0D]
07 99,8 [3D1AE9DA] [49FFBA30]
08 99,8 [6D78D3B9] [D0792EDB]
09 99,8 [C4F5E442] [29BD7DCD]
10 99,8 [680ED2B7] [00DB3A6C]
11 99,8 [2A34641E] [A9CEE80C]
12 99,8 [7D394340] [14C248DF]
13 99,8 [D0B1D6DD] [9BB6C8C8]

Groove Ltd. - First Class (2015)


DOWNLOAD:
Buy Premium From My Links To Get Resumable Support & Max Speed & To Support Me


Links are Interchangeable - No Password
Direct Download

Tags: Groove

Groove Ltd. - First Class (2015) Download via Hotfile Rapidshare Fileserve Megaupload & FileSonic, Groove Ltd. - First Class (2015) free torrent downloads included crack, serial, keygen.Groove Ltd. - First Class (2015) Fast Download via Rapidshare Hotfile Fileserve Filesonic Megaupload, Groove Ltd. - First Class (2015) Torrents and Emule Download or anything related.
Leave a Comment
Your Name:
E-Mail:
Add Comments:

Enter Code: