Arti & Mestieri - The Live (2013)

Download Now

Arti & Mestieri - The Live (2013)

Arti & Mestieri - The Live (2013)
DVD5 | VIDEO_TS | MPEG-2 Video, NTSC 16:9 (720:480), 29.97fps, 8093kbps | DD 2.0, 192kbps | 75min | 4600Mb
1CD | Flac + Cue + Log | 400Mb
Rock | Ma.Ra.Cash MRC033 | rel: 2013 | covers

The Live is the story of the last years "on The Road" of this legendary Italian band from the 70's. Arti & Mestieri mix well the true Jazz-Rock (akin to Weather Report & Mahavishnu Orchestra) and more symphonic prog. This CD+DVD was taken from two different concerts: the CD from the Festival at ClubCittà in Kawasaki, Japan, on November 5, 2011 and the DVD from the Festival of Veruno, Italy, on September 2, 2011, with special guests: guitarist Gigi Venegoni, original member of the formation, in the CD, and Mel Collins and David Cross, ex King Crimson, in the DVD.
This production tells perfectly the two musical paths woven into the history of the group, developing with various improvisations and just the mood of the individual members. Two previously unreleased extra tracks: Veruno (the two Crimson) and an Italian version of Exiles, make the performance unique. Arti & Mestieri, which are now back in the studio for a new unreleased album coming out later this year, show, even if there was need, that they are a live band that knows how to deliver an incredible potential. The reinterpretations of the songs, makes them completely different from the original ones, adding a new freshness and vivacity that will allow fans to enjoy the old versions of inestimable refinement, and the new fans to know and appreciate what this band can express on a stage.

Tracks:
cd:
01. Gravita 9,81 (4:52)
02. Strips (4:17)
03. Positivo Negativo (3:28)
04. Si Fa Luna (7:34)
05. Valzer per Domani (2:23)
06. Alba Mediterranea (5:03)
07. Il Figlio del Barbiere (5:49)
08. A loro due - Marylin (8:13)
09. 2000 (8:12)
10. Trema (6:58)
~ (56:49)
dvd:
Live In Veruno Italy September 2nd 2011
01. Gravita 9.81
02. Strips
03. Positivo/Negativo
04. In Cammino
05. Il Figlio Del Barbiere
06. Mirafiori
07. Veruno
08. Comin' Here To Get You/Si Fa Luna
09. A Loro Due
10. Marylin
11. Alba Mediterranea
12. 2000
13. Exiles
14. Valzer Per Domani

Personnel:
- Bass - Roberto Puggioni
- Drums - Furio Chirico
- Guitar - Gigi Venegoni, Marco Roagna
- Keyboards - Beppe Crovella
- Saxophone, Flute - Mel Collins
- Violin - David Cross
- Vocals - Iano Nicolo'

Exact Audio Copy V1.0 beta 3 from 29. August 2011

Отчёт EAC об извлечении, выполненном 7. августа 2013, 17:14

Arti & Mestieri / The Live

Дисковод: ASUS BW-12D1S-U Adapter: 1 ID: 1

Режим чтения : Достоверность
Использование точного потока : Да
Отключение кэша аудио : Да
Использование указателей C2 : Нет

Коррекция смещения при чтении : 667
Способность читать области Lead-in и Lead-out : Да
Заполнение пропущенных сэмплов тишиной : Да
Удаление блоков с тишиной в начале и конце : Нет
При вычислениях CRC использовались нулевые сэмплы : Да
Интерфейс : Встроенный Win32-интерфейс для Win NT/2000

Выходной формат : Пользовательский кодировщик
Выбранный битрейт : 1024 kBit/s
Качество : Высокий
Добавление ID3-тега : Нет
Утилита сжатия : C:\Program Files (x86)\Exact Audio Copy\Flac\flac.exe
Дополнительные параметры : -V -8 -T "Date=%year%" -T "Genre=%genre%" %source%

TOC извлечённого CD Трек | Старт | Длительность | Начальный сектор | Конечный сектор

1 | 0:00.00 | 4:51.40 | 0 | 21864
2 | 4:51.40 | 4:17.22 | 21865 | 41161
3 | 9:08.62 | 3:27.52 | 41162 | 56738
4 | 12:36.39 | 7:33.47 | 56739 | 90760
5 | 20:10.11 | 2:23.28 | 90761 | 101513
6 | 22:33.39 | 5:03.26 | 101514 | 124264
7 | 27:36.65 | 5:48.39 | 124265 | 150403
8 | 33:25.29 | 8:12.55 | 150404 | 187358
9 | 41:38.09 | 8:12.30 | 187359 | 224288
10 | 49:50.39 | 6:58.10 | 224289 | 255648

Характеристики диапазона извлечения и сообщения об ошибках

Выбранный диапазон Имя файла E:\cd\Arti & Mestieri (2013) - Live (CD+DVD)\Arti & Mestieri - The Live.wav Пиковый уровень 100.0 %
Скорость извлечения 7.7 X
Качество диапазона 99.9 %
CRC теста 8C040333
CRC копии 8C040333
Копирование... OK

Ошибок не произошло

Конец отчёта

- CUETools DB Plugin V2.1.3

[CTDB TOCID: GvbyQjP4n6wtJFxRAZs5TqTv1bA-] disk not present in database, Submit result: GvbyQjP4n6wtJFxRAZs5TqTv1bA- has been uploaded

[CUETools log; Date: 2015.09.10. 14:12:48; Version: 2.1.5]
[CTDB TOCID: GvbyQjP4n6wtJFxRAZs5TqTv1bA-] found.
Track | CTDB Status
1 | (3/3) Accurately ripped
2 | (3/3) Accurately ripped
3 | (3/3) Accurately ripped
4 | (3/3) Accurately ripped
5 | (3/3) Accurately ripped
6 | (3/3) Accurately ripped
7 | (3/3) Accurately ripped
8 | (3/3) Accurately ripped
9 | (3/3) Accurately ripped
10 | (3/3) Accurately ripped
[AccurateRip ID: 00132277-009cbab1-7c0d500a] disk not present in database.

Track Peak [ CRC32 ] [W/O NULL] [ LOG ]
-- 99,9 [8C040333] [D108B325] CRC32
01 99,9 [C54DDC5E] [62B59849]
02 99,9 [109C94FB] [F861DAF7]
03 99,9 [AB1D9943] [9107C4C4]
04 99,9 [61FF414A] [2960AD53]
05 99,9 [EC0612B4] [49CD14EA]
06 99,9 [1DB3E6B0] [AABFFE7C]
07 98,8 [3B028848] [AF13ACCF]
08 98,8 [13378A90] 4165607
09 99,9 [CBFDC21C] [96DB686E]
10 99,9 [70CCA822] [AB64114D]

Arti & Mestieri - The Live (2013)

Arti & Mestieri - The Live (2013)

password: asd
DOWNLOAD:
Buy Premium To Support Me & Get Resumable Support & Max Speed


Links are Interchangeable - No Password
Direct Download

Tags: Mestieri

Arti & Mestieri - The Live (2013) Download via Hotfile Rapidshare Fileserve Megaupload & FileSonic, Arti & Mestieri - The Live (2013) free torrent downloads included crack, serial, keygen.Arti & Mestieri - The Live (2013) Fast Download via Rapidshare Hotfile Fileserve Filesonic Megaupload, Arti & Mestieri - The Live (2013) Torrents and Emule Download or anything related.
Leave a Comment
Your Name:
E-Mail:
Add Comments:

Enter Code: