Various Artists - Ultimate R&B: 4CDs of Great R&B Music (2015) [4CD Set] {Sony Music}

Download Now


Various Artists - Ultimate R&B: 4CDs of Great R&B Music (2015) [4CD Set] {Sony Music}
Various Artists - Ultimate R&B: 4CDs of Great R&B Music (2015) [4CD Set] {Sony Music}
EAC rip (secure mode) | FLAC (tracks)+CUE+LOG -> 2.01 Gb | MP3 @320 -> 695 Mb
Full Artwork @ 600 dpi (jpg) -> 47 Mb | 5% repair rar
© 2015 Sony Music | 88875085582
Rhythm & Blues / Hip Hop / Soul

"Ultimate R&B: 72 of the biggest R&B hits and hard to find rarities across 4 CDs, all housed in a fold out cardboard digi-pack sleeve. This is the best R&B album to hit the shops lately. Including Sean Paul, Joe, R Kelly and many other legends, it also includes some of the lesser known artists. I don't usually buy this music but gave it a try and was not dissapointed with it. The whole album is fantastic to listen to. I think it would be a great buy for R&B lovers AND people who don't normally buy this kind of music."

tracklist & personnel:
Disc: 1

01. Ignition - R. Kelly
02. Give Me Everything - Pitbull feat. Ne-Yo, Afrojack & Nayer
03. I Will Never Let You Down - RITA ORA
04. Don't Wake Me Up - Chris Brown
05. Love Sex Magic - Ciara feat. Justin Timberlake
06. Beautiful Girls - Sean Kingston
07. Killing Me Softly with His Song - Fugees / Fugees (Tranzlator Crew)
08. Everybody in Love - JLS
09. Spotlight - Jennifer Hudson
10. Breathe - Blu Cantrell feat. Sean Paul / Dr. Dre
11. U Know What's Up - Donell Jones
12. If You Had My Love - Jennifer Lopez
13. Right Here - SWV
14. Anything - 3T
15. Freak Me - Another Level
16. What a Girl Wants - Christina Aguilera
17. No Scrubs - TLC
18. Beneath Your Beautiful - Labrinth feat. Emeli Sandé

Various Artists - Ultimate R&B: 4CDs of Great R&B Music (2015) [4CD Set] {Sony Music}


Disc: 2
01. I've Got a Little Something for You - MN8
02. Never Gonna Let You Go - Tina Moore
03. No More (Baby I'ma Do Right) - 3LW
04. If There's Any Justice - Lemar
05. Ms. Jackson - OutKast
06. My Love Is Your Love - Whitney Houston
07. Cry Me a River - Justin Timberlake
08. Bleeding Love - Leona Lewis
09. Dance with My Father - Luther Vandross
10. If You Love Me - Brownstone
11. Westside - TQ
12. Work - Kelly Rowland
13. Gotta Work - Amerie
14. Boy You Knock Me Out - Tatyana Ali
15. Let Me Love You - Mario
16. Back & Forth - Aaliyah
17. Pony - Ginuwine
18. There You Go - P!nk

Disc: 3
01. No Air - Jordin Sparks feat. Chris Brown
02. Don't Think I'm Not - Kandi
03. Girlfriend - B2K
04. Used to Love U - John Legend
05. Try Sleeping with a Broken Heart - Alicia Keys
06. Ice Box - Omarion
07. Breathe Again - Toni Braxton
08. Nobody Knows - The Tony Rich Project
09. Wish I Didn't Miss You - Angie Stone
10. U Got It Bad - Usher
11. No More - Ruff Endz
12. Tell Me - Groove Theory
13. Too Close - Next
14. Last Night - Az Yet
15. The Color Of Love - Boyz II Men
16. They Don't Know - Jon B.
17. Like You - Bow Wow feat. Ciara
18. Love Like This - Natasha Bedingfield feat. Sean Kingston

Various Artists - Ultimate R&B: 4CDs of Great R&B Music (2015) [4CD Set] {Sony Music}


Disc: 4
01. Nothing's Real but Love - Rebecca Ferguson
02. Pretty Wings - Maxwell
03. Bust Your ShiChuang - Jazmine Sullivan
04. Just Kickin' It - Xscape
05. Nobody's Supposed To Be Here - Deborah Cox
06. Weekend - Kenny Lattimore
07. After Party - Koffee Brown
08. When I See U - Fantasia
09. I Wanna Know - Joe
10. So Gone - Monica / The Whispers
11. Sure Thing - Miguel
12. How You Gonna Act Like That - Tyrese
13. Charlene - Anthony Hamilton
14. Let's Get Married - Jagged Edge
15. Charlie, Last Name Wilson - Charlie Wilson
16. I'm Sprung - T-Pain
17. I Don't Care - Raheem DeVaughn
18. Gettin' Grown - Cee-Lo

Exact Audio Copy V1.0 beta 4 from 7. December 2014

EAC extraction logfile from 21. July 2015, 20:58

Various Artists / Ultimate R&B: 4CDs of Great R&B Music (Disc 1)

Used drive : TSSTcorpCDDVDW SN-208FB Adapter: 1 ID: 0

Read mode : Secure
Utilize accurate stream : Yes
Defeat audio cache : Yes
Make use of C2 pointers : No

Read offset correction

: 6
Overread into Lead-In and Lead-Out : No
Fill up missing offset samples with silence : Yes
Delete leading and trailing silent blocks : No
Null samples used in CRC calculations : Yes
Used interface
: Native Win32 interface for Win NT & 2000
Gap handling
: Appended to previous track

Used output format : User Defined Encoder
Selected bitrate : 1024 kBit/s
Quality : High
Add ID3 tag : No
Command line compressor : C:\Program Files (x86)\Kodeki za Glasbo\FLAC\flac.exe
Additional command line options : -8 -V -T "ARTIST=%artist%" -T "TITLE=%title%" -T "ALBUM=%albumtitle%" -T "DATE=%year%" -T "TRACKNUMBER=%tracknr%" -T "TOTALTRACKS=%numtracks%" -T "GENRE=%genre%" -T "ALBUMARTIST=%albumartist%" -T "ALBUM ARTIST=%albumartist%" -T "COMMENT=EAC Secure Mode, Test & Copy, AccurateRip, FLAC -8" %source%

TOC of the extracted CD Track | Start | Length | Start sector | End sector
--1 | 0:00.00 | 3:09.39 | 0 | 14213 2 | 3:09.39 | 4:17.12 | 14214 | 33500 3 | 7:26.51 | 3:24.72 | 33501 | 48872 4 | 10:51.48 | 3:43.01 | 48873 | 65598 5 | 14:34.49 | 3:41.18 | 65599 | 82191 6 | 18:15.67 | 4:04.18 | 82192 | 100509 7 | 22:20.10 | 4:51.29 | 100510 | 122363 8 | 27:11.39 | 3:17.24 | 122364 | 137162 9 | 30:28.63 | 4:11.00 | 137163 | 155987
10 | 34:39.63 | 3:51.10 | 155988 | 173322
11 | 38:30.73 | 4:02.18 | 173323 | 191490
12 | 42:33.16 | 4:26.36 | 191491 | 211476
13 | 46:59.52 | 3:46.56 | 211477 | 228482
14 | 50:46.33 | 5:22.39 | 228483 | 252671
15 | 56:08.72 | 4:57.15 | 252672 | 274961
16 | 61:06.12 | 3:20.69 | 274962 | 290030
17 | 64:27.06 | 3:59.72 | 290031 | 308027
18 | 68:27.03 | 4:33.63 | 308028 | 328565

Track 1 Filename M:\4. my rip in preparation\3 - in treatment\1\CD1\01 - R. Kelly - Ignition (remix).wav Pre-gap length 0:00:02.00 Peak level 99.7 %
Extraction speed 2.3 X
Track quality 100.0 %
Test CRC 4FFF36EF
Copy CRC 4FFF36EF
Track not present in AccurateRip database
Copy OK

Track 2 Filename M:\4. my rip in preparation\3 - in treatment\1\CD1\02 - Pitbull feat. Ne-Yo, Afrojack & Nayer - Give Me Everything.wav Pre-gap length 0:00:01.77 Peak level 83.1 %
Extraction speed 2.6 X
Track quality 100.0 %
Test CRC 4EEBFB24
Copy CRC 4EEBFB24
Track not present in AccurateRip database
Copy OK

Track 3 Filename M:\4. my rip in preparation\3 - in treatment\1\CD1\03 - Rita Ora - I Will Never Let You Down.wav Pre-gap length 0:00:01.77 Peak level 99.7 %
Extraction speed 2.7 X
Track quality 100.0 %
Test CRC 5ABDEF1D
Copy CRC 5ABDEF1D
Track not present in AccurateRip database
Copy OK

Track 4 Filename M:\4. my rip in preparation\3 - in treatment\1\CD1\04 - Chris Brown - Don't Wake Me Up.wav Pre-gap length 0:00:01.77 Peak level 99.7 %
Extraction speed 2.9 X
Track quality 100.0 %
Test CRC 5AD951DF
Copy CRC 5AD951DF
Track not present in AccurateRip database
Copy OK

Track 5 Filename M:\4. my rip in preparation\3 - in treatment\1\CD1\05 - Ciara feat. Justin Timberlake - Love Sex Magic.wav Pre-gap length 0:00:01.77 Peak level 87.1 %
Extraction speed 3.0 X
Track quality 100.0 %
Test CRC 2AD73522
Copy CRC 2AD73522
Track not present in AccurateRip database
Copy OK

Track 6 Filename M:\4. my rip in preparation\3 - in treatment\1\CD1\06 - Sean Kingston - Beautifull Girls.wav Pre-gap length 0:00:01.77 Peak level 98.8 %
Extraction speed 3.3 X
Track quality 100.0 %
Test CRC 22AF8C7A
Copy CRC 22AF8C7A
Track not present in AccurateRip database
Copy OK

Track 7 Filename M:\4. my rip in preparation\3 - in treatment\1\CD1\07 - Fugees - Killing Me Softly With His Song.wav Pre-gap length 0:00:01.77 Peak level 98.8 %
Extraction speed 3.6 X
Track quality 100.0 %
Test CRC B6EDBB8F
Copy CRC B6EDBB8F
Track not present in AccurateRip database
Copy OK

Track 8 Filename M:\4. my rip in preparation\3 - in treatment\1\CD1\08 - JLS - Everybody in Love.wav Pre-gap length 0:00:01.76 Peak level 83.1 %
Extraction speed 3.5 X
Track quality 100.0 %
Test CRC 89B5B0EC
Copy CRC 89B5B0EC
Track not present in AccurateRip database
Copy OK

Track 9 Filename M:\4. my rip in preparation\3 - in treatment\1\CD1\09 - Jennifer Hudson - Spotlight.wav Pre-gap length 0:00:01.77 Peak level 88.7 %
Extraction speed 3.0 X
Track quality 99.9 %
Test CRC 3721284D
Copy CRC 3721284D
Track not present in AccurateRip database
Copy OK

Track 10 Filename M:\4. my rip in preparation\3 - in treatment\1\CD1\10 - Blu Cantrell feat. Sean Paul - Breathe.wav Pre-gap length 0:00:01.77 Peak level 99.7 %
Extraction speed 3.8 X
Track quality 100.0 %
Test CRC 389F34F6
Copy CRC 389F34F6
Track not present in AccurateRip database
Copy OK

Track 11 Filename M:\4. my rip in preparation\3 - in treatment\1\CD1\11 - Donell Jones - U Know What's Up.wav Pre-gap length 0:00:01.77 Peak level 99.7 %
Extraction speed 4.0 X
Track quality 100.0 %
Test CRC 5F4011E3
Copy CRC 5F4011E3
Track not present in AccurateRip database
Copy OK

Track 12 Filename M:\4. my rip in preparation\3 - in treatment\1\CD1\12 - Jennifer Lopez - If You Had my Love.wav Pre-gap length 0:00:01.77 Peak level 98.8 %
Extraction speed 4.1 X
Track quality 100.0 %
Test CRC FB940D24
Copy CRC FB940D24
Track not present in AccurateRip database
Copy OK

Track 13 Filename M:\4. my rip in preparation\3 - in treatment\1\CD1\13 - SWV - Right Here (Human Nature mix).wav Pre-gap length 0:00:01.77 Peak level 91.2 %
Extraction speed 3.2 X
Track quality 99.9 %
Test CRC 9033C0AD
Copy CRC 9033C0AD
Track not present in AccurateRip database
Copy OK

Track 14 Filename M:\4. my rip in preparation\3 - in treatment\1\CD1\14 - 3T - Anything.wav Pre-gap length 0:00:01.77 Peak level 97.1 %
Extraction speed 4.5 X
Track quality 100.0 %
Test CRC 7084B75E
Copy CRC 7084B75E
Track not present in AccurateRip database
Copy OK

Track 15 Filename M:\4. my rip in preparation\3 - in treatment\1\CD1\15 - Another Level - Freak Me.wav Pre-gap length 0:00:01.77 Peak level 99.7 %
Extraction speed 4.6 X
Track quality 100.0 %
Test CRC 74FF5B6C
Copy CRC 74FF5B6C
Track not present in AccurateRip database
Copy OK

Track 16 Filename M:\4. my rip in preparation\3 - in treatment\1\CD1\16 - Christina Aguilera - What a Girl Wants.wav Pre-gap length 0:00:01.76 Peak level 98.7 %
Extraction speed 4.4 X
Track quality 100.0 %
Test CRC 15F054B2
Copy CRC 15F054B2
Track not present in AccurateRip database
Copy OK

Track 17 Filename M:\4. my rip in preparation\3 - in treatment\1\CD1\17 - TLC - No Scrubs.wav Pre-gap length 0:00:01.77 Peak level 96.5 %
Extraction speed 4.6 X
Track quality 100.0 %
Test CRC 17210A6A
Copy CRC 17210A6A
Track not present in AccurateRip database
Copy OK

Track 18 Filename M:\4. my rip in preparation\3 - in treatment\1\CD1\18 - Labrinth feat. Emeli Sande - Beneath Your Beautifull.wav Pre-gap length 0:00:01.77 Peak level 99.7 %
Extraction speed 4.8 X
Track quality 100.0 %
Test CRC 5E86B2BE
Copy CRC 5E86B2BE
Track not present in AccurateRip database
Copy OK

None of the tracks are present in the AccurateRip database

No errors occurred

End of status report

- CUETools DB Plugin V2.1.4

[CTDB TOCID: 1jGnX3zK04uAaA2r3Wod9myVdAo-] found
Submit result: 1jGnX3zK04uAaA2r3Wod9myVdAo- has been confirmed
Track | CTDB Status
1 | (1/1) Accurately ripped
2 | (1/1) Accurately ripped
3 | (1/1) Accurately ripped
4 | (1/1) Accurately ripped
5 | (1/1) Accurately ripped
6 | (1/1) Accurately ripped
7 | (1/1) Accurately ripped
8 | (1/1) Accurately ripped
9 | (1/1) Accurately ripped
10 | (1/1) Accurately ripped
11 | (1/1) Accurately ripped
12 | (1/1) Accurately ripped
13 | (1/1) Accurately ripped
14 | (1/1) Accurately ripped
15 | (1/1) Accurately ripped
16 | (1/1) Accurately ripped
17 | (1/1) Accurately ripped
18 | (1/1) Accurately ripped

==== Log checksum 218EF31735FEF1B32769EC2F6F73B36F0D9836EC517930477090A592BDDE8778 ====

Exact Audio Copy V1.0 beta 4 from 7. December 2014

EAC extraction logfile from 22. July 2015, 21:27

Various Artists / Ultimate R&B: 4CDs of Great R&B Music (Disc 2)

Used drive : TSSTcorpCDDVDW SN-208FB Adapter: 1 ID: 0

Read mode : Secure
Utilize accurate stream : Yes
Defeat audio cache : Yes
Make use of C2 pointers : No

Read offset correction

: 6
Overread into Lead-In and Lead-Out : No
Fill up missing offset samples with silence : Yes
Delete leading and trailing silent blocks : No
Null samples used in CRC calculations : Yes
Used interface
: Native Win32 interface for Win NT & 2000
Gap handling
: Appended to previous track

Used output format : User Defined Encoder
Selected bitrate : 1024 kBit/s
Quality : High
Add ID3 tag : No
Command line compressor : C:\Program Files (x86)\Kodeki za Glasbo\FLAC\flac.exe
Additional command line options : -8 -V -T "ARTIST=%artist%" -T "TITLE=%title%" -T "ALBUM=%albumtitle%" -T "DATE=%year%" -T "TRACKNUMBER=%tracknr%" -T "TOTALTRACKS=%numtracks%" -T "GENRE=%genre%" -T "ALBUMARTIST=%albumartist%" -T "ALBUM ARTIST=%albumartist%" -T "COMMENT=EAC Secure Mode, Test & Copy, AccurateRip, FLAC -8" %source%

TOC of the extracted CD Track | Start | Length | Start sector | End sector
--1 | 0:00.00 | 3:42.18 | 0 | 16667 2 | 3:42.18 | 4:14.56 | 16668 | 35773 3 | 7:56.74 | 4:23.38 | 35774 | 55536 4 | 12:20.37 | 3:47.44 | 55537 | 72605 5 | 16:08.06 | 4:00.33 | 72606 | 90638 6 | 20:08.39 | 4:21.65 | 90639 | 110278 7 | 24:30.29 | 4:49.65 | 110279 | 132018 8 | 29:20.19 | 4:23.11 | 132019 | 151754 9 | 33:43.30 | 4:27.21 | 151755 | 171800
10 | 38:10.51 | 3:13.19 | 171801 | 186294
11 | 41:23.70 | 3:53.11 | 186295 | 203780
12 | 45:17.06 | 3:28.69 | 203781 | 219449
13 | 48:46.00 | 3:11.35 | 219450 | 233809
14 | 51:57.35 | 4:00.44 | 233810 | 251853
15 | 55:58.04 | 4:14.63 | 251854 | 270966
16 | 60:12.67 | 3:50.67 | 270967 | 288283
17 | 64:03.59 | 5:21.06 | 288284 | 312364
18 | 69:24.65 | 3:26.48 | 312365 | 327862

Track 1 Filename M:\4. my rip in preparation\3 - in treatment\1\CD2\01 - MN8 - I've Got a Little Something.wav Pre-gap length 0:00:02.00 Peak level 98.8 %
Extraction speed 2.3 X
Track quality 100.0 %
Test CRC 0E2F5217
Copy CRC 0E2F5217
Track not present in AccurateRip database
Copy OK

Track 2 Filename M:\4. my rip in preparation\3 - in treatment\1\CD2\02 - Tina Moore - Never Gonna Let You Go (Kelly G. Bump-N-Go Edit).wav Pre-gap length 0:00:01.77 Peak level 98.8 %
Extraction speed 2.6 X
Track quality 100.0 %
Test CRC B0E471F0
Copy CRC B0E471F0
Track not present in AccurateRip database
Copy OK

Track 3 Filename M:\4. my rip in preparation\3 - in treatment\1\CD2\03 - 3LW - No More (Baby I'ma Do Right).wav Pre-gap length 0:00:01.77 Peak level 98.8 %
Extraction speed 2.9 X
Track quality 100.0 %
Test CRC ECA3F365
Copy CRC ECA3F365
Track not present in AccurateRip database
Copy OK

Track 4 Filename M:\4. my rip in preparation\3 - in treatment\1\CD2\04 - Lemar - If There's Any Justice.wav Pre-gap length 0:00:01.77 Peak level 94.2 %
Extraction speed 3.0 X
Track quality 100.0 %
Test CRC C0E07234
Copy CRC C0E07234
Track not present in AccurateRip database
Copy OK

Track 5 Filename M:\4. my rip in preparation\3 - in treatment\1\CD2\05 - OutKast - Ms. Jackson.wav Pre-gap length 0:00:01.77 Peak level 98.8 %
Extraction speed 3.2 X
Track quality 100.0 %
Test CRC 3E7A11A0
Copy CRC 3E7A11A0
Track not present in AccurateRip database
Copy OK

Track 6 Filename M:\4. my rip in preparation\3 - in treatment\1\CD2\06 - Whitney Houston - My LOve Is Your Love.wav Pre-gap length 0:00:01.77 Peak level 99.7 %
Extraction speed 3.4 X
Track quality 100.0 %
Test CRC D038F52B
Copy CRC D038F52B
Track not present in AccurateRip database
Copy OK

Track 7 Filename M:\4. my rip in preparation\3 - in treatment\1\CD2\07 - Justin Timberlake - Cry Me a River.wav Pre-gap length 0:00:01.76 Peak level 99.7 %
Extraction speed 3.6 X
Track quality 100.0 %
Test CRC 1975F930
Copy CRC 1975F930
Track not present in AccurateRip database
Copy OK

Track 8 Filename M:\4. my rip in preparation\3 - in treatment\1\CD2\08 - Leona Lewis - Bleeding Love.wav Pre-gap length 0:00:01.77 Peak level 99.7 %
Extraction speed 3.7 X
Track quality 100.0 %
Test CRC B47C0AF0
Copy CRC B47C0AF0
Track not present in AccurateRip database
Copy OK

Track 9 Filename M:\4. my rip in preparation\3 - in treatment\1\CD2\09 - Luther Vandross - Dance with my father.wav Pre-gap length 0:00:01.77 Peak level 98.8 %
Extraction speed 3.8 X
Track quality 100.0 %
Test CRC 3BF4D544
Copy CRC 3BF4D544
Track not present in AccurateRip database
Copy OK

Track 10 Filename M:\4. my rip in preparation\3 - in treatment\1\CD2\10 - Brownstone - If You Love Me.wav Pre-gap length 0:00:01.77 Peak level 98.8 %
Extraction speed 3.8 X
Track quality 100.0 %
Test CRC 99B9D65E
Copy CRC 99B9D65E
Track not present in AccurateRip database
Copy OK

Track 11 Filename M:\4. my rip in preparation\3 - in treatment\1\CD2\11 - TQ - Westside.wav Pre-gap length 0:00:01.77 Peak level 98.8 %
Extraction speed 4.0 X
Track quality 100.0 %
Test CRC 2365EF35
Copy CRC 2365EF35
Track not present in AccurateRip database
Copy OK

Track 12 Filename M:\4. my rip in preparation\3 - in treatment\1\CD2\12 - Kelly Rowland - Work.wav Pre-gap length 0:00:01.77 Peak level 90.4 %
Extraction speed 4.1 X
Track quality 100.0 %
Test CRC 82343BF9
Copy CRC 82343BF9
Track not present in AccurateRip database
Copy OK

Track 13 Filename M:\4. my rip in preparation\3 - in treatment\1\CD2\13 - Amerie - Gotta Work.wav Pre-gap length 0:00:01.77 Peak level 99.7 %
Extraction speed 4.1 X
Track quality 100.0 %
Test CRC EB3250E9
Copy CRC EB3250E9
Track not present in AccurateRip database
Copy OK

Track 14 Filename M:\4. my rip in preparation\3 - in treatment\1\CD2\14 - Tatyana Ali - Boy You Knock Me Out.wav Pre-gap length 0:00:01.77 Peak level 98.8 %
Extraction speed 4.2 X
Track quality 100.0 %
Test CRC DC3C9195
Copy CRC DC3C9195
Track not present in AccurateRip database
Copy OK

Track 15 Filename M:\4. my rip in preparation\3 - in treatment\1\CD2\15 - Mario - Let Me Love You.wav Pre-gap length 0:00:01.77 Peak level 89.1 %
Extraction speed 4.5 X
Track quality 100.0 %
Test CRC 420C76E8
Copy CRC 420C76E8
Track not present in AccurateRip database
Copy OK

Track 16 Filename M:\4. my rip in preparation\3 - in treatment\1\CD2\16 - Aaliyah - Back & Forth.wav Pre-gap length 0:00:01.77 Peak level 98.8 %
Extraction speed 4.5 X
Track quality 100.0 %
Test CRC 4E5C9CB7
Copy CRC 4E5C9CB7
Track not present in AccurateRip database
Copy OK

Track 17 Filename M:\4. my rip in preparation\3 - in treatment\1\CD2\17 - Ginuwine - Pony.wav Pre-gap length 0:00:01.77 Peak level 86.1 %
Extraction speed 4.8 X
Track quality 100.0 %
Test CRC F552CD70
Copy CRC F552CD70
Track not present in AccurateRip database
Copy OK

Track 18 Filename M:\4. my rip in preparation\3 - in treatment\1\CD2\18 - P!nk - There You Go.wav Pre-gap length 0:00:01.77 Peak level 98.8 %
Extraction speed 4.6 X
Track quality 100.0 %
Test CRC 5FCB2CC2
Copy CRC 5FCB2CC2
Track not present in AccurateRip database
Copy OK

None of the tracks are present in the AccurateRip database

No errors occurred

End of status report

- CUETools DB Plugin V2.1.4

[CTDB TOCID: jDO9ILsXofQP7TV7G9.JvxWNDq4-] found
Submit result: jDO9ILsXofQP7TV7G9.JvxWNDq4- has been confirmed
Track | CTDB Status
1 | (1/1) Accurately ripped
2 | (1/1) Accurately ripped
3 | (1/1) Accurately ripped
4 | (1/1) Accurately ripped
5 | (1/1) Accurately ripped
6 | (1/1) Accurately ripped
7 | (1/1) Accurately ripped
8 | (1/1) Accurately ripped
9 | (1/1) Accurately ripped
10 | (1/1) Accurately ripped
11 | (1/1) Accurately ripped
12 | (1/1) Accurately ripped
13 | (1/1) Accurately ripped
14 | (1/1) Accurately ripped
15 | (1/1) Accurately ripped
16 | (1/1) Accurately ripped
17 | (1/1) Accurately ripped
18 | (1/1) Accurately ripped

==== Log checksum ECC2161767CE46D02B15E62A6018D073432E710908183B2956438B99D1457740 ====

Exact Audio Copy V1.0 beta 4 from 7. December 2014

EAC extraction logfile from 25. July 2015, 11:19

Various Artists / Ultimate R&B: 4CDs of Great R&B Music (Disc 3)

Used drive : TSSTcorpCDDVDW SN-208FB Adapter: 1 ID: 0

Read mode : Secure
Utilize accurate stream : Yes
Defeat audio cache : Yes
Make use of C2 pointers : No

Read offset correction

: 6
Overread into Lead-In and Lead-Out : No
Fill up missing offset samples with silence : Yes
Delete leading and trailing silent blocks : No
Null samples used in CRC calculations : Yes
Used interface
: Native Win32 interface for Win NT & 2000
Gap handling
: Appended to previous track

Used output format : User Defined Encoder
Selected bitrate : 1024 kBit/s
Quality : High
Add ID3 tag : No
Command line compressor : C:\Program Files (x86)\Kodeki za Glasbo\FLAC\flac.exe
Additional command line options : -8 -V -T "ARTIST=%artist%" -T "TITLE=%title%" -T "ALBUM=%albumtitle%" -T "DATE=%year%" -T "TRACKNUMBER=%tracknr%" -T "TOTALTRACKS=%numtracks%" -T "GENRE=%genre%" -T "ALBUMARTIST=%albumartist%" -T "ALBUM ARTIST=%albumartist%" -T "COMMENT=EAC Secure Mode, Test & Copy, AccurateRip, FLAC -8" %source%

TOC of the extracted CD Track | Start | Length | Start sector | End sector
--1 | 0:00.00 | 4:25.73 | 0 | 19947 2 | 4:25.73 | 4:04.01 | 19948 | 38248 3 | 8:29.74 | 3:24.61 | 38249 | 53609 4 | 11:54.60 | 3:30.63 | 53610 | 69422 5 | 15:25.48 | 4:11.01 | 69423 | 88248 6 | 19:36.49 | 4:01.69 | 88249 | 106392 7 | 23:38.43 | 4:18.02 | 106393 | 125744 8 | 27:56.45 | 4:22.14 | 125745 | 145408 9 | 32:18.59 | 4:31.48 | 145409 | 165781
10 | 36:50.32 | 4:09.44 | 165782 | 184500
11 | 41:00.01 | 4:02.17 | 184501 | 202667
12 | 45:02.18 | 3:54.30 | 202668 | 220247
13 | 48:56.48 | 4:07.56 | 220248 | 238828
14 | 53:04.29 | 4:29.37 | 238829 | 259040
15 | 57:33.66 | 4:34.41 | 259041 | 279631
16 | 62:08.32 | 4:11.31 | 279632 | 298487
17 | 66:19.63 | 3:25.71 | 298488 | 313933
18 | 69:45.59 | 3:42.38 | 313934 | 330621

Track 1 Filename M:\4. my rip in preparation\3 - in treatment\1\CD3\01 - Jordin Sparks feat. Chris Brown - No Air.wav Pre-gap length 0:00:02.00 Peak level 90.9 %
Extraction speed 1.3 X
Track quality 100.0 %
Test CRC E3DBBD69
Copy CRC E3DBBD69
Track not present in AccurateRip database
Copy OK

Track 2 Filename M:\4. my rip in preparation\3 - in treatment\1\CD3\02 - Kandi - Don't Think I'm Not.wav Pre-gap length 0:00:01.77 Peak level 99.6 %
Extraction speed 1.2 X
Track quality 99.9 %
Test CRC 2DF8683B
Copy CRC 2DF8683B
Track not present in AccurateRip database
Copy OK

Track 3 Filename M:\4. my rip in preparation\3 - in treatment\1\CD3\03 - B2K - Girlfriend.wav Pre-gap length 0:00:01.78 Peak level 98.3 %
Extraction speed 1.3 X
Track quality 99.9 %
Test CRC D5511BDA
Copy CRC D5511BDA
Track not present in AccurateRip database
Copy OK

Track 4 Filename M:\4. my rip in preparation\3 - in treatment\1\CD3\04 - John Legend - Used to Love U.wav Pre-gap length 0:00:01.78 Peak level 89.5 %
Extraction speed 1.2 X
Track quality 99.9 %
Test CRC 6C74E2C9
Copy CRC 6C74E2C9
Track not present in AccurateRip database
Copy OK

Track 5 Filename M:\4. my rip in preparation\3 - in treatment\1\CD3\05 - Alicia Keys - Try Sleeping with a Broken Heart.wav Pre-gap length 0:00:01.78 Peak level 98.8 %
Extraction speed 1.4 X
Track quality 99.9 %
Test CRC 9183F2E9
Copy CRC 9183F2E9
Track not present in AccurateRip database
Copy OK

Track 6 Filename M:\4. my rip in preparation\3 - in treatment\1\CD3\06 - Omarion - Ice Box.wav Pre-gap length 0:00:01.78 Peak level 99.7 %
Extraction speed 1.8 X
Track quality 100.0 %
Test CRC B6AA6064
Copy CRC B6AA6064
Track not present in AccurateRip database
Copy OK

Track 7 Filename M:\4. my rip in preparation\3 - in treatment\1\CD3\07 - Toni Braxton - Breathe Again.wav Pre-gap length 0:00:01.78 Peak level 98.8 %
Extraction speed 1.9 X
Track quality 100.0 %
Test CRC 7B472A79
Copy CRC 7B472A79
Track not present in AccurateRip database
Copy OK

Track 8 Filename M:\4. my rip in preparation\3 - in treatment\1\CD3\08 - The Tony Rich Project - Nobody Knows.wav Pre-gap length 0:00:01.78 Peak level 99.7 %
Extraction speed 2.0 X
Track quality 100.0 %
Test CRC AE6849FB
Copy CRC AE6849FB
Track not present in AccurateRip database
Copy OK

Track 9 Filename M:\4. my rip in preparation\3 - in treatment\1\CD3\09 - Angie Stone - Wish I Didn't Miss You.wav Pre-gap length 0:00:01.78 Peak level 99.7 %
Extraction speed 2.1 X
Track quality 100.0 %
Test CRC CB477DF7
Copy CRC CB477DF7
Track not present in AccurateRip database
Copy OK

Track 10 Filename M:\4. my rip in preparation\3 - in treatment\1\CD3\10 - Usher - U Got It Bad.wav Pre-gap length 0:00:01.78 Peak level 98.8 %
Extraction speed 2.1 X
Track quality 100.0 %
Test CRC 9D5EF8F8
Copy CRC 9D5EF8F8
Track not present in AccurateRip database
Copy OK

Track 11 Filename M:\4. my rip in preparation\3 - in treatment\1\CD3\11 - Ruff Endz - No More.wav Pre-gap length 0:00:01.78 Peak level 92.0 %
Extraction speed 2.2 X
Track quality 100.0 %
Test CRC 369594C7
Copy CRC 369594C7
Track not present in AccurateRip database
Copy OK

Track 12 Filename M:\4. my rip in preparation\3 - in treatment\1\CD3\12 - Groove Theory - Tell Me.wav Pre-gap length 0:00:01.78 Peak level 99.7 %
Extraction speed 2.0 X
Track quality 99.9 %
Test CRC F49F3D24
Copy CRC F49F3D24
Track not present in AccurateRip database
Copy OK

Track 13 Filename M:\4. my rip in preparation\3 - in treatment\1\CD3\13 - Next - Too Close.wav Pre-gap length 0:00:01.78 Peak level 99.7 %
Extraction speed 2.4 X
Track quality 100.0 %
Test CRC 3ECC7BE0
Copy CRC 3ECC7BE0
Track not present in AccurateRip database
Copy OK

Track 14 Filename M:\4. my rip in preparation\3 - in treatment\1\CD3\14 - Az Yet - Last Night.wav Pre-gap length 0:00:01.78 Peak level 98.8 %
Extraction speed 2.4 X
Track quality 100.0 %
Test CRC 0EB0C16F
Copy CRC 0EB0C16F
Track not present in AccurateRip database
Copy OK

Track 15 Filename M:\4. my rip in preparation\3 - in treatment\1\CD3\15 - Boyz II Men - The Color of Love.wav Pre-gap length 0:00:01.77 Peak level 99.7 %
Extraction speed 2.3 X
Track quality 99.9 %
Test CRC A6611FC7
Copy CRC A6611FC7
Track not present in AccurateRip database
Copy OK

Track 16 Filename M:\4. my rip in preparation\3 - in treatment\1\CD3\16 - Jon B. - They Don't Know.wav Pre-gap length 0:00:01.77 Peak level 99.7 %
Extraction speed 2.6 X
Track quality 100.0 %
Test CRC 5558D8D2
Copy CRC 5558D8D2
Track not present in AccurateRip database
Copy OK

Track 17 Filename M:\4. my rip in preparation\3 - in treatment\1\CD3\17 - Bow Wov feat. Ciara - Like You.wav Pre-gap length 0:00:01.78 Peak level 92.2 %
Extraction speed 2.6 X
Track quality 100.0 %
Test CRC 60835180
Copy CRC 60835180
Track not present in AccurateRip database
Copy OK

Track 18 Filename M:\4. my rip in preparation\3 - in treatment\1\CD3\18 - Natasha Bedingfield feat. Sean Kingston - Love Like This.wav Pre-gap length 0:00:01.78 Peak level 99.7 %
Extraction speed 2.6 X
Track quality 100.0 %
Test CRC DBA5CABD
Copy CRC DBA5CABD
Track not present in AccurateRip database
Copy OK

None of the tracks are present in the AccurateRip database

No errors occurred

End of status report

- CUETools DB Plugin V2.1.4

[CTDB TOCID: CplTtkm2U0PBB867.59LHSFG5J8-] found
Submit result: CplTtkm2U0PBB867.59LHSFG5J8- has been uploaded
Track | CTDB Status
1 | (1/1) Accurately ripped
2 | (1/1) Accurately ripped
3 | (1/1) Accurately ripped
4 | (1/1) Accurately ripped
5 | (1/1) Accurately ripped
6 | (1/1) Accurately ripped
7 | (1/1) Accurately ripped
8 | (1/1) Accurately ripped
9 | (1/1) Accurately ripped
10 | (1/1) Accurately ripped
11 | (1/1) Accurately ripped
12 | (1/1) Accurately ripped
13 | (1/1) Accurately ripped
14 | (1/1) Accurately ripped
15 | (1/1) Accurately ripped
16 | (1/1) Accurately ripped
17 | (0/1) No match
18 | (0/1) No match

==== Log checksum DF81D310CC743124C127D31B5EECFA545CD1AEB4C5F581C15DF54B44C70AC36A ====

Exact Audio Copy V1.0 beta 4 from 7. December 2014

EAC extraction logfile from 25. July 2015, 13:45

Various Artists / Ultimate R&B: 4CDs of Great R&B Music (Disc 4)

Used drive : TSSTcorpCDDVDW SN-208FB Adapter: 1 ID: 0

Read mode : Secure
Utilize accurate stream : Yes
Defeat audio cache : Yes
Make use of C2 pointers : No

Read offset correction

: 6
Overread into Lead-In and Lead-Out : No
Fill up missing offset samples with silence : Yes
Delete leading and trailing silent blocks : No
Null samples used in CRC calculations : Yes
Used interface
: Native Win32 interface for Win NT & 2000
Gap handling
: Appended to previous track

Used output format : User Defined Encoder
Selected bitrate : 1024 kBit/s
Quality : High
Add ID3 tag : No
Command line compressor : C:\Program Files (x86)\Kodeki za Glasbo\FLAC\flac.exe
Additional command line options : -8 -V -T "ARTIST=%artist%" -T "TITLE=%title%" -T "ALBUM=%albumtitle%" -T "DATE=%year%" -T "TRACKNUMBER=%tracknr%" -T "TOTALTRACKS=%numtracks%" -T "GENRE=%genre%" -T "ALBUMARTIST=%albumartist%" -T "ALBUM ARTIST=%albumartist%" -T "COMMENT=EAC Secure Mode, Test & Copy, AccurateRip, FLAC -8" %source%

TOC of the extracted CD Track | Start | Length | Start sector | End sector
--1 | 0:00.00 | 2:55.03 | 0 | 13127 2 | 2:55.03 | 4:16.73 | 13128 | 32400 3 | 7:12.01 | 4:25.00 | 32401 | 52275 4 | 11:37.01 | 3:26.20 | 52276 | 67745 5 | 15:03.21 | 3:43.51 | 67746 | 84521 6 | 18:46.72 | 4:40.18 | 84522 | 105539 7 | 23:27.15 | 3:36.44 | 105540 | 121783 8 | 27:03.59 | 3:40.42 | 121784 | 138325 9 | 30:44.26 | 4:43.44 | 138326 | 159594
10 | 35:27.70 | 3:28.02 | 159595 | 175196
11 | 38:55.72 | 3:18.06 | 175197 | 190052
12 | 42:14.03 | 4:55.12 | 190053 | 212189
13 | 47:09.15 | 4:08.56 | 212190 | 230845
14 | 51:17.71 | 4:25.23 | 230846 | 250743
15 | 55:43.19 | 3:37.48 | 250744 | 267066
16 | 59:20.67 | 3:06.74 | 267067 | 281090
17 | 62:27.66 | 4:15.44 | 281091 | 300259
18 | 66:43.35 | 4:14.07 | 300260 | 319316

Track 1 Filename M:\4. my rip in preparation\3 - in treatment\1\CD4\01 - Rebecca Ferguson - Nothing's Real But Love.wav Pre-gap length 0:00:02.00 Peak level 99.7 %
Extraction speed 1.0 X
Track quality 100.0 %
Test CRC 9FD7A6BF
Copy CRC 9FD7A6BF
Track not present in AccurateRip database
Copy OK

Track 2 Filename M:\4. my rip in preparation\3 - in treatment\1\CD4\02 - Maxwell - Pretty Wings.wav Pre-gap length 0:00:01.24 Peak level 96.6 %
Extraction speed 1.0 X
Track quality 99.9 %
Test CRC 6DEC5E16
Copy CRC 6DEC5E16
Track not present in AccurateRip database
Copy OK

Track 3 Filename M:\4. my rip in preparation\3 - in treatment\1\CD4\03 - Jazmine Sullivan - Bust Your ShiChuang.wav Pre-gap length 0:00:01.77 Peak level 99.7 %
Extraction speed 1.2 X
Track quality 100.0 %
Test CRC 196C27B8
Copy CRC 196C27B8
Track not present in AccurateRip database
Copy OK

Track 4 Filename M:\4. my rip in preparation\3 - in treatment\1\CD4\04 - Xscape - Just Kickin' It.wav Pre-gap length 0:00:01.77 Peak level 99.7 %
Extraction speed 1.3 X
Track quality 100.0 %
Test CRC BC259F0C
Copy CRC BC259F0C
Track not present in AccurateRip database
Copy OK

Track 5 Filename M:\4. my rip in preparation\3 - in treatment\1\CD4\05 - Deborah Cox - Nobody's Supposed to be Here.wav Pre-gap length 0:00:01.77 Peak level 98.6 %
Extraction speed 1.4 X
Track quality 100.0 %
Test CRC 3963384D
Copy CRC 3963384D
Track not present in AccurateRip database
Copy OK

Track 6 Filename M:\4. my rip in preparation\3 - in treatment\1\CD4\06 - Kenny Latimore - Weekend.wav Pre-gap length 0:00:01.77 Peak level 98.8 %
Extraction speed 1.4 X
Track quality 100.0 %
Test CRC 22F21E88
Copy CRC 22F21E88
Track not present in AccurateRip database
Copy OK

Track 7 Filename M:\4. my rip in preparation\3 - in treatment\1\CD4\07 - Koffee Brown - After Party.wav Pre-gap length 0:00:01.77 Peak level 98.8 %
Extraction speed 1.5 X
Track quality 100.0 %
Test CRC AC82F260
Copy CRC AC82F260
Track not present in AccurateRip database
Copy OK

Track 8 Filename M:\4. my rip in preparation\3 - in treatment\1\CD4\08 - Fantasia - When I See U.wav Pre-gap length 0:00:01.77 Peak level 95.4 %
Extraction speed 1.5 X
Track quality 100.0 %
Test CRC 3E502B8D
Copy CRC 3E502B8D
Track not present in AccurateRip database
Copy OK

Track 9 Filename M:\4. my rip in preparation\3 - in treatment\1\CD4\09 - Joe - I Wanna Know.wav Pre-gap length 0:00:01.77 Peak level 99.7 %
Extraction speed 1.6 X
Track quality 100.0 %
Test CRC C76CF513
Copy CRC C76CF513
Track not present in AccurateRip database
Copy OK

Track 10 Filename M:\4. my rip in preparation\3 - in treatment\1\CD4\10 - Monica - So Gone.wav Pre-gap length 0:00:01.77 Peak level 92.2 %
Extraction speed 1.6 X
Track quality 100.0 %
Test CRC 51034578
Copy CRC 51034578
Track not present in AccurateRip database
Copy OK

Track 11 Filename M:\4. my rip in preparation\3 - in treatment\1\CD4\11 - Miguel - Sure Thing.wav Pre-gap length 0:00:01.77 Peak level 99.7 %
Extraction speed 1.6 X
Track quality 100.0 %
Test CRC 0788F0B6
Copy CRC 0788F0B6
Track not present in AccurateRip database
Copy OK

Track 12 Filename M:\4. my rip in preparation\3 - in treatment\1\CD4\12 - Tyrese - How You Gonna Act Like That.wav Pre-gap length 0:00:01.77 Peak level 99.7 %
Extraction speed 1.6 X
Track quality 99.9 %
Test CRC 89CF54E1
Copy CRC 89CF54E1
Track not present in AccurateRip database
Copy OK

Track 13 Filename M:\4. my rip in preparation\3 - in treatment\1\CD4\13 - Anthony Hamilton - Charlene.wav Pre-gap length 0:00:01.77 Peak level 99.7 %
Extraction speed 1.8 X
Track quality 100.0 %
Test CRC DFB4BC3A
Copy CRC DFB4BC3A
Track not present in AccurateRip database
Copy OK

Track 14 Filename M:\4. my rip in preparation\3 - in treatment\1\CD4\14 - Jagged Edge - Let's Get Married.wav Pre-gap length 0:00:01.77 Peak level 99.7 %
Extraction speed 1.8 X
Track quality 100.0 %
Test CRC E018DEE6
Copy CRC E018DEE6
Track not present in AccurateRip database
Copy OK

Track 15 Filename M:\4. my rip in preparation\3 - in treatment\1\CD4\15 - Charlie Wilson - Charlie, Last Name Wilson.wav Pre-gap length 0:00:01.77 Peak level 98.8 %
Extraction speed 1.8 X
Track quality 100.0 %
Test CRC 9FDF733B
Copy CRC 9FDF733B
Track not present in AccurateRip database
Copy OK

Track 16 Filename M:\4. my rip in preparation\3 - in treatment\1\CD4\16 - T-Pain - I'm Sprung.wav Pre-gap length 0:00:01.77 Peak level 99.7 %
Extraction speed 1.8 X
Track quality 100.0 %
Test CRC 018C8AF3
Copy CRC 018C8AF3
Track not present in AccurateRip database
Copy OK

Track 17 Filename M:\4. my rip in preparation\3 - in treatment\1\CD4\17 - Raheem DeVaughn - I Don't Care.wav Pre-gap length 0:00:01.77 Peak level 99.7 %
Extraction speed 1.9 X
Track quality 100.0 %
Test CRC 8782FC17
Copy CRC 8782FC17
Track not present in AccurateRip database
Copy OK

Track 18 Filename M:\4. my rip in preparation\3 - in treatment\1\CD4\18 - Cee-Lo - Gettin' Grown.wav Pre-gap length 0:00:01.77 Peak level 98.8 %
Extraction speed 2.0 X
Track quality 100.0 %
Test CRC 9B3F1B11
Copy CRC 9B3F1B11
Track not present in AccurateRip database
Copy OK

None of the tracks are present in the AccurateRip database

No errors occurred

End of status report

- CUETools DB Plugin V2.1.4

[CTDB TOCID: DLjrrqd8mWN_Y30k0GEfKqtOit0-] found
Submit result: DLjrrqd8mWN_Y30k0GEfKqtOit0- has been confirmed
Track | CTDB Status
1 | (1/1) Accurately ripped
2 | (1/1) Accurately ripped
3 | (1/1) Accurately ripped
4 | (1/1) Accurately ripped
5 | (1/1) Accurately ripped
6 | (1/1) Accurately ripped
7 | (1/1) Accurately ripped
8 | (1/1) Accurately ripped
9 | (1/1) Accurately ripped
10 | (1/1) Accurately ripped
11 | (1/1) Accurately ripped
12 | (1/1) Accurately ripped
13 | (1/1) Accurately ripped
14 | (1/1) Accurately ripped
15 | (1/1) Accurately ripped
16 | (1/1) Accurately ripped
17 | (1/1) Accurately ripped
18 | (1/1) Accurately ripped

==== Log checksum D5D200897C843B5D84333B6E522D1B7F21C39C2C8B6505FAF75252146E2274AD ====

Various Artists - Ultimate R&B: 4CDs of Great R&B Music (2015) [4CD Set] {Sony Music}


All thanks goes to the original releaser!
DOWNLOAD LINKS
(Premium Recommended)


Links are Interchangeable - No Password - Single Extraction
Direct Download

Tags: Various, Artists, Ultimate

Various Artists - Ultimate R&B: 4CDs of Great R&B Music (2015) [4CD Set] {Sony Music} Download via Hotfile Rapidshare Fileserve Megaupload & FileSonic, Various Artists - Ultimate R&B: 4CDs of Great R&B Music (2015) [4CD Set] {Sony Music} free torrent downloads included crack, serial, keygen.Various Artists - Ultimate R&B: 4CDs of Great R&B Music (2015) [4CD Set] {Sony Music} Fast Download via Rapidshare Hotfile Fileserve Filesonic Megaupload, Various Artists - Ultimate R&B: 4CDs of Great R&B Music (2015) [4CD Set] {Sony Music} Torrents and Emule Download or anything related.
Leave a Comment
Your Name:
E-Mail:
Add Comments:

Enter Code: