Saga - Marathon (2003) [SPV 085-74822 CD]

Download Now

Saga - Marathon (2003) [SPV 085-74822 CD]

Saga - Marathon (2003)
XLD Rip | FLAC: Image+Cue+Log | 372 Mb | MP3 CBR 320 kbps | 122 Mb | Scans | 189 Mb | Time: 51:27
Genre: Progressive Rock, Neo-Prog, Arena Rock | Label: Steamhammer | Cat.№: SPV 085-74822 CD

"This is SAGA's 15th studio album, released in 2003. "Marathon", the title track was used to open most of the bands concerts in 2003. Along with the ambitious Generation 13, Marathon is one of Saga's most mature albums to date and although it does not contain any 'hit' songs per se (if you exclude the ballad "The Blind Side of Your Heart"), its depth assures it a very long shelf life. The musicianship on it is impeccable and so is the production. A fine album indeed."



Track Listing

01. Marathon (04:59)
02. How Are You? (05:22)
03. Breathing Lessons (04:25)
04. Hands Up (03:44)
05. Streets Of Gold (Chapter 14) (05:11)
06. Blind Side Of The Heart (04:35)
07. Return To Forever (04:26)
08. Too Deep (04:36)
09. You Know I Know (Chapter 12) (04:21)
10. Rise And Shine (03:32)
11. Worlds Apart (Chapter 16) (06:10)

Produced by Jim Crichton

The Band

* Ian Crichton - guitar, background vocals
* Jim Gilmour - lead keyboards, vocals
* Steve Negus - drums, percussion
* Michael Sadler - lead vocals, keyboards
* Jim Crichton - bass, keyboards

Saga - Marathon (2003) [SPV 085-74822 CD]



X Lossless Decoder version 20130720 (144.0)

XLD extraction logfile from 2013-09-01 14:19:28 +0400

Saga / Marathon (085-74822)

Used drive : HL-DT-ST DVDRAM GE20NU11 (revision CN01)
Media type : Pressed CD

Ripper mode : XLD Secure Ripper
Disable audio cache : OK for the drive with a cache less than 1375KiB
Make use of C2 pointers : NO
Read offset correction : 667
Max retry count : 20
Gap status : Analyzed, Appended

TOC of the extracted CD
Track | Start | Length | Start sector | End sector
--1 | 00:00:00 | 04:59:25 | 0 | 22449 2 | 04:59:25 | 05:22:59 | 22450 | 46658 3 | 10:22:09 | 04:25:31 | 46659 | 66564 4 | 14:47:40 | 03:44:61 | 66565 | 83425 5 | 18:32:26 | 05:11:22 | 83426 | 106772 6 | 23:43:48 | 04:35:18 | 106773 | 127415 7 | 28:18:66 | 04:26:30 | 127416 | 147395 8 | 32:45:21 | 04:36:37 | 147396 | 168132 9 | 37:21:58 | 04:21:17 | 168133 | 187724
10 | 41:43:00 | 03:32:45 | 187725 | 203669
11 | 45:15:45 | 06:10:51 | 203670 | 231470

List of alternate offset correction values# | Absolute | Relative | Confidence
1 | -9 | -676 | 3 2 | 3 | -664 | 3 3 | 637 | -30 | 2

AccurateRip Summary (DiscID: 00153c44-00b6ede7-850c0e0b)
Track 01 : OK (v1+v2, confidence 52/60)
Track 02 : OK (v1+v2, confidence 52/60)
Track 03 : OK (v1+v2, confidence 52/60)
Track 04 : OK (v1+v2, confidence 52/60)
Track 05 : OK (v1+v2, confidence 52/60)
Track 06 : OK (v1+v2, confidence 52/60)
Track 07 : OK (v1+v2, confidence 52/60)
Track 08 : OK (v1+v2, confidence 52/60)
Track 09 : OK (v1+v2, confidence 52/60)
Track 10 : OK (v1+v2, confidence 52/60)
Track 11 : OK (v1+v2, confidence 50/58)->All tracks accurately ripped.

All Tracks
Filename : /OdW/SAGA Discography/2003 - Marathon (085-74822)/Saga - Marathon (085-74822).flac
Album gain : -9.03 dB
Peak : 0.999054
CRC32 hash (test run) : 8A264352
CRC32 hash : 8A264352
CRC32 hash (skip zero) : 6A667F32
StatisticsRead error : 0Jitter error (maybe fixed) : 0Retry sector count : 0Damaged sector count : 0

Track 01
Pre-gap length : 00:02:00 Track gain : -9.48 dB
Peak : 0.998688
CRC32 hash (test run) : 3BEDB7FE
CRC32 hash : 3BEDB7FE
CRC32 hash (skip zero) : 4DED1316
AccurateRip v1 signature : D97AFD70
AccurateRip v2 signature : 03A1EE6A->Accurately ripped (v1+v2, confidence 34+18/60)
StatisticsRead error : 0Jitter error (maybe fixed) : 0Retry sector count : 0Damaged sector count : 0

Track 02 Track gain : -8.37 dB
Peak : 0.998749
CRC32 hash (test run) : AB632FAE
CRC32 hash : AB632FAE
CRC32 hash (skip zero) : 8C6A5D80
AccurateRip v1 signature : DF9C5269
AccurateRip v2 signature : 7C28279B->Accurately ripped (v1+v2, confidence 34+18/60)
StatisticsRead error : 0Jitter error (maybe fixed) : 0Retry sector count : 0Damaged sector count : 0

Track 03 Track gain : -7.81 dB
Peak : 0.998657
CRC32 hash (test run) : ECCD47F5
CRC32 hash : ECCD47F5
CRC32 hash (skip zero) : C209805E
AccurateRip v1 signature : 6C0C23B0
AccurateRip v2 signature : B2EE4D67->Accurately ripped (v1+v2, confidence 34+18/60)
StatisticsRead error : 0Jitter error (maybe fixed) : 0Retry sector count : 0Damaged sector count : 0

Track 04
Pre-gap length : 00:00:48 Track gain : -7.99 dB
Peak : 0.998352
CRC32 hash (test run) : 0D80FE6D
CRC32 hash : 0D80FE6D
CRC32 hash (skip zero) : 5B75E2D6
AccurateRip v1 signature : 5574CE75
AccurateRip v2 signature : 0C3ACDEA->Accurately ripped (v1+v2, confidence 34+18/60)
StatisticsRead error : 0Jitter error (maybe fixed) : 0Retry sector count : 0Damaged sector count : 0

Track 05
Pre-gap length : 00:00:37 Track gain : -8.99 dB
Peak : 0.998779
CRC32 hash (test run) : 69BA0527
CRC32 hash : 69BA0527
CRC32 hash (skip zero) : EF7F6112
AccurateRip v1 signature : BED38AB5
AccurateRip v2 signature : 137B09CF->Accurately ripped (v1+v2, confidence 34+18/60)
StatisticsRead error : 0Jitter error (maybe fixed) : 0Retry sector count : 0Damaged sector count : 0

Track 06
Pre-gap length : 00:00:06 Track gain : -8.27 dB
Peak : 0.998474
CRC32 hash (test run) : 1F14D9EC
CRC32 hash : 1F14D9EC
CRC32 hash (skip zero) : 7B754AE1
AccurateRip v1 signature : D1FBDABB
AccurateRip v2 signature : 7B05BB62->Accurately ripped (v1+v2, confidence 34+18/60)
StatisticsRead error : 0Jitter error (maybe fixed) : 0Retry sector count : 0Damaged sector count : 0

Track 07
Pre-gap length : 00:00:03 Track gain : -9.54 dB
Peak : 0.998352
CRC32 hash (test run) : 4AE1DCC9
CRC32 hash : 4AE1DCC9
CRC32 hash (skip zero) : 0AA6183A
AccurateRip v1 signature : F13054A0
AccurateRip v2 signature : E4ED4602->Accurately ripped (v1+v2, confidence 34+18/60)
StatisticsRead error : 0Jitter error (maybe fixed) : 0Retry sector count : 0Damaged sector count : 0

Track 08 Track gain : -8.93 dB
Peak : 0.998688
CRC32 hash (test run) : F7ADEDDE
CRC32 hash : F7ADEDDE
CRC32 hash (skip zero) : 7B996E5E
AccurateRip v1 signature : CBC88A01
AccurateRip v2 signature : 9E396717->Accurately ripped (v1+v2, confidence 34+18/60)
StatisticsRead error : 0Jitter error (maybe fixed) : 0Retry sector count : 0Damaged sector count : 0

Track 09
Pre-gap length : 00:00:43 Track gain : -9.41 dB
Peak : 0.998596
CRC32 hash (test run) : E172B48A
CRC32 hash : E172B48A
CRC32 hash (skip zero) : EAF9FA56
AccurateRip v1 signature : 83693C60
AccurateRip v2 signature : D0D8949E->Accurately ripped (v1+v2, confidence 34+18/60)
StatisticsRead error : 0Jitter error (maybe fixed) : 0Retry sector count : 0Damaged sector count : 0

Track 10
Pre-gap length : 00:01:18 Track gain : -7.32 dB
Peak : 0.998535
CRC32 hash (test run) : 64E91282
CRC32 hash : 64E91282
CRC32 hash (skip zero) : 6BA1A245
AccurateRip v1 signature : 5104585D
AccurateRip v2 signature : B00A6DE4->Accurately ripped (v1+v2, confidence 34+18/60)
StatisticsRead error : 0Jitter error (maybe fixed) : 0Retry sector count : 0Damaged sector count : 0

Track 11
Pre-gap length : 00:00:23 Track gain : -9.73 dB
Peak : 0.999054
CRC32 hash (test run) : D65E0A49
CRC32 hash : D65E0A49
CRC32 hash (skip zero) : 3E77B47A
AccurateRip v1 signature : C91FCFF9
AccurateRip v2 signature : 9BD8A11D->Accurately ripped (v1+v2, confidence 33+17/58)
StatisticsRead error : 0Jitter error (maybe fixed) : 0Retry sector count : 0Damaged sector count : 0

No errors occurred

End of status report

--BEGIN XLD SIGNATURE--
I4myAFcd4lQn_6IcaBhHcUl2kPSgM5W9dVF8ShXGIw0kLjunKwyVguhVubq2Ov5qULz5Ty.VL4sZjYAU9k3qRh3Ets4R95NKJl7Nvpi
--END XLD SIGNATURE--

Many thanks to the original uploader: Olaf der Weisse
DOWNLOAD LINKS
Buy Premium From My Links To Get Resumable Support & Max Speed & To Support Me


Links are Interchangeable - No Password - Single Extraction
Direct Download

Tags: Marathon

Saga - Marathon (2003) [SPV 085-74822 CD] Download via Hotfile Rapidshare Fileserve Megaupload & FileSonic, Saga - Marathon (2003) [SPV 085-74822 CD] free torrent downloads included crack, serial, keygen.Saga - Marathon (2003) [SPV 085-74822 CD] Fast Download via Rapidshare Hotfile Fileserve Filesonic Megaupload, Saga - Marathon (2003) [SPV 085-74822 CD] Torrents and Emule Download or anything related.
Leave a Comment
Your Name:
E-Mail:
Add Comments:

Enter Code: