Tori Amos - Abnormally Attracted To Sin (2009) [CD+DVD, UK Limited Deluxe Edition] Re-up

Download Now

Tori Amos - Abnormally Attracted To Sin (2009) [CD+DVD, UK Limited Deluxe Edition] Re-up

Tori Amos - Abnormally Attracted To Sin (2009)
EAC Rip | FLAC (Img) + Cue + Log ~ 485 Mb | MP3 CBR320 ~ 182 Mb
DVD5 | MPEG-2, NTSC 4:3 (720x480), 29.970 fps, 5775 Kbps | LPCM 2.0, 1536 Kbps | ~ 3,99 Gb
Scans (JPG, 600 dpi) ~ 351 Mb | RAR 5% Recovery
Alternative Pop/Rock | Universal Republic #2707397

"Abnormally Attracted to Sin is the tenth studio album by singer-songwriter Tori Amos. It was released in the UK on 18 May 2009 and in the US on 19 May 2009 as a digital download, standard CD, and deluxe limited edition CD/DVD. It debuted on Billboard 200's "top ten" list, at #9, making it the artist's seventh album to do so. It is also the artist's first release under her deal with Universal Republic Records, following the end of her contract with Epic Records, and can be cited as the first non-conceptualized and self-proclaimed "personal album" by the singer-songwriter in over 10 years."

Wiki | Discogs | All Music
***************

Tori Amos - Abnormally Attracted To Sin (2009) [CD+DVD, UK Limited Deluxe Edition] Re-up

Tori Amos - Abnormally Attracted To Sin (2009) [CD+DVD, UK Limited Deluxe Edition] Re-up

Track List CD:

01. Give [04:14]
02. Welcome to England [04:07]
03. Strong Black Vine [03:27]
04. Flavor [04:06]
05. Not Dying Today [04:03]
06. Maybe California [04:25]
07. Curtain Call [04:52]
08. Fire to Your Plain [03:02]
09. Police Me [03:55]
10. That Guy [04:04]
11. Abnormally Attracted to Sin [05:33]
12. 500 Miles [04:07]
13. Mary Jane [02:42]
14. Starling [04:02]
15. Fast Horse [03:53]
16. Ophelia [04:43]
17. Lady in Blue [07:14]
18. Oscar's Theme (Bonus Track) [03:39]

Exact Audio Copy V0.99 prebeta 4 from 23. January 2008

EAC extraction logfile from 3. June 2009, 9:13

Tori Amos / Abnormally Atracted to Sin (UK Limited Deluxe Edition)

Used drive : ASUS CRW-5232AS Adapter: 3 ID: 1

Read mode : Secure
Utilize accurate stream : Yes
Defeat audio cache : Yes
Make use of C2 pointers : No

Read offset correction

: 6
Overread into Lead-In and Lead-Out : No
Fill up missing offset samples with silence : Yes
Delete leading and trailing silent blocks : No
Null samples used in CRC calculations : Yes
Used interface
: Installed external ASPI interface

Used output format : Monkey's Audio Lossless Encoder v3.99 DLL
Sample format : Normal Lossless Compression

TOC of the extracted CD Track | Start | Length | Start sector | End sector
--1 | 0:00.00 | 4:13.02 | 0 | 18976 2 | 4:13.02 | 4:06.06 | 18977 | 37432 3 | 8:19.08 | 3:26.60 | 37433 | 52942 4 | 11:45.68 | 4:05.11 | 52943 | 71328 5 | 15:51.04 | 4:02.08 | 71329 | 89486 6 | 19:53.12 | 4:24.27 | 89487 | 109313 7 | 24:17.39 | 4:51.64 | 109314 | 131202 8 | 29:09.28 | 3:01.28 | 131203 | 144805 9 | 32:10.56 | 3:54.41 | 144806 | 162396
10 | 36:05.22 | 4:03.55 | 162397 | 180676
11 | 40:09.02 | 5:32.48 | 180677 | 205624
12 | 45:41.50 | 4:06.16 | 205625 | 224090
13 | 49:47.66 | 2:41.50 | 224091 | 236215
14 | 52:29.41 | 4:01.72 | 236216 | 254362
15 | 56:31.38 | 3:52.32 | 254363 | 271794
16 | 60:23.70 | 4:42.30 | 271795 | 292974
17 | 65:06.25 | 7:13.27 | 292975 | 325476
18 | 72:19.52 | 3:38.11 | 325477 | 341837

Range status and errors

Selected range Filename Z:\!tracker\TORIGRAPHY\2009(05) - (Album) - Abnormally Attracted to Sin (UK Limited Deluxe Edition)\Tori Amos - Abnormally Atracted to Sin (UK Limited Deluxe Edition).ape Peak level 99.9 %
Range quality 100.0 %
Test CRC 46ADAECE
Copy CRC 46ADAECE
Copy OK

No errors occurred


AccurateRip summary

Track 1 not present in database
Track 2 not present in database
Track 3 not present in database
Track 4 not present in database
Track 5 not present in database
Track 6 not present in database
Track 7 not present in database
Track 8 not present in database
Track 9 not present in database
Track 10 not present in database
Track 11 not present in database
Track 12 not present in database
Track 13 not present in database
Track 14 not present in database
Track 15 not present in database
Track 16 not present in database
Track 17 not present in database
Track 18 not present in database

None of the tracks are present in the AccurateRip database

End of status report

foobar2000 1.2.6 / Dynamic Range Meter 1.1.1
log date: 2015-09-15 23:54:39

Analyzed: Tori Amos / Abnormally Atracted to Sin (UK Limited Deluxe Edition)

DR Peak RMS Duration Track

DR9 -0.01 dB -10.07 dB 4:13 01-Give
DR8 -0.01 dB -9.61 dB 4:06 02-Welcome to England
DR9 -0.01 dB -10.18 dB 3:27 03-Strong Black Vine
DR13 -0.01 dB -14.58 dB 4:05 04-Flavor
DR10 -0.01 dB -10.82 dB 4:02 05-Not Dying Today
DR11 -0.02 dB -13.24 dB 4:24 06-Maybe California
DR11 -0.01 dB -13.64 dB 4:52 07-Curtain Call
DR10 -0.01 dB -11.63 dB 3:01 08-Fire to Your Plain
DR10 -0.01 dB -10.84 dB 3:55 09-Police Me
DR8 -0.06 dB -10.51 dB 4:04 10-That Guy
DR9 -0.01 dB -10.65 dB 5:33 11-Abnormally Attracted to Sin
DR9 -0.01 dB -10.79 dB 4:06 12-500 Miles
DR9 -0.12 dB -11.95 dB 2:42 13-Mary Jane
DR8 -0.01 dB -11.47 dB 4:02 14-Starling
DR9 -0.01 dB -11.06 dB 3:52 15-Fast Horse
DR8 -0.01 dB -10.64 dB 4:42 16-Ophelia
DR6 -0.01 dB -9.08 dB 7:13 17-Lady in Blue
DR11 -0.12 dB -14.37 dB 3:38 18-Oscar's Theme (Bonus Track)

Number of tracks: 18
Official DR value: DR9

Samplerate: 44100 Hz
Channels: 2
Bits per sample: 16
Bitrate: 851 kbps
Codec: FLAC

[CUETools log; Date: 15.09.2015 23:54:42; Version: 2.1.5]
[CTDB TOCID: 4tvBkWYb3i0WFQbQ17DBUjvJseE-] found.
Track | CTDB Status
1 | (13/15) Accurately ripped
2 | (15/15) Accurately ripped
3 | (15/15) Accurately ripped
4 | (15/15) Accurately ripped
5 | (15/15) Accurately ripped
6 | (15/15) Accurately ripped
7 | (15/15) Accurately ripped
8 | (15/15) Accurately ripped
9 | (15/15) Accurately ripped
10 | (15/15) Accurately ripped
11 | (15/15) Accurately ripped
12 | (15/15) Accurately ripped
13 | (15/15) Accurately ripped
14 | (15/15) Accurately ripped
15 | (15/15) Accurately ripped
16 | (15/15) Accurately ripped
17 | (15/15) Accurately ripped
18 | (15/15) Accurately ripped
[AccurateRip ID: 00301462-02837aa1-0411cd12] found.
Track [ CRC | V2 ] Status
01 [4ec659c6|c1ec7bb2] (38+29/79) Accurately ripped
02 [99744803|a64b2a25] (38+29/84) Accurately ripped
03 [10657de5|327441a7] (38+29/84) Accurately ripped
04 [c62cdd7e|e7e92a43] (38+29/84) Accurately ripped
05 [ea304df8|269804ef] (39+29/85) Accurately ripped
06 [317b87d4|bd4a18a8] (39+29/85) Accurately ripped
07 [6d478e9a|095eb94e] (39+29/85) Accurately ripped
08 [e4b15615|87eba8f8] (38+29/84) Accurately ripped
09 [5522be0d|75386bad] (39+29/85) Accurately ripped
10 [a636c666|50a03914] (39+29/85) Accurately ripped
11 [8a4e9bc4|d682e7a8] (39+29/85) Accurately ripped
12 [f0c53423|b6fb3e83] (39+29/85) Accurately ripped
13 [9d8d1ba6|4d7af667] (39+29/85) Accurately ripped
14 [9d1056c2|3b1103e8] (39+29/85) Accurately ripped
15 [c40d3ec8|cb8631a8] (39+29/85) Accurately ripped
16 [41ce9abb|7a82f62c] (39+29/85) Accurately ripped
17 [06262446|dd1b0a10] (38+29/83) Accurately ripped
18 [61e455eb|1d178af1] (38+29/85) Accurately ripped
Offsetted by 646:
01 [a8321563] (05/79) Accurately ripped
02 [41adcf17] (09/84) Accurately ripped
03 [383a046e] (09/84) Accurately ripped
04 [d21b9f0e] (09/84) Accurately ripped
05 a9042ff (09/85) Accurately ripped
06 94ba9d1 (09/85) Accurately ripped
07 [4cf775e7] (09/85) Accurately ripped
08 [cdec6df1] (09/84) Accurately ripped
09 [3d90d8ba] (09/85) Accurately ripped
10 [6bb5a70f] (09/85) Accurately ripped
11 [689b78ff] (09/85) Accurately ripped
12 [c41d1ffc] (09/85) Accurately ripped
13 [598566e1] (09/85) Accurately ripped
14 [63217569] (09/85) Accurately ripped
15 [0fcd38d7] (09/85) Accurately ripped
16 [259be188] (09/85) Accurately ripped
17 [824cfaa5] (08/83) Accurately ripped
18 [659cb167] (09/85) Accurately ripped

Track Peak [ CRC32 ] [W/O NULL] [ LOG ]
-- 99,9 [46ADAECE] [C4389140] CRC32
01 99,8 [07DF9127] [7EEE57BB]
02 99,9 [598310AB] [1B02D329]
03 99,9 [C3AD69D3] [C01C9E70]
04 99,8 [E3E3D532] [181D6903]
05 99,9 [37B32885] [6AC35493]
06 99,7 [D95AB1AA] [21550230]
07 99,8 B6E18A5 [F49F2FC5]
08 99,9 76D266D [4B2E0F7A]
09 99,9 [17A0EED3] [214EBF36]
10 99,2 [D9F8E432] [8E660367]
11 99,8 [032C73EB] [A833BFBF]
12 99,9 [26D8A7D0] [C2E3FCD4]
13 98,6 [67B3DA51] [9157D6EB]
14 99,9 [4987D137] [5C3A1B85]
15 99,9 [998A4F7A] [C88C7A77]
16 99,8 DC5AD67 22CF76E
17 99,9 [97347035] [695D0D69]
18 98,6 [D5F3C0B6] [72240D01]

Tori Amos - Abnormally Attracted To Sin (2009) [CD+DVD, UK Limited Deluxe Edition] Re-up

Track List Bonus DVD - Abnormally Attracted To Sin (The Road Chronicles):

01. That Guy
02. Welcome To England
03. Strong Black Vine
04. Ophelia
05. Fast Horse
06. Fire To Your Plain
07. Curtain Call
08. Not Dying Today
09. Maybe California
10. Give
11. Police Me
12. Starling
13. 500 Miles
14. Flavor
15. Lady In Blue
16. Abnormally Attracted To Sin

General
Complete name : K:\DVD\Tori Amos - Abnormally Attracted To Sin (2009) DVD9\VIDEO_TS\VTS_02_1.VOB
Format
: MPEG-PS
File size
: 1 024 MiB
Duration
: 19mn 11s
Overall bit rate : 7 458 Kbps

Video
ID : 224 (0xE0)
Format
: MPEG Video
Format version : Version 2
Format profile : [email protected]
Format settings, BVOP : Yes
Format settings, Matrix : Default
Format settings, GOP : M=3, N=15
Format settings, picture structure : Frame
Duration
: 19mn 11s
Bit rate
: 5 774 Kbps
Maximum bit rate : 5 000 Kbps
Width
: 720 pixels
Height
: 480 pixels
Display aspect ratio : 4:3
Frame rate
: 29.970 fps
Standard
: NTSC
Color space
: YUV
Chroma subsampling

: 4:2:0
Bit depth
: 8 bits
Scan type
: Interlaced
Scan order
: Bottom Field First
Compression mode : Lossy
Bits/(Pixel*Frame)

: 0.557
Time code of first frame : 00:00:00:00
Time code source : Group of pictures header
GOP, Open/Closed : Open
Stream size
: 793 MiB (77%)
GOP, Open/Closed of first frame : Closed

Audio
ID : 189 (0xBD)-160 (0xA0)
Format
: PCM
Format settings, Endianness : Big
Format settings, Sign : Signed
Muxing mode
: DVD-Video
Duration
: 19mn 11s
Bit rate mode : Constant
Bit rate
: 1 536 Kbps
Channel(s)
: 2 channels
Sampling rate : 48.0 KHz
Bit depth
: 24 bits
Stream size
: 211 MiB (21%)

Menu

General
Complete name : K:\DVD\Tori Amos - Abnormally Attracted To Sin (2009) DVD9\VIDEO_TS\VTS_02_2.VOB
Format
: MPEG-PS
File size
: 1 024 MiB
Duration
: 19mn 11s
Overall bit rate : 7 459 Kbps

Video
ID : 224 (0xE0)
Format
: MPEG Video
Format version : Version 2
Format profile : [email protected]
Format settings, BVOP : Yes
Format settings, Matrix : Default
Format settings, GOP : M=3, N=15
Format settings, picture structure : Frame
Duration
: 19mn 11s
Bit rate
: 5 775 Kbps
Maximum bit rate : 5 000 Kbps
Width
: 720 pixels
Height
: 480 pixels
Display aspect ratio : 4:3
Frame rate
: 29.970 fps
Standard
: NTSC
Color space
: YUV
Chroma subsampling

: 4:2:0
Bit depth
: 8 bits
Scan type
: Interlaced
Scan order
: Bottom Field First
Compression mode : Lossy
Bits/(Pixel*Frame)

: 0.558
Time code of first frame : 00:02:51:13
Time code source : Group of pictures header
GOP, Open/Closed : Open
Stream size
: 793 MiB (77%)

Audio
ID : 189 (0xBD)-160 (0xA0)
Format
: PCM
Format settings, Endianness : Big
Format settings, Sign : Signed
Muxing mode
: DVD-Video
Duration
: 19mn 11s
Bit rate mode : Constant
Bit rate
: 1 536 Kbps
Channel(s)
: 2 channels
Sampling rate : 48.0 KHz
Bit depth
: 24 bits
Delay relative to video : -599ms
Stream size
: 211 MiB (21%)

Menu

General
Complete name : K:\DVD\Tori Amos - Abnormally Attracted To Sin (2009) DVD9\VIDEO_TS\VTS_02_3.VOB
Format
: MPEG-PS
File size
: 1 024 MiB
Duration
: 19mn 11s
Overall bit rate : 7 460 Kbps

Video
ID : 224 (0xE0)
Format
: MPEG Video
Format version : Version 2
Format profile : [email protected]
Format settings, BVOP : Yes
Format settings, Matrix : Default
Format settings, GOP : M=3, N=15
Format settings, picture structure : Frame
Duration
: 19mn 11s
Bit rate
: 5 775 Kbps
Maximum bit rate : 5 000 Kbps
Width
: 720 pixels
Height
: 480 pixels
Display aspect ratio : 4:3
Frame rate
: 29.970 fps
Standard
: NTSC
Color space
: YUV
Chroma subsampling

: 4:2:0
Bit depth
: 8 bits
Scan type
: Interlaced
Scan order
: Bottom Field First
Compression mode : Lossy
Bits/(Pixel*Frame)

: 0.558
Time code of first frame : 00:01:44:28
Time code source : Group of pictures header
GOP, Open/Closed : Open
Stream size
: 793 MiB (77%)

Audio
ID : 189 (0xBD)-160 (0xA0)
Format
: PCM
Format settings, Endianness : Big
Format settings, Sign : Signed
Muxing mode
: DVD-Video
Duration
: 19mn 11s
Bit rate mode : Constant
Bit rate
: 1 536 Kbps
Channel(s)
: 2 channels
Sampling rate : 48.0 KHz
Bit depth
: 24 bits
Delay relative to video : -813ms
Stream size
: 211 MiB (21%)

Menu

General
Complete name : K:\DVD\Tori Amos - Abnormally Attracted To Sin (2009) DVD9\VIDEO_TS\VTS_02_4.VOB
Format
: MPEG-PS
File size
: 665 MiB
Duration
: 12mn 27s
Overall bit rate : 7 458 Kbps

Video
ID : 224 (0xE0)
Format
: MPEG Video
Format version : Version 2
Format profile : [email protected]
Format settings, BVOP : Yes
Format settings, Matrix : Default
Format settings, GOP : M=3, N=15
Format settings, picture structure : Frame
Duration
: 12mn 27s
Bit rate
: 5 773 Kbps
Maximum bit rate : 5 000 Kbps
Width
: 720 pixels
Height
: 480 pixels
Display aspect ratio : 4:3
Frame rate
: 29.970 fps
Standard
: NTSC
Color space
: YUV
Chroma subsampling

: 4:2:0
Bit depth
: 8 bits
Scan type
: Interlaced
Scan order
: Bottom Field First
Compression mode : Lossy
Bits/(Pixel*Frame)

: 0.557
Time code of first frame : 00:00:24:13
Time code source : Group of pictures header
GOP, Open/Closed : Open
Stream size
: 514 MiB (77%)

Audio
ID : 189 (0xBD)-160 (0xA0)
Format
: PCM
Format settings, Endianness : Big
Format settings, Sign : Signed
Muxing mode
: DVD-Video
Duration
: 12mn 27s
Bit rate mode : Constant
Bit rate
: 1 536 Kbps
Channel(s)
: 2 channels
Sampling rate : 48.0 KHz
Bit depth
: 24 bits
Delay relative to video : -636ms
Stream size
: 137 MiB (21%)

Menu

Tori Amos - Abnormally Attracted To Sin (2009) [CD+DVD, UK Limited Deluxe Edition] Re-up

Tori Amos - Abnormally Attracted To Sin (2009) [CD+DVD, UK Limited Deluxe Edition] Re-up

Tori Amos - Abnormally Attracted To Sin (2009) [CD+DVD, UK Limited Deluxe Edition] Re-up

Tori Amos - Abnormally Attracted To Sin (2009) [CD+DVD, UK Limited Deluxe Edition] Re-up

Tori Amos - Abnormally Attracted To Sin (2009) [CD+DVD, UK Limited Deluxe Edition] Re-up

Tori Amos - Abnormally Attracted To Sin (2009) [CD+DVD, UK Limited Deluxe Edition] Re-up

Tori Amos - Abnormally Attracted To Sin (2009) [CD+DVD, UK Limited Deluxe Edition] Re-up

Tori Amos - Abnormally Attracted To Sin (2009) [CD+DVD, UK Limited Deluxe Edition] Re-up

Tori Amos - Abnormally Attracted To Sin (2009) [CD+DVD, UK Limited Deluxe Edition] Re-up

Tori Amos - Abnormally Attracted To Sin (2009) [CD+DVD, UK Limited Deluxe Edition] Re-up

Tori Amos - Abnormally Attracted To Sin (2009) [CD+DVD, UK Limited Deluxe Edition] Re-up

All thanks go to the original ripper(s) ...


DOWNLOAD LINKS
Buy Premium From My Links To Get Resumable Support & Max Speed & To Support Me

Rapidgator.net:
http://rapidgator.net/file/a8fbaa2a0277fb32a220dc2366a3c8bf/3or20.TrAms09AbnrllAttrTSnDVD9.part1.rar.html
http://rapidgator.net/file/9093bbbe8d114f2adc4f1f75e67686a8/3or20.TrAms09AbnrllAttrTSnDVD9.part2.rar.html
http://rapidgator.net/file/f09af057092f9729a1ae2b4f6e23a132/3or20.TrAms09AbnrllAttrTSnDVD9.part3.rar.html
http://rapidgator.net/file/31ff8bafa19cff01424d02962292c0eb/3or20.TrAms09AbnrllAttrTSnDVD9.part4.rar.html
http://rapidgator.net/file/df9767cf4abdbe7844280af6e3cae331/3or20.TrAms09AbnrllAttrTSnDVD9.part5.rar.html
http://rapidgator.net/file/a016a97f2eff45c12c3e952d91d568ac/3or20.TrAms09AbnrllAttrTSnDVD9.part6.rar.html
http://rapidgator.net/file/8037969e3965d1bc48ac7f3db4bd9f0d/3or20.TrAms09AbnrllAttrTSnDVD9.part7.rar.html
http://rapidgator.net/file/386c0be0ee7e63abf0e03d590b1491c3/3or20.TrAms09AbnrllAttrTSnDVD9.part8.rar.html
http://rapidgator.net/file/b41d1119b9547a2632baa0d89f6afd5a/3or20.TrAms09AbnrllAttrTSnflac.part1.rar.html
http://rapidgator.net/file/4cfce02c9fb53546e8a6e086f9d9dcc2/3or20.TrAms09AbnrllAttrTSnflac.part2.rar.html
http://rapidgator.net/file/5c01da0b81716e88e45008d01b9f2577/3or20.TrAms09AbnrllAttrTSnmp3.rar.html
http://rapidgator.net/file/6ec5414e20537a496a5faa06cb849982/3or20.TrAms09AbnrllAttrTSnScans.part1.rar.html
http://rapidgator.net/file/9de92062b1d1af35b57fb984f6520ece/3or20.TrAms09AbnrllAttrTSnScans.part2.rar.html

Uploaded.net:
http://uploaded.net/file/ttdbeowi/3or20.TrAms09AbnrllAttrTSnDVD9.part1.rar
http://uploaded.net/file/rfofkktb/3or20.TrAms09AbnrllAttrTSnDVD9.part2.rar
http://uploaded.net/file/9cjyu24q/3or20.TrAms09AbnrllAttrTSnDVD9.part3.rar
http://uploaded.net/file/u9n657kx/3or20.TrAms09AbnrllAttrTSnDVD9.part4.rar
http://uploaded.net/file/rhnjhstq/3or20.TrAms09AbnrllAttrTSnDVD9.part5.rar
http://uploaded.net/file/ixnf26ab/3or20.TrAms09AbnrllAttrTSnDVD9.part6.rar
http://uploaded.net/file/86k8qa1x/3or20.TrAms09AbnrllAttrTSnDVD9.part7.rar
http://uploaded.net/file/qoe7zoqq/3or20.TrAms09AbnrllAttrTSnDVD9.part8.rar
http://uploaded.net/file/qne4f1ik/3or20.TrAms09AbnrllAttrTSnflac.part1.rar
http://uploaded.net/file/vn62tcxx/3or20.TrAms09AbnrllAttrTSnflac.part2.rar
http://uploaded.net/file/3n6jvu72/3or20.TrAms09AbnrllAttrTSnmp3.rar
http://uploaded.net/file/gp4reyc6/3or20.TrAms09AbnrllAttrTSnScans.part1.rar
http://uploaded.net/file/4rx3ltqh/3or20.TrAms09AbnrllAttrTSnScans.part2.rar

nitroflare_com:
http://nitroflare.com/view/DE47CD66FF5E588/3or20.TrAms09AbnrllAttrTSnDVD9.part1.rar
http://nitroflare.com/view/6B5B24AC2001575/3or20.TrAms09AbnrllAttrTSnDVD9.part2.rar
http://nitroflare.com/view/00E9F6C0EBABD82/3or20.TrAms09AbnrllAttrTSnDVD9.part3.rar
http://nitroflare.com/view/221036212116136/3or20.TrAms09AbnrllAttrTSnDVD9.part4.rar
http://nitroflare.com/view/78D5137CA64FA07/3or20.TrAms09AbnrllAttrTSnDVD9.part5.rar
http://nitroflare.com/view/4C27C4248FED6E8/3or20.TrAms09AbnrllAttrTSnDVD9.part6.rar
http://nitroflare.com/view/6B4C5AD13370AF7/3or20.TrAms09AbnrllAttrTSnDVD9.part7.rar
http://nitroflare.com/view/461E072218F65B5/3or20.TrAms09AbnrllAttrTSnDVD9.part8.rar
http://nitroflare.com/view/76AA25E7E9BF9CC/3or20.TrAms09AbnrllAttrTSnflac.part1.rar
http://nitroflare.com/view/9650484D20A3B95/3or20.TrAms09AbnrllAttrTSnflac.part2.rar
http://nitroflare.com/view/BC38E98E16F9541/3or20.TrAms09AbnrllAttrTSnmp3.rar
http://nitroflare.com/view/58F32BDBC3BC447/3or20.TrAms09AbnrllAttrTSnScans.part1.rar
http://nitroflare.com/view/99DC2C830469C81/3or20.TrAms09AbnrllAttrTSnScans.part2.rar

Uploadable.ch:
http://www.uploadable.ch/file/wqgNjffKwMZ2/3or20.TrAms09AbnrllAttrTSnDVD9.part1.rar
http://www.uploadable.ch/file/WWQx6EXYqa6c/3or20.TrAms09AbnrllAttrTSnDVD9.part2.rar
http://www.uploadable.ch/file/97HEwV6hygEc/3or20.TrAms09AbnrllAttrTSnDVD9.part3.rar
http://www.uploadable.ch/file/9kzG3ZzZFKfH/3or20.TrAms09AbnrllAttrTSnDVD9.part4.rar
http://www.uploadable.ch/file/SHjjsGnNg9fn/3or20.TrAms09AbnrllAttrTSnDVD9.part5.rar
http://www.uploadable.ch/file/JjTxb5KF2v8n/3or20.TrAms09AbnrllAttrTSnDVD9.part6.rar
http://www.uploadable.ch/file/A8qMx4JRryCa/3or20.TrAms09AbnrllAttrTSnDVD9.part7.rar
http://www.uploadable.ch/file/fXj4Czfk2PA9/3or20.TrAms09AbnrllAttrTSnDVD9.part8.rar
http://www.uploadable.ch/file/EfCrXmG6UXhd/3or20.TrAms09AbnrllAttrTSnflac.part1.rar
http://www.uploadable.ch/file/zc3XVr3dvBDE/3or20.TrAms09AbnrllAttrTSnflac.part2.rar
http://www.uploadable.ch/file/2s25paSwcnWG/3or20.TrAms09AbnrllAttrTSnmp3.rar
http://www.uploadable.ch/file/5hDbkRgR2u8e/3or20.TrAms09AbnrllAttrTSnScans.part1.rar
http://www.uploadable.ch/file/aSZeGVkcKnbY/3or20.TrAms09AbnrllAttrTSnScans.part2.rar

Links are Interchangeable - No Password - Single Extraction
Direct Download

Tags: Abnormally, Attracted, Limited, Deluxe

Tori Amos - Abnormally Attracted To Sin (2009) [CD+DVD, UK Limited Deluxe Edition] Re-up Download via Hotfile Rapidshare Fileserve Megaupload & FileSonic, Tori Amos - Abnormally Attracted To Sin (2009) [CD+DVD, UK Limited Deluxe Edition] Re-up free torrent downloads included crack, serial, keygen.Tori Amos - Abnormally Attracted To Sin (2009) [CD+DVD, UK Limited Deluxe Edition] Re-up Fast Download via Rapidshare Hotfile Fileserve Filesonic Megaupload, Tori Amos - Abnormally Attracted To Sin (2009) [CD+DVD, UK Limited Deluxe Edition] Re-up Torrents and Emule Download or anything related.
Leave a Comment
Your Name:
E-Mail:
Add Comments:

Enter Code: