Ornette Coleman - The Unprecedented Music Of Ornette Coleman (1968) {2014 Japan Studio Songs Remaster YZSO Series}

Download Now


Ornette Coleman - The Unprecedented Music Of Ornette Coleman (1968) {2014 Japan Studio Songs Remaster YZSO Series}
Ornette Coleman - The Unprecedented Music Of Ornette Coleman (1968) {2014 Japan Studio Songs Remaster YZSO Series}
EAC rip (secure mode) | FLAC (tracks)+CUE+LOG -> 150 Mb | MP3 @320 -> 97 Mb
Full Artwork @ 600 dpi (png) -> 147 Mb | 5% repair rar
© 2014 Studio Songs Japan | YZSO-10049 | Mono
Jazz / Free Jazz / Avant-Garde Jazz / Modern Creative / Post Bop / Saxophone

"Recorded in Rome, Italy on February 8, 1968. The disc documents a 1968 performance of the Coleman Quartet in Milan, Italy, and features the interesting lineup of Coleman on alto sax, trumpet, and shanai, Ed Blackwell on drums, and the bass duo of David Izenzon and Charlie Haden. As can be expected, the quartet plays with great care and collective understanding throughout. Opening the date is a touching version of "Lonely Woman" performed in the style, perhaps, of his 1965 trio featuring Izenzon and Charles Moffett."

Personnel:
Ornette Coleman, alto saxophone, trumpet, shanai
Charlie Haden, bass
David Izenzon, bass
Ed Blackwell, drums

tracklist:
01. Lonely Woman
02. Monsieur Le Prince
03. Forgotten Children
04. Buddah Blues

Exact Audio Copy V1.1 from 23. June 2015

EAC extraction logfile from 15. September 2015, 12:26

Ornette Coleman / The Unprecedented Music Of Ornette Coleman

Used drive : TSSTcorpCDDVDW SE-208DB Adapter: 7 ID: 0

Read mode : Secure
Utilize accurate stream : Yes
Defeat audio cache : Yes
Make use of C2 pointers : No

Read offset correction

: 6
Overread into Lead-In and Lead-Out : No
Fill up missing offset samples with silence : Yes
Delete leading and trailing silent blocks : No
Null samples used in CRC calculations : Yes
Used interface
: Installed external ASPI interface
Gap handling
: Appended to previous track

Used output format : User Defined Encoder
Selected bitrate : 1024 kBit/s
Quality : High
Add ID3 tag : No
Command line compressor : C:\Program Files (x86)\FLAC Frontend\tools\flac.exe
Additional command line options : -8 -V -T "ARTIST=%artist%" -T "TITLE=%title%" -T "ALBUM=%albumtitle%" -T "DATE=%year%" -T "TRACKNUMBER=%tracknr%" -T "TOTALTRACKS=%numtracks%" -T "GENRE=%genre%" -T "ALBUMARTIST=%albumartist%" -T "ALBUM ARTIST=%albumartist%" -T "COMMENT=EAC Secure Mode, Test & Copy, AccurateRip, FLAC -8" %source%

TOC of the extracted CD Track | Start | Length | Start sector | End sector
--1 | 0:00.00 | 10:34.10 | 0 | 47559 2 | 10:34.10 | 9:50.65 | 47560 | 91874 3 | 20:25.00 | 11:11.05 | 91875 | 142204 4 | 31:36.05 | 13:12.67 | 142205 | 201671

Track 1 Filename M:\_EAC\Ornette Coleman - The Unprecedented Music Of Ornette Coleman (1967) [FLAC] {2014 Japan YZSO Series}\01 - Lonely Woman.wav Pre-gap length 0:00:02.00 Peak level 83.9 %
Extraction speed 2.8 X
Track quality 99.9 %
Test CRC 60C54025
Copy CRC 60C54025
Accurately ripped (confidence 1) [A2B8612D] (AR v2)
Copy OK

Track 2 Filename M:\_EAC\Ornette Coleman - The Unprecedented Music Of Ornette Coleman (1967) [FLAC] {2014 Japan YZSO Series}\02 - Monsieur Le Prince.wav Pre-gap length 0:00:01.28 Peak level 95.5 %
Extraction speed 3.7 X
Track quality 100.0 %
Test CRC FCF7E58E
Copy CRC FCF7E58E
Cannot be verified as accurate (confidence 1) DEA520B, AccurateRip returned [316B058C] (AR v2)
Copy OK

Track 3 Filename M:\_EAC\Ornette Coleman - The Unprecedented Music Of Ornette Coleman (1967) [FLAC] {2014 Japan YZSO Series}\03 - Forgotten Children.wav Pre-gap length 0:00:02.08 Peak level 100.0 %
Extraction speed 4.3 X
Track quality 100.0 %
Test CRC 28020FB1
Copy CRC 28020FB1
Accurately ripped (confidence 1) [52CF02E7] (AR v2)
Copy OK

Track 4 Filename M:\_EAC\Ornette Coleman - The Unprecedented Music Of Ornette Coleman (1967) [FLAC] {2014 Japan YZSO Series}\04 - Buddah Blues.wav Pre-gap length 0:00:10.00 Peak level 100.0 %
Extraction speed 4.9 X
Track quality 100.0 %
Test CRC EC0412CC
Copy CRC EC0412CC
Accurately ripped (confidence 1) [5B46D0DF] (AR v2)
Copy OK

3 track(s) accurately ripped
1 track(s) could not be verified as accurate

Some tracks could not be verified as accurate

No errors occurred

End of status report

==== Log checksum EB00E4BAAB6DCEEA35CEAB0130AC336198A0447D7CA7890AEAD20EE0C527C718 ====

Ornette Coleman - The Unprecedented Music Of Ornette Coleman (1968) {2014 Japan Studio Songs Remaster YZSO Series}

Ornette Coleman - The Unprecedented Music Of Ornette Coleman (1968) {2014 Japan Studio Songs Remaster YZSO Series}






NEXT -> More Studio Songs Japan YZSO Series...
DOWNLOAD LINKS
Buy Premium From My Links To Get Resumable Support & Max Speed & To Support Me


Links are Interchangeable - No Password - Single Extraction
Direct Download

Tags: Ornette, Coleman, Unprecedented, Ornette, Coleman, Studio, Remaster, Series

Ornette Coleman - The Unprecedented Music Of Ornette Coleman (1968) {2014 Japan Studio Songs Remaster YZSO Series} Download via Hotfile Rapidshare Fileserve Megaupload & FileSonic, Ornette Coleman - The Unprecedented Music Of Ornette Coleman (1968) {2014 Japan Studio Songs Remaster YZSO Series} free torrent downloads included crack, serial, keygen.Ornette Coleman - The Unprecedented Music Of Ornette Coleman (1968) {2014 Japan Studio Songs Remaster YZSO Series} Fast Download via Rapidshare Hotfile Fileserve Filesonic Megaupload, Ornette Coleman - The Unprecedented Music Of Ornette Coleman (1968) {2014 Japan Studio Songs Remaster YZSO Series} Torrents and Emule Download or anything related.
Leave a Comment
Your Name:
E-Mail:
Add Comments:

Enter Code: