Freddie Mercury - The Freddie Mercury Album (1992) [1st Japan press] RE-UPPED

Download Now

Freddie Mercury - The Freddie Mercury Album (1992) [1st Japan press] RE-UPPED

Freddie Mercury - The Freddie Mercury Album (1992) [1st Japan press]
EAC | FLAC+CUE+LOG > 295 MB | Full Scans > 313 MB | MP3 CBR 320 Kbps > 104 MB
Pop Rock | TT - 44:14 minutes | Label: Toshiba-EMI Limited, Japan / Cat. # TOCP-7482

The Freddie Mercury Album is a posthumous solo project with material from Queen frontman and vocalist Freddie Mercury released in 1992. The album is mainly made up of remixes from past Freddie Mercury releases, as well as the original versions of "Barcelona", "Love Kills", "Exercises in Free Love" and "The Great Pretender".
"Although Freddie Mercury had a legitimate solo career in Europe, the Queen singer's solo output was largely ignored stateside (since Queen's albums weren't selling that well in the U.S. during the mid- to late '80s, you wouldn't expect Mercury's solo material to exactly light up the charts). But Mercury managed to score quite a few solo hits back home in the U.K., especially his 1985 outing Mr. Bad Guy, as well as an assortment of singles and a vocal tour de force with opera singer Montserrat Caballe, Barcelona, all of which serve as the basis for the ten-track collection The Freddie Mercury Album. As with the other Queen members who have issued solo recordings, Mercury's solo material does not match the high quality work of his full-time band. That said, there are a few tracks that could have easily been reworked as Queen songs (in fact, one of Mercury's solo tracks, "Made in Heaven" -- which isn't included here -- was reworked and served as the title track for a 1995 posthumous Queen collection), including "Love Kills," "Mr. Bad Guy," and "Let's Turn It On" (the latter of which includes some very Brian May-like guitar work). To sample the finest tracks of Mercury's solo career, The Freddie Mercury Album is a worthy collection.

-- Review by Greg Prato, allmusic.com"


Tracklist:

01. The Great Pretender
02. Foolin' Around
03. Time
04. Your Kind Of Lover
05. Exercises In Free Love
06. In My Defence
07. Mr. Bad Guy
08. Let's Turn It On
09. Living On My Own
10. Love Kills
11. Barcelona (feat Montserrat Caballe)

More info @ Wikipedia

Thanks to BVstudio!

Exact Audio Copy V0.99 prebeta 5 from 4. May 2009

EAC extraction logfile from 21. October 2010, 22:36

Freddie Mercury / The Freddie Mercury Album

Used drive : PIONEER DVD-RW DVR-112D Adapter: 2 ID: 0

Read mode : Secure
Utilize accurate stream : Yes
Defeat audio cache : Yes
Make use of C2 pointers : No

Read offset correction

: 48
Overread into Lead-In and Lead-Out : No
Fill up missing offset samples with silence : Yes
Delete leading and trailing silent blocks : No
Null samples used in CRC calculations : Yes
Used interface
: Installed external ASPI interface

Used output format : User Defined Encoder
Selected bitrate : 1024 kBit/s
Quality : High
Add ID3 tag : No
Command line compressor : C:\Program Files (x86)\Exact Audio Copy\Flac\flac.exe
Additional command line options : -5 -V -T "ARTIST=%a" -T "TITLE=%t" -T "ALBUM=%g" -T "DATE=%y" -T "TRACKNUMBER=%n" -T "GENRE=%m" -T "COMMENT=EAC FLAC -5" %s

TOC of the extracted CD Track | Start | Length | Start sector | End sector
--1 | 0:00.00 | 3:28.00 | 0 | 15599 2 | 3:28.00 | 3:36.05 | 15600 | 31804 3 | 7:04.05 | 3:50.35 | 31805 | 49089 4 | 10:54.40 | 3:59.32 | 49090 | 67046 5 | 14:53.72 | 3:58.20 | 67047 | 84916 6 | 18:52.17 | 3:52.40 | 84917 | 102356 7 | 22:44.57 | 3:56.10 | 102357 | 120066 8 | 26:40.67 | 3:46.33 | 120067 | 137049 9 | 30:27.25 | 3:39.07 | 137050 | 153481
10 | 34:06.32 | 4:29.45 | 153482 | 173701
11 | 38:36.02 | 5:37.53 | 173702 | 199029

Range status and errors

Selected range Filename F:\Freddie Mercury - The Album - 1992 (Japan)\Freddie Mercury - The Freddie Mercury Album.wav Peak level 99.9 %
Range quality 100.0 %
Test CRC BBFF7EA9
Copy CRC BBFF7EA9
Copy OK

No errors occurred


AccurateRip summary

Track 1 not present in database
Track 2 not present in database
Track 3 not present in database
Track 4 not present in database
Track 5 not present in database
Track 6 not present in database
Track 7 not present in database
Track 8 not present in database
Track 9 not present in database
Track 10 not present in database
Track 11 not present in database

None of the tracks are present in the AccurateRip database

End of status report
DOWNLOAD LINKS
Buy Premium From My Links To Get Resumable Support & Max Speed & To Support Me


Links are Interchangeable - No Password - Single Extraction
Direct Download

Tags: Freddie, Mercury, Freddie, Mercury

Freddie Mercury - The Freddie Mercury Album (1992) [1st Japan press] RE-UPPED Download via Hotfile Rapidshare Fileserve Megaupload & FileSonic, Freddie Mercury - The Freddie Mercury Album (1992) [1st Japan press] RE-UPPED free torrent downloads included crack, serial, keygen.Freddie Mercury - The Freddie Mercury Album (1992) [1st Japan press] RE-UPPED Fast Download via Rapidshare Hotfile Fileserve Filesonic Megaupload, Freddie Mercury - The Freddie Mercury Album (1992) [1st Japan press] RE-UPPED Torrents and Emule Download or anything related.
Leave a Comment
Your Name:
E-Mail:
Add Comments:

Enter Code: