Shonen Knife - 712 (1991) [Original US Release] RESTORED

Download Now


Shonen Knife - 712 (1991) [Original US Release] RESTORED
Shonen Knife - 712 (1991)
FLAC+CUE+LOG or MP3 CBR 320 | Complete Scanwork | 274 or 114 MB
Original US Release / Rockville Records # ROCK 6065-2

712 was recorded over a three-year period and includes assists from many of their new friends. This was Shonen Knife's first release after their discovery by the rest of the world.
Tracklist:

01. Shonen Knife
02. Lazybone
03. Diet Run
04. Blue Oyster Cult
05. Rain
06. The Luck Of The Irish
07. My Favorite Town Osaka
08. Faith Healer
09. Redd Kross
10. White Flag
11. Superstar
12. Expo '90
13. Fruit Loop Dreams
14. The Moon World
15. Baggs S Bonus Track

Exact Audio Copy V1.1 from 23. June 2015

EAC extraction logfile from 15. September 2015, 17:31

Shonen Knife / 712

Used drive : ASUS DRW-24B1ST Adapter: 1 ID: 0

Read mode : Secure
Utilize accurate stream : Yes
Defeat audio cache : Yes
Make use of C2 pointers : No

Read offset correction

: 6
Overread into Lead-In and Lead-Out : No
Fill up missing offset samples with silence : Yes
Delete leading and trailing silent blocks : No
Null samples used in CRC calculations : Yes
Used interface
: Native Win32 interface for Win NT & 2000

Used output format : Internal WAV Routines
Sample format : 44.100 Hz; 16 Bit; Stereo

TOC of the extracted CD Track | Start | Length | Start sector | End sector
--1 | 0:00.00 | 3:51.33 | 0 | 17357 2 | 3:51.33 | 2:16.37 | 17358 | 27594 3 | 6:07.70 | 3:12.25 | 27595 | 42019 4 | 9:20.20 | 2:24.58 | 42020 | 52877 5 | 11:45.03 | 2:57.32 | 52878 | 66184 6 | 14:42.35 | 2:54.65 | 66185 | 79299 7 | 17:37.25 | 2:57.03 | 79300 | 92577 8 | 20:34.28 | 3:10.20 | 92578 | 106847 9 | 23:44.48 | 2:36.52 | 106848 | 118599
10 | 26:21.25 | 1:05.53 | 118600 | 123527
11 | 27:27.03 | 2:36.47 | 123528 | 135274
12 | 30:03.50 | 2:05.55 | 135275 | 144704
13 | 32:09.30 | 1:53.08 | 144705 | 153187
14 | 34:02.38 | 2:42.17 | 153188 | 165354
15 | 36:44.55 | 3:50.00 | 165355 | 182604

Range status and errors

Selected range Filename F:\_AvaxHome__Rehabilly\SHONEN KNIFE\1991- 712 [Original US Release]\Shonen Knife - 712 (ROCK 6065-2).wav Peak level 60.8 %
Extraction speed 7.9 X
Range quality 100.0 %
Test CRC 44F18099
Copy CRC 44F18099
Copy OK

No errors occurred


AccurateRip summary

Track 1 accurately ripped (confidence 11) [16219172] (AR v2)
Track 2 accurately ripped (confidence 12) [53E4C8A8] (AR v2)
Track 3 accurately ripped (confidence 11) [8C0B3B27] (AR v2)
Track 4 accurately ripped (confidence 11) [F418D7B8] (AR v2)
Track 5 accurately ripped (confidence 11) [F4E791CB] (AR v2)
Track 6 accurately ripped (confidence 11) [D800926E] (AR v2)
Track 7 accurately ripped (confidence 11) [686F19B8] (AR v2)
Track 8 accurately ripped (confidence 11) [DAC9E101] (AR v2)
Track 9 accurately ripped (confidence 11) [DDA0DC3B] (AR v2)
Track 10 accurately ripped (confidence 11) [FBED8732] (AR v2)
Track 11 accurately ripped (confidence 11) [CB1E4BBE] (AR v2)
Track 12 accurately ripped (confidence 12) [7A23A6AA] (AR v2)
Track 13 accurately ripped (confidence 11) [D0E87F7C] (AR v2)
Track 14 accurately ripped (confidence 12) [FD6740EE] (AR v2)
Track 15 accurately ripped (confidence 12) [A1DBBAFC] (AR v2)

All tracks accurately ripped

End of status report

==== Log checksum CA03B8C3A2D1F6B655D23F9446A1C4F7784C4CC1ED8F29426683C0A26DBBEDBF ====

Produced by Shonen Knife
Recorded from 1988 to 1990 in Japan
Mastered by Yasushi Unsunomiya.

* Naoko Yamano - guitar, vocals
* Michie Nakatani - bass, vocals
* Atsuko Yamano - drums, backing vocals

additional musicians:
- Jeff McDonald: vocals
- Atsushi Shibata: guitars
- Pat Fear: guitars
- Noboru Yamada: saxophone
- Dave Landry, Steve McDonald, Steve Davis: bass
- Victor Indrizzo: drums, percussion

Release Date: September 17, 1991
Format: Original Recording
Label: Rockville Records
Catalog No.: ROCK 6065-2

What's new
Nothing. Just new rip.
DOWNLOAD LINKS
Buy Premium From My Links To Get Resumable Support & Max Speed & To Support Me


Links are Interchangeable - No Password - Single Extraction
Direct Download

Tags: Shonen, Original, Release, RESTORED

Shonen Knife - 712 (1991) [Original US Release] RESTORED Download via Hotfile Rapidshare Fileserve Megaupload & FileSonic, Shonen Knife - 712 (1991) [Original US Release] RESTORED free torrent downloads included crack, serial, keygen.Shonen Knife - 712 (1991) [Original US Release] RESTORED Fast Download via Rapidshare Hotfile Fileserve Filesonic Megaupload, Shonen Knife - 712 (1991) [Original US Release] RESTORED Torrents and Emule Download or anything related.
Leave a Comment
Your Name:
E-Mail:
Add Comments:

Enter Code: