Anekdoten - Nucleus (1995) [Reissue 2004]

Download Now

Anekdoten - Nucleus (1995) [Reissue 2004]

Anekdoten - Nucleus (1995) [Reissue 2004]
EAC Rip | WavPack (image+.cue+log) - 340 MB | MP3 CBR 320 kbps (LAME 3.93) - 132 MB | Covers - 355 MB
Genre: Progressive Rock | RAR 3% Rec. | Label: Virta (Virta 002)

"Despite some growth from their King Crimson roots, this album shows Anekdoten still sounding remarkably like Red. "Harvest," opening with a creepily distorted Rhodes piano, establishes the band's somewhat overused pattern of alternating metallic verses clotted with bass, guitar and hi-hat with gorgeously soaring choruses of Mellotron, cello, and ride cymbals. "Here" gives the guitar theatrics a rest and allows Liljestrom's melancholy vocals and the group's delicate playing to come to the foreground. Its mournful lyrics and pensive strings are played over a wheezing pump organ - listen for Nicholas Berg's feet pumping away at the bellows in the background..."

Tracklist:
01. Nucleus
02. Harvest
03. Book of Hours
04. Raft
05. Rubankh
06. Here
07. This Far From The Sky
08. In Freedom
09. Luna Surface (Bonus track)

Total time: 56:03

Exact Audio Copy V1.0 beta 6 from 9. April 2015

EAC extraction logfile from 26. May 2015, 10:04

Anekdoten / Nucleus

Used drive : PIONEER BD-RW BDR-XD04 Adapter: 1 ID: 0

Read mode : Secure
Utilize accurate stream : Yes
Defeat audio cache : Yes
Make use of C2 pointers : No

Read offset correction

: 667
Overread into Lead-In and Lead-Out : No
Fill up missing offset samples with silence : Yes
Delete leading and trailing silent blocks : No
Null samples used in CRC calculations : Yes
Used interface
: Native Win32 interface for Win NT & 2000

Used output format : User Defined Encoder
Selected bitrate : 768 kBit/s
Quality : High
Add ID3 tag : No
Command line compressor : c:\Program Files (x86)\Exact Audio Copy\wavpack\wavpack.exe
Additional command line options : -hm -w "Year=%year%" -w "Genre=%genre%" %source% %dest%

TOC of the extracted CD Track | Start | Length | Start sector | End sector
--1 | 0:00.00 | 5:12.44 | 0 | 23443 2 | 5:12.44 | 6:57.32 | 23444 | 54750 3 | 12:10.01 | 9:59.04 | 54751 | 99679 4 | 22:09.05 | 0:58.48 | 99680 | 104077 5 | 23:07.53 | 3:24.61 | 104078 | 119438 6 | 26:32.39 | 7:26.36 | 119439 | 152924 7 | 33:59.00 | 8:49.71 | 152925 | 192670 8 | 42:48.71 | 6:32.17 | 192671 | 222087 9 | 49:21.13 | 6:41.28 | 222088 | 252190

Range status and errors

Selected range Filename C:\_NL+_\CD70\Anekdoten - Nucleus.wav Peak level 98.9 %
Extraction speed 4.7 X
Range quality 100.0 %
Test CRC 697B8A4E
Copy CRC 697B8A4E
Copy OK

No errors occurred


AccurateRip summary

Track 1 accurately ripped (confidence 7) [27FF3764] (AR v2)
Track 2 accurately ripped (confidence 7) [C9C98493] (AR v2)
Track 3 accurately ripped (confidence 7) 5FF0A71 (AR v2)
Track 4 accurately ripped (confidence 7) [A868F939] (AR v2)
Track 5 accurately ripped (confidence 7) [94DDDEB7] (AR v2)
Track 6 accurately ripped (confidence 7) [ED704816] (AR v2)
Track 7 accurately ripped (confidence 7) [C8CF5386] (AR v2)
Track 8 accurately ripped (confidence 7) [E2FFD441] (AR v2)
Track 9 accurately ripped (confidence 7) [D470385F] (AR v2)

All tracks accurately ripped

End of status report

- CUETools DB Plugin V2.1.6

[CTDB TOCID: vOzAcOglDjyFytkRVJ_bQMhBqCg-] found
Submit result: vOzAcOglDjyFytkRVJ_bQMhBqCg- has been confirmed
Track | CTDB Status
1 | (11/11) Accurately ripped
2 | (11/11) Accurately ripped
3 | (11/11) Accurately ripped
4 | (11/11) Accurately ripped
5 | (11/11) Accurately ripped
6 | (11/11) Accurately ripped
7 | (11/11) Accurately ripped
8 | (11/11) Accurately ripped
9 | (11/11) Accurately ripped

==== Log checksum 02186BB03DFE8F65F26D465325B4D82FFEBD0C9C28D21882CA1C1B3FE1DA10D5 ====

[CUETools log; Date: 16.09.2015 11:48:08; Version: 2.1.4]
[CTDB TOCID: vOzAcOglDjyFytkRVJ_bQMhBqCg-] found.
Track | CTDB Status
1 | (14/14) Accurately ripped
2 | (14/14) Accurately ripped
3 | (14/14) Accurately ripped
4 | (14/14) Accurately ripped
5 | (14/14) Accurately ripped
6 | (14/14) Accurately ripped
7 | (14/14) Accurately ripped
8 | (14/14) Accurately ripped
9 | (14/14) Accurately ripped
[AccurateRip ID: 0012a293-008903e7-6f0d2209] found.
Track [ CRC | V2 ] Status
01 [e03de25c|27ff3764] (02+08/27) Accurately ripped
02 [7dc7cd0d|c9c98493] (02+08/27) Accurately ripped
03 [8abf69c8|b5ff0a71] (02+08/27) Accurately ripped
04 [15738356|a868f939] (02+08/26) Accurately ripped
05 [f17922a9|94dddeb7] (02+08/26) Accurately ripped
06 [2bcddd6a|ed704816] (02+08/27) Accurately ripped
07 [538aa68e|c8cf5386] (02+08/27) Accurately ripped
08 [480064f0|e2ffd441] (02+08/26) Accurately ripped
09 [0e49ad8d|d470385f] (02+08/25) Accurately ripped
Offsetted by 36:
01 [4708c5a1] (12/27) Accurately ripped
02 [d89294c8] (12/27) Accurately ripped
03 [8f5e718f] (12/27) Accurately ripped
04 [76f8c681] (11/26) Accurately ripped
05 [12a40482] (11/26) Accurately ripped
06 [a3a19c63] (12/27) Accurately ripped
07 e4f7380 (12/27) Accurately ripped
08 df4bc9b (11/26) Accurately ripped
09 [cb739468] (10/25) Accurately ripped

Track Peak [ CRC32 ] [W/O NULL] [ LOG ]
-- 98,9 [697B8A4E] A3569B1 CRC32
01 98,9 [D5FF0E10] [646A5949]
02 98,9 [5080B594] [98F2FEEB]
03 98,8 [63CDFF38] [9783D557]
04 66,5 [1D48E116] [35711F9B]
05 98,8 9915849 F9840EA
06 98,8 [36943609] D98C1F0
07 98,9 [5547A7FC] [F560D522]
08 98,8 [926F2742] [95745DEE]
09 77,8 [44CC92E8] [41129468]

Thanks to tatuk
DOWNLOAD LINKS:
Buy Premium To Support Me & Get Resumable Support & Max Speed


Links are Interchangeable - No Password - Single Extraction
Direct Download

Tags: Anekdoten, Nucleus, Reissue

Anekdoten - Nucleus (1995) [Reissue 2004] Download via Hotfile Rapidshare Fileserve Megaupload & FileSonic, Anekdoten - Nucleus (1995) [Reissue 2004] free torrent downloads included crack, serial, keygen.Anekdoten - Nucleus (1995) [Reissue 2004] Fast Download via Rapidshare Hotfile Fileserve Filesonic Megaupload, Anekdoten - Nucleus (1995) [Reissue 2004] Torrents and Emule Download or anything related.
Leave a Comment
Your Name:
E-Mail:
Add Comments:

Enter Code: