James Horner - Star Trek II: The Wrath Of Khan - Original Motion Picture Soundtrack (1982) Newly Expanded Edition 2009

Download Now

James Horner - Star Trek II: The Wrath Of Khan - Original Motion Picture Soundtrack (1982) Newly Expanded Edition 2009

James Horner - Star Trek II: The Wrath Of Khan - Original Motion Picture Soundtrack (1982, re 2009)
EAC | FLAC | Image (Cue&Log) ~ 425 Mb (incl 5%) | Mp3 (CBR320) ~ 211 Mb (incl 5%) | Scans included
Genre: Soundtrack, Score | Label: Film Score Monthly/Retrograde | # FSM 80128-2 | Time: 01:15:28

"Taking the musical reins from the legendary Jerry Goldsmith, James Horner boarded the Starship Enterprise to deliver what would prove to be his breakthrough score. A surprisingly dark, emotional effort some distance removed from Goldsmith's utopian fanfare, Star Trek II: The Wrath of Khan was instrumental in steering the franchise into more complex territory. Horner's lucid melodies and sweeping orchestral arrangements possess a sense of genuine danger and malice long absent from Star Trek's musical backdrop, climaxing in the profoundly emotional catharsis of "Spock." His efforts lend Trek creator Gene Roddenberry's vision a newfound gravitas."

"Star Trek II: The Wrath of Khan (1982) is beloved as arguably the finest Star Trek feature film. Directed by Nicholas Meyer (Time After Time), the film features the death of Spock, one of William Shatner's finest performances as Kirk, and an iconic villain in Ricardo Montalban as Khan. After the special effects-laden Star Trek: The Motion Picture, it was Star Trek II that set the franchise back on its feet with a rich, weighty narrative of youth and age, life and death that continues to be the yardstick against which future films are measured-it is the quintessential example of mining the franchise for all the drama it possesses while staying true to its essential themes and characterizations.

The film benefits enormously from a rich, sweeping symphonic score by a composer at the time virtually unknown, but who has since then become one of the giants of the field: James Horner. Then 28-with only a few films under his belt-Horner was personally selected by Meyer and his colleagues when the budget prohibited the hiring of a veteran like Jerry Goldsmith (who had done such a sensational score for the first film).

Working closely with Meyer, Horner crafted flowing, nautical-sounding melodies for Kirk and the Enterprise that recalled the spirit of Captain Horatio Hornblower, one of Gene Roddenberry's inspirations for the series. Horner contrasted sweeping, flowing themes for the heroes against shorter, warlike music for the archvillain Khan-creating dynamic and memorable battle music for the film's WWII submarine-style spaceship confrontations. But it was the film's core story of the friendship between Kirk and Spock-and the separation of that bond at the story's end-that received Horner's most heart-pulling and emotional scoring.

Star Trek II was released on LP by Atlantic Records in a 45-minute program issued on CD by GNP/Crescendo (long out of print). Although the album program featured the score's highlights, fans have long clamored for a complete-score presentation-adding such important cues as the mind-control sequences involving Chekov and Capt. Terrell being possessed by alien eels, the revelation of the Genesis Cave, the final battle between the Enterprise and Reliant, and Spock's death and funeral ("Amazing Grace"). FSM delivers in cooperation with Rhino Entertainment (who administer the Atlantic Records catalog) and Paramount Pictures (owners of the Star Trek film franchise)-remastering the complete score from Dan Wallin's 1982 three-track film mixes, stored in the Paramount vaults in sterling sound quality.

The 28-page CD booklet features commentary and track-by-track breakdowns including new and historical interview quotes by Horner, Meyer and others involved in the production-as well as our customary art direction by Joe Sikoryak featuring stills, rare artwork and behind-the-scenes photos."


James Horner - Star Trek II: The Wrath Of Khan - Original Motion Picture Soundtrack (1982) Newly Expanded Edition 2009


James Horner at Allmusic
James Horner at Wiki

Film at IMDB
Film at Wiki

Tracklist:

01. Main Title (03:08)
02. Surprise On Ceti Alpha V (00:46)
03. Khan's Pets (04:20)
04. The Eels Of Ceti Alpha V / Kirk In Space Shuttle (03:54)
05. Enterprise Clears Moorings (03:34)
06. Chekov Lies (00:42)
07. Spock (01:13)
08. Kirk Takes Command / He Tasks Me (02:08)
09. Genesis Project (03:17)
10. Surprise Attack (05:08)
11. Kirk's Explosive Reply (04:03)
12. Inside Regula I (01:37)
13. Brainwashed (01:25)
14. Captain Terrell's Death (02:00)
15. Buried Alive (00:58)
16. The Genesis Cave (01:11)
17. Battle In The Mutara Nebula (08:09)
18. Enterprise Attacks Reliant (01:30)
19. Genesis Countdown (06:35)
20. Spock (Dies) (01:55)
21. Amazing Grace (01:27)
22. Epilogue / End Title (08:46)
23. Epilogue (Original Version) / End Title (07:29)


Exact Audio Copy V1.0 beta 3 from 29. August 2011

EAC extraction logfile from 16. March 2014, 14:48

James Horner / Star Trek II: The Wrath Of Khan

Used drive : TSSTcorpCDDVDW SH-S202H Adapter: 0 ID: 0

Read mode : Secure
Utilize accurate stream : Yes
Defeat audio cache : Yes
Make use of C2 pointers : No

Read offset correction

: 6
Overread into Lead-In and Lead-Out : No
Fill up missing offset samples with silence : Yes
Delete leading and trailing silent blocks : No
Null samples used in CRC calculations : Yes
Used interface
: Native Win32 interface for Win NT & 2000

Used output format : Internal WAV Routines
Sample format : 44.100 Hz; 16 Bit; Stereo

TOC of the extracted CD Track | Start | Length | Start sector | End sector
--1 | 0:00.00 | 3:08.18 | 0 | 14117 2 | 3:08.18 | 0:46.60 | 14118 | 17627 3 | 3:55.03 | 4:20.26 | 17628 | 37153 4 | 8:15.29 | 3:54.37 | 37154 | 54740 5 | 12:09.66 | 3:34.39 | 54741 | 70829 6 | 15:44.30 | 0:42.62 | 70830 | 74041 7 | 16:27.17 | 1:13.14 | 74042 | 79530 8 | 17:40.31 | 2:08.29 | 79531 | 89159 9 | 19:48.60 | 3:17.50 | 89160 | 103984
10 | 23:06.35 | 5:08.60 | 103985 | 127144
11 | 28:15.20 | 4:03.18 | 127145 | 145387
12 | 32:18.38 | 1:37.69 | 145388 | 152731
13 | 33:56.32 | 1:25.53 | 152732 | 159159
14 | 35:22.10 | 2:00.39 | 159160 | 168198
15 | 37:22.49 | 0:58.68 | 168199 | 172616
16 | 38:21.42 | 1:11.02 | 172617 | 177943
17 | 39:32.44 | 8:09.48 | 177944 | 214666
18 | 47:42.17 | 1:30.62 | 214667 | 221478
19 | 49:13.04 | 6:35.41 | 221479 | 251144
20 | 55:48.45 | 1:55.31 | 251145 | 259800
21 | 57:44.01 | 1:27.61 | 259801 | 266386
22 | 59:11.62 | 8:46.71 | 266387 | 305907
23 | 67:58.58 | 7:29.44 | 305908 | 339626

Range status and errors

Selected range Filename D:\James Horner - Star Trek II- The Wrath Of Khan\James Horner - Star Trek II- The Wrath Of Khan.wav Peak level 99.9 %
Extraction speed 8.5 X
Range quality 100.0 %
Test CRC 5B223302
Copy CRC 5B223302
Copy OK

No errors occurred


AccurateRip summary

Track 1 accurately ripped (confidence 31) [A6CD1D0F] (AR v2)
Track 2 accurately ripped (confidence 30) [FC6382AA] (AR v2)
Track 3 accurately ripped (confidence 31) [41D02DEA] (AR v2)
Track 4 accurately ripped (confidence 30) [94FEFE14] (AR v2)
Track 5 accurately ripped (confidence 31) 67968CA (AR v2)
Track 6 accurately ripped (confidence 30) [23E45354] (AR v2)
Track 7 accurately ripped (confidence 31) [896596AE] (AR v2)
Track 8 accurately ripped (confidence 30) [E41F036A] (AR v2)
Track 9 accurately ripped (confidence 30) [73E041CC] (AR v2)
Track 10 accurately ripped (confidence 31) [F48D9ED9] (AR v2)
Track 11 accurately ripped (confidence 31) [D5A14E06] (AR v2)
Track 12 accurately ripped (confidence 30) [D14973AC] (AR v2)
Track 13 accurately ripped (confidence 30) [CEED97EB] (AR v2)
Track 14 accurately ripped (confidence 30) [1C874E84] (AR v2)
Track 15 accurately ripped (confidence 30) [DAA65645] (AR v2)
Track 16 accurately ripped (confidence 30) [68953399] (AR v2)
Track 17 accurately ripped (confidence 31) [E9E7ED3C] (AR v2)
Track 18 accurately ripped (confidence 30) [D7053A79] (AR v2)
Track 19 accurately ripped (confidence 30) [C9D70CE5] (AR v2)
Track 20 accurately ripped (confidence 30) [A1417166] (AR v2)
Track 21 accurately ripped (confidence 30) [8D5B76B3] (AR v2)
Track 22 accurately ripped (confidence 31) [59D5E6BE] (AR v2)
Track 23 accurately ripped (confidence 28) [EB328684] (AR v2)

All tracks accurately ripped

End of status report

==== Log checksum 53B233A84261744329DE2A6222F3CE9F70A703988177967FB6E3A0EFEFB9F797 ====

foobar2000 1.2 / Dynamic Range Meter 1.1.1
log date: 2015-09-15 16:53:29

Analyzed: James Horner / Star Trek II: The Wrath Of Khan

DR Peak RMS Duration Track

DR12 -0.39 dB -17.76 dB 3:08 01-Main Title
DR11 -0.05 dB -18.14 dB 0:47 02-Surprise On Ceti Alpha V
DR12 -2.87 dB -21.22 dB 4:20 03-Khan's Pets
DR13 -1.18 dB -20.58 dB 3:54 04-The Eels Of Ceti Alpha V / Kirk In Space Shuttle
DR12 -0.27 dB -16.52 dB 3:35 05-Enterprise Clears Moorings
DR10 -2.22 dB -21.08 dB 0:43 06-Chekov Lies
DR12 -7.37 dB -23.95 dB 1:13 07-Spock
DR12 -0.22 dB -18.09 dB 2:08 08-Kirk Takes Command / He Tasks Me
DR13 -0.12 dB -17.80 dB 5:09 10-Surprise Attack
DR13 -0.11 dB -18.44 dB 4:03 11-Kirk's Explosive Reply
DR17 -2.79 dB -26.59 dB 1:38 12-Inside Regula I
DR14 -5.35 dB -24.55 dB 1:26 13-Brainwashed
DR12 -0.52 dB -19.73 dB 2:01 14-Captain Terrell's Death
DR13 -1.10 dB -19.46 dB 0:59 15-Buried Alive
DR10 -2.22 dB -18.31 dB 1:11 16-The Genesis Cave
DR13 -0.28 dB -17.65 dB 8:10 17-Battle In The Mutara Nebula
DR12 -0.15 dB -15.72 dB 1:31 18-Enterprise Attacks Reliant
DR13 0.00 dB -16.72 dB 6:36 19-Genesis Countdown
DR10 -2.14 dB -20.43 dB 1:55 20-Spock (Dies)
DR11 -2.23 dB -19.22 dB 1:28 21-Amazing Grace
DR11 0.00 dB -15.11 dB 8:47 22-Epilogue / End Title
DR12 -0.06 dB -15.62 dB 7:30 23-Epilogue (Original Version) / End Title

Number of tracks: 22
Official DR value: DR12

Samplerate: 44100 Hz
Channels: 2
Bits per sample: 16
Bitrate: 698 kbps
Codec: FLAC

James Horner - Star Trek II: The Wrath Of Khan - Original Motion Picture Soundtrack (1982) Newly Expanded Edition 2009

James Horner - Star Trek II: The Wrath Of Khan - Original Motion Picture Soundtrack (1982) Newly Expanded Edition 2009

All thanks to original releaser - Composer's fan
Password: designol

DOWNLOAD:
Buy Premium To Support Me & Get Resumable Support & Max Speed


Links are Interchangeable - No Password
Direct Download

Tags: Horner, Original, Motion, Picture, Soundtrack, Expanded

James Horner - Star Trek II: The Wrath Of Khan - Original Motion Picture Soundtrack (1982) Newly Expanded Edition 2009 Download via Hotfile Rapidshare Fileserve Megaupload & FileSonic, James Horner - Star Trek II: The Wrath Of Khan - Original Motion Picture Soundtrack (1982) Newly Expanded Edition 2009 free torrent downloads included crack, serial, keygen.James Horner - Star Trek II: The Wrath Of Khan - Original Motion Picture Soundtrack (1982) Newly Expanded Edition 2009 Fast Download via Rapidshare Hotfile Fileserve Filesonic Megaupload, James Horner - Star Trek II: The Wrath Of Khan - Original Motion Picture Soundtrack (1982) Newly Expanded Edition 2009 Torrents and Emule Download or anything related.
Leave a Comment
Your Name:
E-Mail:
Add Comments:

Enter Code: