Wayne Shorter - High Life (1995) [Re-Up]

Download Now

Wayne Shorter - High Life (1995) [Re-Up]

Wayne Shorter - High Life (1995)
EAC 0.99pb5 | FLAC tracks level 5 | Cue+Log+M3U | Full Scans 600dpi | 340MB + 5% Recovery
Genre: Fusion

"Seven years after his last solo project, Wayne Shorter returns with HIGH LIFE, which proceeds from the point where ATLANTIS, PHANTOM NAVIGATOR and JOY RIDER left off. With the assistance of master bassist-producer Marcus Miller and keyboardist Rachel Z., Shorter has fashioned a sumptuous series of harmonically detailed tone poems, anchored by the contemporary rhythm-n-ning of former Living Colour drummer Will Calhoun.HIGH LIFE won the 1997 Grammy Award for Best Contemporary Jazz Performance."

Track List
01. Children Of The Night
02. At The Fair
03. Maya
04. On The Milky Way Express
05. Pandora Awakened
06. Virgo Rising
07. High Life
08. Midnight In Carlotta's Hair
09. Black Swan

musicians
Wayne Shorter - soprano, alto, tenor and baritone saxophones
Rachel Z - piano, synthesizers, sound design, sequencing
David Gilmore - guitar
Marcus Miller - bass guitar, bass clarinet, rhythm programming
Lenny Castro - percussion
Airto Moreira - percussion
Munyungo Jackson - percussion on track 8
Kevin Ricard - percussion on track 8
Will Calhoun - drums
Terri Lyne Carrington - drums on track 8
David Ward - additional sound design

Produced by Marcus Miller

Exact Audio Copy V0.99 prebeta 5 from 4. May 2009

EAC extraction logfile from 31. August 2010, 13:19

Wayne Shorter / High Life

Used drive : SONY DVD+-RW DW-Q58A Adapter: 1 ID: 0

Read mode : Secure
Utilize accurate stream : Yes
Defeat audio cache : Yes
Make use of C2 pointers : No

Read offset correction

: 6
Overread into Lead-In and Lead-Out : No
Fill up missing offset samples with silence : Yes
Delete leading and trailing silent blocks : No
Null samples used in CRC calculations : Yes
Used interface
: Native Win32 interface for Win NT & 2000
Gap handling
: Appended to previous track

Used output format : User Defined Encoder
Selected bitrate : 320 kBit/s
Quality : High
Add ID3 tag : No
Command line compressor : C:\Program Files\Exact Audio Copy\Flac\flac.exe
Additional command line options : -V -5 -T "artist=%a" -T "title=%t" -T "album=%g" -T "date=%y" -T "tracknumber=%n" -T "genre=%m" %s

TOC of the extracted CD Track | Start | Length | Start sector | End sector
--1 | 0:00.00 | 7:24.50 | 0 | 33349 2 | 7:24.50 | 7:30.10 | 33350 | 67109 3 | 14:54.60 | 5:12.10 | 67110 | 90519 4 | 20:06.70 | 5:35.22 | 90520 | 115666 5 | 25:42.17 | 6:19.73 | 115667 | 144164 6 | 32:02.15 | 6:46.37 | 144165 | 174651 7 | 38:48.52 | 6:28.33 | 174652 | 203784 8 | 45:17.10 | 5:54.35 | 203785 | 230369 9 | 51:11.45 | 2:02.15 | 230370 | 239534

Track 1 Filename C:\Ripping\01 - Children of the Night.wav Pre-gap length 0:00:02.00 Peak level 100.0 %
Track quality 100.0 %
Test CRC 29D48609
Copy CRC 29D48609
Accurately ripped (confidence 15) [FF026289]
Copy OK

Track 2 Filename C:\Ripping\02 - At the Fair.wav Peak level 100.0 %
Track quality 100.0 %
Test CRC 7B691CBB
Copy CRC 7B691CBB
Accurately ripped (confidence 15) [3E8ED371]
Copy OK

Track 3 Filename C:\Ripping\03 - Maya.wav Peak level 100.0 %
Track quality 99.9 %
Test CRC 39B91C62
Copy CRC 39B91C62
Accurately ripped (confidence 15) [656788A6]
Copy OK

Track 4 Filename C:\Ripping\04 - On the Milky Way Express.wav Peak level 100.0 %
Track quality 100.0 %
Test CRC 486BE7F0
Copy CRC 486BE7F0
Accurately ripped (confidence 15) 0356DB1
Copy OK

Track 5 Filename C:\Ripping\05 - Pandora Awakened.wav Peak level 100.0 %
Track quality 100.0 %
Test CRC 34714416
Copy CRC 34714416
Accurately ripped (confidence 15) [6FCC318B]
Copy OK

Track 6 Filename C:\Ripping\06 - Virgo Rising.wav Peak level 100.0 %
Track quality 100.0 %
Test CRC 65DB7909
Copy CRC 65DB7909
Accurately ripped (confidence 13) [A960CB2C]
Copy OK

Track 7 Filename C:\Ripping\07 - High Life.wav Pre-gap length 0:00:00.02 Peak level 100.0 %
Track quality 100.0 %
Test CRC 96D304BF
Copy CRC 96D304BF
Accurately ripped (confidence 15) [89C30FB5]
Copy OK

Track 8 Filename C:\Ripping\08 - Midnight in Carlotta's Hair.wav Peak level 94.8 %
Track quality 100.0 %
Test CRC 273B5B8E
Copy CRC 273B5B8E
Accurately ripped (confidence 15) [E0C85F02]
Copy OK

Track 9 Filename C:\Ripping\09 - Black Swan (In Memory of Susan Portlynn Romeo).wav Pre-gap length 0:00:01.53 Peak level 80.1 %
Track quality 99.9 %
Test CRC 5E143AE6
Copy CRC 5E143AE6
Accurately ripped (confidence 15) [C794BB1D]
Copy OK

All tracks accurately ripped

No errors occurred

End of status report

Analyzed: Weather Report / Weather Report

DR Peak RMS Duration Track

DR12 -0.81 dB -16.80 dB 5:26 01-Volcano For Hire
DR12 -0.14 dB -16.66 dB 5:55 02-Current Affairs
DR12 -2.51 dB -17.86 dB 10:12 03-N.Y.C.
DR13 -0.95 dB -17.05 dB 5:27 04-Dara Factor One
DR15 -3.54 dB -21.06 dB 4:48 05-When It Was Now
DR12 -2.91 dB -18.96 dB 5:59 06-Speechless
DR12 -1.33 dB -16.99 dB 4:28 07-Dara Factor Two

Number of tracks: 7
Official DR value: DR13

Samplerate: 44100 Hz
Channels: 2
Bits per sample: 16
Bitrate: 904 kbps
Codec: FLAC

Wayne Shorter - High Life (1995) [Re-Up]

Wayne Shorter - High Life (1995) [Re-Up]

Wayne Shorter - High Life (1995) [Re-Up]

Rip by anonymous


DOWNLOAD LINKS
Buy Premium From My Links To Get Resumable Support & Max Speed & To Support Me


Links are Interchangeable - No Password - Single Extraction
Direct Download

Tags: Shorter

Wayne Shorter - High Life (1995) [Re-Up] Download via Hotfile Rapidshare Fileserve Megaupload & FileSonic, Wayne Shorter - High Life (1995) [Re-Up] free torrent downloads included crack, serial, keygen.Wayne Shorter - High Life (1995) [Re-Up] Fast Download via Rapidshare Hotfile Fileserve Filesonic Megaupload, Wayne Shorter - High Life (1995) [Re-Up] Torrents and Emule Download or anything related.
Leave a Comment
Your Name:
E-Mail:
Add Comments:

Enter Code: