Acid Witch - Midnight Movies (2015, CDS)

Download Now

Acid Witch - Midnight Movies (2015, CDS)

Acid Witch - Midnight Movies (2015, CDS)
Year & Label: 2015, Hells Headbangers | CD#: HELLS 154
Flac (image) | MP3 CBR 320 Kbps | Artwork (JPG, 300 dpi) | File-hosts: Nitroflare.com
Heavy Metal | FLAC: 110 MB | Artwork: 20 MB | MP3: 50 MB | 5% WinRAR Recovery

EAC Secure-rip with LOG+CUE+COVERS | Source: eMule

"Midnight Movies is an interesting little 'aside' from the Midwest's morbid ganja doomsters Acid Witch, but I'm not quite sure that the 'interesting' is such a positive on this particular release. Not because I don't relish the idea of a death/doom band covering campy 80s horror movie rock tracks, but the way it is manifest here seems a little too much on the 'partying' side of the equation, fucking around where playing it much straighter would have ultimately proven the more humorous route. Hell, I was looking forward to their take on Fastway's "After Midnight", taken from the 1986 Trick or Treat soundtrack, which I happen to really enjoy (the band in general and that song), but rather than transform these tunes into something more fitting for the Acid Witch style, they play them really close to the belt, including the most minimalistic hard rock drum beats possible and guitars that feel too thin and burdened once Shagrat and Slasher Dave start emitting the growled and screamed vocals.

Granted, this is meant to be completely off the wall, and it's even being released on April 1st of all dates, but even then I just can't help thinking this was a missed opportunity to morph such straight shot rockers into some ugly, abusive, cellar shroom doom more like their Stoned album, which I found pretty damn solid. I guess if I was a younger fan and this was the first time I'd ever even heard of these songs and movies, it might feel a lot more clever, but the execution here just seems a little on the lazy side...the beats, the guitar riffs, nothing is conveyed with much more than the power of sheer sarcasm. On the one hand, we now know the band members can hit higher pitches circa a whole lot of cheesy, endearing schlock rock and half the early through mid-80s Metal Blade roster, but once you contrast that with the growling in the bounds of single tunes ("Soldiers of the Night" from Black Roses), it just feels too counterproductive to the cause. That and "After Midnight" are probably the better two songs here, since the others are fairly miserable in translation and weren't all that much fun in the first place...like the gang shouts coming in on "Partytime" over the guttural rasp.

I think the best outcome here is that people will track down the original material and enjoy it, which is more than likely what the members of Acid Witch intended all along; but beyond the fact the 12" has a pretty fun cover and will no doubt become a collector's item, I just can't recommend it. The production is alright, the instruments in the mix seem a little phoned in, and the delivery on some of the harsher vocal lines is pretty 'blah', and that's really one of the only areas in which they've tried to deviate from the originals. I don't mean to be terribly hard on it, since they're more or less just taking the piss, and I certainly share in their inspiration for those wonderful years and all the mystique that used to surround Halloween, metal music, etc when I was a pup in that decade. Hell, if you place nostalgia above all else, perhaps you'll take a lot more away from this than I did, but all it accomplished for me is wanting to hear more of Acid Witch in their native habitat. It's been about 5 years now, so I hope we won't be waiting too much longer for a new full-length of original material.

www.metal-archives.com "

Musicians:

Vocals, bass : Shagrat
Guitars : Mike Tuff
Drums : Gnarls Charles
Keyboards : Slasher Dave

Recorded, mixed and mastered by Bernie Eldred
Drums recorded at Mount Doom studios by Clyde Wilson
Produced by Acid Witch and Bernie Eldred

Track List:

01. I'm Back (Sorcery cover) [5:36]
02. After Midnight (Fastway cover) [5:37]
03. Soldiers of the Night (Black Roses cover) [4:23]
04. Partytime (45 Grave cover) [4:13]

Exact Audio Copy V1.0 beta 3 from 29. August 2011

EAC extraction logfile from 1. May 2015, 13:29

Acid Witch / Midnight Movies

Used drive : TSSTcorpCDDVDW SH-224DB Adapter: 3 ID: 0

Read mode : Secure
Utilize accurate stream : Yes
Defeat audio cache : Yes
Make use of C2 pointers : No

Read offset correction

: 6
Overread into Lead-In and Lead-Out : No
Fill up missing offset samples with silence : Yes
Delete leading and trailing silent blocks : No
Null samples used in CRC calculations : Yes
Used interface
: Native Win32 interface for Win NT & 2000

Used output format : Internal WAV Routines
Sample format : 44.100 Hz; 16 Bit; Stereo

TOC of the extracted CD Track | Start | Length | Start sector | End sector
--1 | 0:00.00 | 5:36.13 | 0 | 25212 2 | 5:36.13 | 5:37.21 | 25213 | 50508 3 | 11:13.34 | 4:22.73 | 50509 | 70231 4 | 15:36.32 | 4:12.43 | 70232 | 89174

Range status and errors

Selected range Filename C:\blog\upload\0060\Acid Witch - Midnight Movies\Acid Witch - Midnight Movies.wav Peak level 70.6 %
Extraction speed 2.3 X
Range quality 100.0 %
Copy CRC 99D5B851
Copy OK

No errors occurred


AccurateRip summary

Track 1 not present in database
Track 2 not present in database
Track 3 not present in database
Track 4 not present in database

None of the tracks are present in the AccurateRip database

End of status report

==== Log checksum 1C688386016FF079F87857118CA6639CE7B0B898A2E3D0BC8EF113F058A8E722 ====
DOWNLOAD LINKS
Buy Premium From My Links To Get Resumable Support & Max Speed & To Support Me


Links are Interchangeable - No Password - Single Extraction
Direct Download

Tags: Midnight, Movies

Acid Witch - Midnight Movies (2015, CDS) Download via Hotfile Rapidshare Fileserve Megaupload & FileSonic, Acid Witch - Midnight Movies (2015, CDS) free torrent downloads included crack, serial, keygen.Acid Witch - Midnight Movies (2015, CDS) Fast Download via Rapidshare Hotfile Fileserve Filesonic Megaupload, Acid Witch - Midnight Movies (2015, CDS) Torrents and Emule Download or anything related.
Leave a Comment
Your Name:
E-Mail:
Add Comments:

Enter Code: