Tommy Castro - Hard Believer (2009)

Download Now

Tommy Castro - Hard Believer (2009)

Tommy Castro - Hard Believer (2009)
XLD Rip | FLAC (Img) + Cue + Log ~ 395 Mb | MP3 CBR320 ~ 120 Mb
Scans (PNG, 300 dpi) ~ 45 Mb | RAR 5% Recovery
Blues, Southern Rock, R&B | Alligator Records #ALCD4931

"Tommy Castro is an American blues, R&B and rock guitarist and singer. He has been recording since the mid-1990s. His music has taken him from local stages to national and international touring. His popularity was marked by his winning the 2008 Blues Music Award for Entertainer of the Year. According to The Chicago Sun-Times, Castro plays "Memphis soul-drenched R&B...top-of-the-line blues." "Castro has a soulful voice, searing guitar and is an excellent songwriter and vocalist. If you close your eyes you will be convinced that you are listening to Otis Redding singing in 1967...tremendous.""

Wiki | Discogs | All Music
***************

Tommy Castro - Hard Believer (2009)

Track List:

01. Definition of Insanity [03:41]
02. It Is What It Is [04:13]
03. Hard Believer [04:13]
04. Monkey's Paradise [04:31]
05. Ninety-Nine And One Half [03:44]
06. Backup Plan [04:32]
07. Gotta Serve Somebody [04:57]
08. Trimmin' Fat [04:11]
09. Make It Back To Memphis [04:36]
10. Victims of the Darkness [03:41]
11. My Babe [04:09]
12. The Trouble With Soul [03:33]

X Lossless Decoder version 20130127 (142.3)

XLD extraction logfile from 2013-02-04 21:47:12 +0200

Tommy Castro / Hard Believer

Used drive : MATSHITA DVD-R UJ-898 (revision HC09)
Media type : Pressed CD

Ripper mode : XLD Secure Ripper
Disable audio cache : OK for the drive with a cache less than 1375KiB
Make use of C2 pointers : NO
Read offset correction : 102
Max retry count : 20
Gap status : Analyzed, Appended

TOC of the extracted CD
Track | Start | Length | Start sector | End sector
--1 | 00:00:00 | 03:40:69 | 0 | 16568 2 | 03:40:69 | 04:12:16 | 16569 | 35484 3 | 07:53:10 | 04:12:21 | 35485 | 54405 4 | 12:05:31 | 04:30:43 | 54406 | 74698 5 | 16:35:74 | 03:43:16 | 74699 | 91439 6 | 20:19:15 | 04:31:37 | 91440 | 111801 7 | 24:50:52 | 04:56:36 | 111802 | 134037 8 | 29:47:13 | 04:10:58 | 134038 | 152845 9 | 33:57:71 | 04:35:64 | 152846 | 173534
10 | 38:33:60 | 03:40:41 | 173535 | 190075
11 | 42:14:26 | 04:08:35 | 190076 | 208710
12 | 46:22:61 | 03:32:51 | 208711 | 224661

AccurateRip Summary (DiscID: 0016676d-00d1fab9-ae0bb30c)
Track 01 : OK (v1+v2, confidence 22/22)
Track 02 : OK (v1+v2, confidence 25/25)
Track 03 : OK (v1+v2, confidence 25/25)
Track 04 : OK (v1+v2, confidence 24/24)
Track 05 : OK (v1+v2, confidence 24/24)
Track 06 : OK (v1+v2, confidence 24/24)
Track 07 : OK (v1+v2, confidence 24/24)
Track 08 : OK (v1+v2, confidence 25/25)
Track 09 : OK (v1+v2, confidence 25/25)
Track 10 : OK (v1+v2, confidence 24/24)
Track 11 : OK (v1+v2, confidence 25/25)
Track 12 : OK (v1+v2, confidence 24/24)->All tracks accurately ripped.

All Tracks
Filename : /Users/Home/Music/Music/myRips/tommy castro-hard believer(alcd4931)-2009/Tommy Castro - Hard Believer.flac
Album gain : -10.54 dB
Peak : 0.966339
CRC32 hash (test run) : 6842C280
CRC32 hash : 6842C280
CRC32 hash (skip zero) : 50579018
StatisticsRead error : 0Jitter error (maybe fixed) : 0Retry sector count : 0Damaged sector count : 0

Track 01
Pre-gap length : 00:02:00 Track gain : -10.64 dB
Peak : 0.966339
CRC32 hash (test run) : 29201D11
CRC32 hash : 29201D11
CRC32 hash (skip zero) : CAC7DC30
AccurateRip v1 signature : D8BD54B5
AccurateRip v2 signature : E002FAC5->Accurately ripped (v1+v2, confidence 16+6/22)
StatisticsRead error : 0Jitter error (maybe fixed) : 0Retry sector count : 0Damaged sector count : 0

Track 02
Pre-gap length : 00:01:18 Track gain : -10.96 dB
Peak : 0.965118
CRC32 hash (test run) : 4EEDE4DE
CRC32 hash : 4EEDE4DE
CRC32 hash (skip zero) : FB4AE609
AccurateRip v1 signature : E9B68755
AccurateRip v2 signature : 1CE3DFCC->Accurately ripped (v1+v2, confidence 19+6/25)
StatisticsRead error : 0Jitter error (maybe fixed) : 0Retry sector count : 0Damaged sector count : 0

Track 03
Pre-gap length : 00:01:21 Track gain : -10.26 dB
Peak : 0.966248
CRC32 hash (test run) : F2BE37BE
CRC32 hash : F2BE37BE
CRC32 hash (skip zero) : 5C391710
AccurateRip v1 signature : 84DE3483
AccurateRip v2 signature : B8855C9E->Accurately ripped (v1+v2, confidence 19+6/25)
StatisticsRead error : 0Jitter error (maybe fixed) : 0Retry sector count : 0Damaged sector count : 0

Track 04
Pre-gap length : 00:01:00 Track gain : -11.03 dB
Peak : 0.966339
CRC32 hash (test run) : 3BB0A95E
CRC32 hash : 3BB0A95E
CRC32 hash (skip zero) : DBF74B1B
AccurateRip v1 signature : 17F9827C
AccurateRip v2 signature : AFDE3CAA->Accurately ripped (v1+v2, confidence 18+6/24)
StatisticsRead error : 0Jitter error (maybe fixed) : 0Retry sector count : 0Damaged sector count : 0

Track 05
Pre-gap length : 00:01:15 Track gain : -10.16 dB
Peak : 0.966309
CRC32 hash (test run) : 6233AF5C
CRC32 hash : 6233AF5C
CRC32 hash (skip zero) : 1555FC21
AccurateRip v1 signature : AD8299C0
AccurateRip v2 signature : 2428D318->Accurately ripped (v1+v2, confidence 18+6/24)
StatisticsRead error : 0Jitter error (maybe fixed) : 0Retry sector count : 0Damaged sector count : 0

Track 06
Pre-gap length : 00:01:20 Track gain : -10.56 dB
Peak : 0.966309
CRC32 hash (test run) : D63C58D9
CRC32 hash : D63C58D9
CRC32 hash (skip zero) : 2D96F35C
AccurateRip v1 signature : CA7429B2
AccurateRip v2 signature : 6FBD831B->Accurately ripped (v1+v2, confidence 18+6/24)
StatisticsRead error : 0Jitter error (maybe fixed) : 0Retry sector count : 0Damaged sector count : 0

Track 07 Track gain : -9.53 dB
Peak : 0.966309
CRC32 hash (test run) : 071D0B6E
CRC32 hash : 071D0B6E
CRC32 hash (skip zero) : 99DDE6B3
AccurateRip v1 signature : 2D4483F9
AccurateRip v2 signature : 5636BB8D->Accurately ripped (v1+v2, confidence 18+6/24)
StatisticsRead error : 0Jitter error (maybe fixed) : 0Retry sector count : 0Damaged sector count : 0

Track 08
Pre-gap length : 00:00:53 Track gain : -10.92 dB
Peak : 0.966309
CRC32 hash (test run) : 27133D5A
CRC32 hash : 27133D5A
CRC32 hash (skip zero) : 899548C2
AccurateRip v1 signature : 2B27F300
AccurateRip v2 signature : BA541D38->Accurately ripped (v1+v2, confidence 19+6/25)
StatisticsRead error : 0Jitter error (maybe fixed) : 0Retry sector count : 0Damaged sector count : 0

Track 09
Pre-gap length : 00:00:54 Track gain : -11.06 dB
Peak : 0.966309
CRC32 hash (test run) : 911F5773
CRC32 hash : 911F5773
CRC32 hash (skip zero) : AAE42105
AccurateRip v1 signature : 3B0E4C4C
AccurateRip v2 signature : D206A0D0->Accurately ripped (v1+v2, confidence 19+6/25)
StatisticsRead error : 0Jitter error (maybe fixed) : 0Retry sector count : 0Damaged sector count : 0

Track 10
Pre-gap length : 00:01:35 Track gain : -9.88 dB
Peak : 0.966278
CRC32 hash (test run) : 18E5F0B7
CRC32 hash : 18E5F0B7
CRC32 hash (skip zero) : DD564A60
AccurateRip v1 signature : 6F73E416
AccurateRip v2 signature : D63DCB85->Accurately ripped (v1+v2, confidence 18+6/24)
StatisticsRead error : 0Jitter error (maybe fixed) : 0Retry sector count : 0Damaged sector count : 0

Track 11
Pre-gap length : 00:01:01 Track gain : -10.63 dB
Peak : 0.965118
CRC32 hash (test run) : A3FA9A2B
CRC32 hash : A3FA9A2B
CRC32 hash (skip zero) : CA2EB500
AccurateRip v1 signature : 8984CE3C
AccurateRip v2 signature : A5C5DCC3->Accurately ripped (v1+v2, confidence 19+6/25)
StatisticsRead error : 0Jitter error (maybe fixed) : 0Retry sector count : 0Damaged sector count : 0

Track 12
Pre-gap length : 00:01:74 Track gain : -8.13 dB
Peak : 0.966217
CRC32 hash (test run) : 729211EA
CRC32 hash : 729211EA
CRC32 hash (skip zero) : 54F9EE9D
AccurateRip v1 signature : 6AC83DE3
AccurateRip v2 signature : 0116F370->Accurately ripped (v1+v2, confidence 18+6/24)
StatisticsRead error : 0Jitter error (maybe fixed) : 0Retry sector count : 0Damaged sector count : 0

No errors occurred

End of status report

foobar2000 1.2.6 / Dynamic Range Meter 1.1.1
log date: 2015-09-09 05:16:15

Analyzed: Tommy Castro / Hard Believer

DR Peak RMS Duration Track

DR6 -0.30 dB -7.69 dB 3:41 01-Definition of Insanity
DR5 -0.31 dB -6.86 dB 4:12 02-It Is What It Is
DR7 -0.30 dB -8.84 dB 4:12 03-Hard Believer
DR5 -0.30 dB -6.93 dB 4:31 04-Monkey's Paradise
DR6 -0.30 dB -7.77 dB 3:43 05-Ninety-Nine And One Half
DR6 -0.30 dB -7.22 dB 4:31 06-Backup Plan
DR7 -0.30 dB -8.47 dB 4:56 07-Gotta Serve Somebody
DR6 -0.30 dB -8.16 dB 4:11 08-Trimmin' Fat
DR5 -0.30 dB -6.40 dB 4:36 09-Make It Back To Memphis
DR7 -0.30 dB -8.04 dB 3:41 10-Victims of the Darkness
DR6 -0.31 dB -6.71 dB 4:08 11-My Babe
DR8 -0.30 dB -9.47 dB 3:33 12-The Trouble With Soul

Number of tracks: 12
Official DR value: DR6

Samplerate: 44100 Hz
Channels: 2
Bits per sample: 16
Bitrate: 1054 kbps
Codec: FLAC

[CUETools log; Date: 09.09.2015 5:15:44; Version: 2.1.5]
[CTDB TOCID: v7xW.3XEcHAhWGPo0rEMipfWOSQ-] found.
Track | CTDB Status
1 | (7/7) Accurately ripped
2 | (7/7) Accurately ripped
3 | (7/7) Accurately ripped
4 | (7/7) Accurately ripped
5 | (7/7) Accurately ripped
6 | (7/7) Accurately ripped
7 | (7/7) Accurately ripped
8 | (7/7) Accurately ripped
9 | (7/7) Accurately ripped
10 | (7/7) Accurately ripped
11 | (6/7) Accurately ripped
12 | (6/7) Accurately ripped
[AccurateRip ID: 0016676d-00d1fab9-ae0bb30c] found.
Track [ CRC | V2 ] Status
01 [d8bd54b5|e002fac5] (17+24/41) Accurately ripped
02 [e9b68755|1ce3dfcc] (20+24/44) Accurately ripped
03 [84de3483|b8855c9e] (20+24/44) Accurately ripped
04 [17f9827c|afde3caa] (19+24/43) Accurately ripped
05 [ad8299c0|2428d318] (19+24/43) Accurately ripped
06 [ca7429b2|6fbd831b] (19+24/43) Accurately ripped
07 [2d4483f9|5636bb8d] (19+24/43) Accurately ripped
08 [2b27f300|ba541d38] (20+24/44) Accurately ripped
09 [3b0e4c4c|d206a0d0] (20+24/44) Accurately ripped
10 [6f73e416|d63dcb85] (19+24/43) Accurately ripped
11 [8984ce3c|a5c5dcc3] (20+24/44) Accurately ripped
12 [6ac83de3|0116f370] (19+24/43) Accurately ripped

Track Peak [ CRC32 ] [W/O NULL]
-- 96,6 [6842C280] [50579018]
01 96,6 [29201D11] [CAC7DC30]
02 96,5 [4EEDE4DE] [FB4AE609]
03 96,6 [F2BE37BE] [5C391710]
04 96,6 [3BB0A95E] [DBF74B1B]
05 96,6 [6233AF5C] [1555FC21]
06 96,6 [D63C58D9] [2D96F35C]
07 96,6 [071D0B6E] [99DDE6B3]
08 96,6 [27133D5A] [899548C2]
09 96,6 [911F5773] [AAE42105]
10 96,6 [18E5F0B7] [DD564A60]
11 96,5 [A3FA9A2B] [CA2EB500]
12 96,6 [729211EA] [54F9EE9D]

Tommy Castro - Hard Believer (2009)


DOWNLOAD LINKS
Buy Premium From My Links To Get Resumable Support & Max Speed & To Support Me


Links are Interchangeable - No Password - Single Extraction
Direct Download

Tags: Castro, Believer

Tommy Castro - Hard Believer (2009) Download via Hotfile Rapidshare Fileserve Megaupload & FileSonic, Tommy Castro - Hard Believer (2009) free torrent downloads included crack, serial, keygen.Tommy Castro - Hard Believer (2009) Fast Download via Rapidshare Hotfile Fileserve Filesonic Megaupload, Tommy Castro - Hard Believer (2009) Torrents and Emule Download or anything related.
Leave a Comment
Your Name:
E-Mail:
Add Comments:

Enter Code: