Charles Lloyd - Nirvana (1968) {2014 Japan Jazz Collection 1000 Columbia-RCA Series}

Download Now


Charles Lloyd - Nirvana (1968) {2014 Japan Jazz Collection 1000 Columbia-RCA Series}
Charles Lloyd - Nirvana (1968) {2014 Japan Jazz Collection 1000 Columbia-RCA Series}
EAC rip (secure mode) | FLAC (tracks)+CUE+LOG -> 222 Mb | MP3 @320 -> 81 Mb
Full Artwork @ 600 dpi (png) -> 208 Mb | 5% repair rar
© 2014 Columbia / Sony Music Japan | SICP 4047 | 2014 DSD Remaster
Jazz / Hard Bop / Crossover Jazz / Saxophone

"Reissue with latest 2014 DSD remastering. Comes with liner notes. Nirvana is lovely work from Charles Lloyd - recorded at the point when he was just pushing off from Chico Hamilton's group, and before he got too noodly for his own good! Side one of the record features Lloyd with his own group - jazzing it up in a mix of flute, guitar, and percussion on a number of short tracks that have a light and breezy feel. There's a nice dose of bossa in the set, plus some of the other freer rhythmic styles that Lloyd and Hamilton experimented with together at the time - but all of the tracks have a strong rhythmic pulse, and never lose their groove for too much experimentation. Side two features two wonderful tracks with Hamilton's group at a point when Lloyd was still working with the ensemble - both long tracks with a modal pulse and a great deal of spirituality - again free, but never too much so! A nice little album - with tracks that include "Island Blues", "Carcara", "Long Time Baby", "One For Joan", and "Freedom Traveler"."

Charles Lloyd - Nirvana (1968) {2014 Japan Jazz Collection 1000 Columbia-RCA Series}


Personnel:
Charles Lloyd - tenor saxophone, flute
Gábor Szabó - guitar
Ron Carter - bass
Pete LaRoca - drums
Garnett Brown - trombone
Albert Stinson - bass
Chico Hamilton - drums

tracklist:
01 - Island Blues
02 - Carcara
03 - Long Time, Baby
04 - East Of The Sun (And West Of The Moon)
05 - Love Theme From ''In Harm's Way''
06 - Sun Dance
07 - You Know (From ''Ecco'')
08 - One For Joan - Freedom Traveler

Exact Audio Copy V1.1 from 23. June 2015

EAC extraction logfile from 14. September 2015, 18:50

Charles Lloyd / Nirvana

Used drive : TSSTcorpCDDVDW SE-208DB Adapter: 7 ID: 0

Read mode : Secure
Utilize accurate stream : Yes
Defeat audio cache : Yes
Make use of C2 pointers : No

Read offset correction

: 6
Overread into Lead-In and Lead-Out : No
Fill up missing offset samples with silence : Yes
Delete leading and trailing silent blocks : No
Null samples used in CRC calculations : Yes
Used interface
: Installed external ASPI interface
Gap handling
: Appended to previous track

Used output format : User Defined Encoder
Selected bitrate : 1024 kBit/s
Quality : High
Add ID3 tag : No
Command line compressor : C:\Program Files (x86)\FLAC Frontend\tools\flac.exe
Additional command line options : -8 -V -T "ARTIST=%artist%" -T "TITLE=%title%" -T "ALBUM=%albumtitle%" -T "DATE=%year%" -T "TRACKNUMBER=%tracknr%" -T "TOTALTRACKS=%numtracks%" -T "GENRE=%genre%" -T "ALBUMARTIST=%albumartist%" -T "ALBUM ARTIST=%albumartist%" -T "COMMENT=EAC Secure Mode, Test & Copy, AccurateRip, FLAC -8" %source%

TOC of the extracted CD Track | Start | Length | Start sector | End sector
--1 | 0:00.00 | 3:27.57 | 0 | 15581 2 | 3:27.57 | 1:46.72 | 15582 | 23603 3 | 5:14.54 | 2:13.24 | 23604 | 33602 4 | 7:28.03 | 4:59.11 | 33603 | 56038 5 | 12:27.14 | 2:12.64 | 56039 | 66002 6 | 14:40.03 | 3:18.69 | 66003 | 80921 7 | 17:58.72 | 1:41.13 | 80922 | 88509 8 | 19:40.10 | 14:39.43 | 88510 | 154477

Track 1 Filename M:\_EAC\Charles Lloyd - Nirvana (1968) [FLAC] {2014 Japan Jazz Collection 1000 Columbia-RCA Series}\01 - Island Blues.wav Pre-gap length 0:00:02.00 Peak level 94.4 %
Extraction speed 2.4 X
Track quality 100.0 %
Test CRC A18A2E4E
Copy CRC A18A2E4E
Accurately ripped (confidence 1) [7EEA56B2] (AR v2)
Copy OK

Track 2 Filename M:\_EAC\Charles Lloyd - Nirvana (1968) [FLAC] {2014 Japan Jazz Collection 1000 Columbia-RCA Series}\02 - Carcara.wav Pre-gap length 0:00:01.24 Peak level 98.2 %
Extraction speed 2.3 X
Track quality 100.0 %
Test CRC 9FCFEF0D
Copy CRC 9FCFEF0D
Accurately ripped (confidence 1) [68CC43D6] (AR v2)
Copy OK

Track 3 Filename M:\_EAC\Charles Lloyd - Nirvana (1968) [FLAC] {2014 Japan Jazz Collection 1000 Columbia-RCA Series}\03 - Long Time, Baby.wav Pre-gap length 0:00:01.24 Peak level 93.6 %
Extraction speed 2.6 X
Track quality 100.0 %
Test CRC 647E3FF0
Copy CRC 647E3FF0
Accurately ripped (confidence 1) [7A095B08] (AR v2)
Copy OK

Track 4 Filename M:\_EAC\Charles Lloyd - Nirvana (1968) [FLAC] {2014 Japan Jazz Collection 1000 Columbia-RCA Series}\04 - East Of The Sun (And West Of The Moon).wav Pre-gap length 0:00:01.24 Peak level 99.3 %
Extraction speed 2.7 X
Track quality 99.9 %
Test CRC 601D3395
Copy CRC 601D3395
Accurately ripped (confidence 1) 8CDE385 (AR v2)
Copy OK

Track 5 Filename M:\_EAC\Charles Lloyd - Nirvana (1968) [FLAC] {2014 Japan Jazz Collection 1000 Columbia-RCA Series}\05 - Love Theme From ''In Harm's Way''.wav Pre-gap length 0:00:01.24 Peak level 99.0 %
Extraction speed 3.0 X
Track quality 100.0 %
Test CRC C4AF1614
Copy CRC C4AF1614
Accurately ripped (confidence 1) [8431989B] (AR v2)
Copy OK

Track 6 Filename M:\_EAC\Charles Lloyd - Nirvana (1968) [FLAC] {2014 Japan Jazz Collection 1000 Columbia-RCA Series}\06 - Sun Dance.wav Pre-gap length 0:00:01.23 Peak level 98.5 %
Extraction speed 3.4 X
Track quality 100.0 %
Test CRC 3F5169A1
Copy CRC 3F5169A1
Accurately ripped (confidence 1) [D537314D] (AR v2)
Copy OK

Track 7 Filename M:\_EAC\Charles Lloyd - Nirvana (1968) [FLAC] {2014 Japan Jazz Collection 1000 Columbia-RCA Series}\07 - You Know (From ''Ecco'').wav Pre-gap length 0:00:01.23 Peak level 96.7 %
Extraction speed 3.0 X
Track quality 100.0 %
Test CRC 98697EE1
Copy CRC 98697EE1
Accurately ripped (confidence 1) [EDE3A4AF] (AR v2)
Copy OK

Track 8 Filename M:\_EAC\Charles Lloyd - Nirvana (1968) [FLAC] {2014 Japan Jazz Collection 1000 Columbia-RCA Series}\08 - One For Joan - Freedom Traveler.wav Pre-gap length 0:00:01.23 Peak level 97.2 %
Extraction speed 4.5 X
Track quality 100.0 %
Test CRC 65AFB3ED
Copy CRC 65AFB3ED
Accurately ripped (confidence 1) [0922CB6C] (AR v2)
Copy OK

All tracks accurately ripped

No errors occurred

End of status report

==== Log checksum DE45384D92898E760380053EE8956F55A8725055CF2A377D25A306DA2EF6C017 ====

Charles Lloyd - Nirvana (1968) {2014 Japan Jazz Collection 1000 Columbia-RCA Series}

Charles Lloyd - Nirvana (1968) {2014 Japan Jazz Collection 1000 Columbia-RCA Series}

DOWNLOAD LINKS
Buy Premium From My Links To Get Resumable Support & Max Speed & To Support Me

Rapidgator.net:
http://rapidgator.net/file/ae67027e43db1e318053d55c25c161ef/jc38q.lloydnirvanajp2014.part1.rar.html
http://rapidgator.net/file/baf1b84d6ea3d1eb7a5c776f28e3cbb7/jc38q.lloydnirvanajp2014.part2.rar.html
http://rapidgator.net/file/04800e3b138698e635d85e996fe6b04e/jc38q.lloydnirvanajp2014ARTWORK.part1.rar.html
http://rapidgator.net/file/aadebd0abd8046e26832374c71f06c8a/jc38q.lloydnirvanajp2014ARTWORK.part2.rar.html
http://rapidgator.net/file/df92cafaa3ac42e54e7a155aac21412b/jc38q.lloydnirvanajp2014MP.rar.html

Uploaded.net:
http://uploaded.net/file/34femslh/jc38q.lloydnirvanajp2014.part1.rar
http://uploaded.net/file/s6732aqc/jc38q.lloydnirvanajp2014.part2.rar
http://uploaded.net/file/tk5e6soy/jc38q.lloydnirvanajp2014ARTWORK.part1.rar
http://uploaded.net/file/p2glzb1x/jc38q.lloydnirvanajp2014ARTWORK.part2.rar
http://uploaded.net/file/jwcyu9qd/jc38q.lloydnirvanajp2014MP.rar

nitroflare_com:
http://nitroflare.com/view/BC1054804BBFC01/jc38q.lloydnirvanajp2014.part1.rar
http://nitroflare.com/view/CC4C0991989AB6B/jc38q.lloydnirvanajp2014.part2.rar
http://nitroflare.com/view/AD5C9021F73EE2F/jc38q.lloydnirvanajp2014ARTWORK.part1.rar
http://nitroflare.com/view/FAEB0EBDA4A4BC1/jc38q.lloydnirvanajp2014ARTWORK.part2.rar
http://nitroflare.com/view/BAAABE299D05B75/jc38q.lloydnirvanajp2014MP.rar

Uploadable.ch:
http://www.uploadable.ch/file/Ur9SkhGMxDK6/jc38q.lloydnirvanajp2014.part1.rar
http://www.uploadable.ch/file/6kJej4F4jKcm/jc38q.lloydnirvanajp2014.part2.rar
http://www.uploadable.ch/file/DmdUSWWpCFT5/jc38q.lloydnirvanajp2014ARTWORK.part1.rar
http://www.uploadable.ch/file/wrPUVcw6sJhP/jc38q.lloydnirvanajp2014ARTWORK.part2.rar
http://www.uploadable.ch/file/k3HfYMdYKPSN/jc38q.lloydnirvanajp2014MP.rar

Links are Interchangeable - No Password - Single Extraction
Direct Download

Tags: Charles, Nirvana, Collection, Columbia, Series

Charles Lloyd - Nirvana (1968) {2014 Japan Jazz Collection 1000 Columbia-RCA Series} Download via Hotfile Rapidshare Fileserve Megaupload & FileSonic, Charles Lloyd - Nirvana (1968) {2014 Japan Jazz Collection 1000 Columbia-RCA Series} free torrent downloads included crack, serial, keygen.Charles Lloyd - Nirvana (1968) {2014 Japan Jazz Collection 1000 Columbia-RCA Series} Fast Download via Rapidshare Hotfile Fileserve Filesonic Megaupload, Charles Lloyd - Nirvana (1968) {2014 Japan Jazz Collection 1000 Columbia-RCA Series} Torrents and Emule Download or anything related.
Leave a Comment
Your Name:
E-Mail:
Add Comments:

Enter Code: