Depeche Mode - Mysterious Mixes (1999)

Download Now

Depeche Mode - Mysterious Mixes (1999)

Depeche Mode - Mysterious Mixes (1999)
EAC | Flac(Image) + Cue + Log & MP3 CBR 320Kbps
BRONS 387 | ~ 386 or 170 Mb | Scans(png) -> 27 Mb
Synth-pop

~ Compilation, Unofficial Release ~



Tracklist:

01. Higher Love (Higher Mix) [08:16]
02. In Your Room (Dark Vibes Mix) [06:45]
03. Enjoy The Silence (Psycho Electro Dub) [07:35]
04. World In My Eyes (Old School Club Mix) [09:23]
05. Never Let Me Down Again (REM DM Mix) [04:44]
06. The Things You Said (Club Mix) [03:54]
07. It Doesn't Matter Two (Spherical Mix) [07:11]
08. Pipeline (Arab Mix) [06:29]
09. Shake The Disease (Big Mix '98) [08:28]
10. Fly On The Windscreen (Brutal Mix) [07:46]

This release consists of remixes taken from other bootlegs. Track titles (mix names) printed on cover are incorrect. Corrected mix names given in the tracklist above.

Track 1 is listed as Higher Love (Club Mix), a renamed remix from The Special 8th Strike.
Track 2 is listed as In Your Room (Dark Mix), a renamed remix from The Special 9th Strike.
Track 3 is listed as Enjoy The Silence (Psycho Dub), a renamed remix from the 22nd Strike.
Track 4 is listed as World In My Eyes (Club Mix), a renamed remix from the 22nd Strike.
Track 5 is listed as Neve Let Me Down Again (Instrumental Remix), a renamed remix that appeared on two different bootlegs called Gold Edition 4 & Netbeat.
Track 6 is an edited version of the Club Mix that appears on The 11th Strike.
Track 7 appears on The Songs Of Martin L. Gore - Remixes Vol. II.
Track 8 is listed as Pipeline (Mysterious Ways Mix), a renamed remix from The Special 9th Strike.
Track 9 is from the 22nd strike (cover has the remix incorrectly titled as Big Mix '99).
Track 10 is listed as Fly On The Windscreen (Brutal Angel Remix), a renamed remix from The Remixes - Vol. One


Exact Audio Copy V1.0 beta 3 from 29. August 2011

EAC extraction logfile from 17. March 2013, 21:22

Depeche Mode / Mysterious Mixes

Used drive : TEAC CD-W552G Adapter: 0 ID: 1

Read mode : Secure
Utilize accurate stream : Yes
Defeat audio cache : Yes
Make use of C2 pointers : No

Read offset correction

: 6
Overread into Lead-In and Lead-Out : No
Fill up missing offset samples with silence : Yes
Delete leading and trailing silent blocks : No
Null samples used in CRC calculations : Yes
Used interface
: Native Win32 interface for Win NT & 2000

Used output format : User Defined Encoder
Selected bitrate : 1024 kBit/s
Quality : High
Add ID3 tag : No
Command line compressor : C:\Program Files\Exact Audio Copy\FLAC\FLAC.EXE
Additional command line options : -8 -V -T "Date=%year%" -T "Genre=%genre%" -T "COMMENT=vsvserg™ LosslesS © " %source%

TOC of the extracted CD Track | Start | Length | Start sector | End sector
--1 | 0:00.00 | 8:16.41 | 0 | 37240 2 | 8:16.41 | 6:45.01 | 37241 | 67616 3 | 15:01.42 | 7:35.70 | 67617 | 101811 4 | 22:37.37 | 9:23.04 | 101812 | 144040 5 | 32:00.41 | 4:44.01 | 144041 | 165341 6 | 36:44.42 | 3:54.54 | 165342 | 182945 7 | 40:39.21 | 7:11.24 | 182946 | 215294 8 | 47:50.45 | 6:29.10 | 215295 | 244479 9 | 54:19.55 | 8:28.41 | 244480 | 282620
10 | 62:48.21 | 7:46.55 | 282621 | 317625

Range status and errors

Selected range Filename D:\vsvserg-Rip\Depeche Mode - Mysterious Mixes.wav Peak level 100.0 %
Extraction speed 9.1 X
Range quality 99.9 %
Test CRC 310CD839
Copy CRC 310CD839
Copy OK

No errors occurred


AccurateRip summary

Track 1 not present in database
Track 2 not present in database
Track 3 not present in database
Track 4 not present in database
Track 5 not present in database
Track 6 not present in database
Track 7 not present in database
Track 8 not present in database
Track 9 not present in database
Track 10 not present in database

None of the tracks are present in the AccurateRip database

End of status report

- CUETools DB Plugin V2.1.4

[CTDB TOCID: 83oeDuHo2EEVE9wWlDxthbcbkZ4-] disk not present in database
Submit result: 83oeDuHo2EEVE9wWlDxthbcbkZ4- has been uploaded

==== Log checksum 53F1A3E73699A6EEBFCA4A836FF444E5AF3766ECE8E365FF7D437B72AED37242 ====

foobar2000 1.2.9 / Dynamic Range Meter 1.1.1
log date: 2015-09-18 02:23:07

Analyzed: Depeche Mode / Mysterious Mixes

DR Peak RMS Duration Track

DR13 -1.22 dB -16.73 dB 8:17 01-Higher Love (Higher Mix)
DR13 0.00 dB -17.22 dB 6:45 02-In Your Room (Dark Vibes Mix)
DR13 -0.37 dB -16.18 dB 7:36 03-Enjoy The Silence (Psycho Electro Dub)
DR12 -0.05 dB -15.26 dB 9:23 04-World In My Eyes (Old School Club Mix)
DR12 -0.15 dB -14.58 dB 4:44 05-Never Let Me Down Again (REM DM Mix)
DR14 -1.43 dB -17.15 dB 3:55 06-The Things You Said (Club Mix)
DR13 0.00 dB -14.78 dB 7:11 07-It Doesn't Matter Two (Spherical Mix)
DR14 -0.34 dB -16.21 dB 6:29 08-Pipeline (Arab Mix)
DR14 -0.26 dB -17.60 dB 8:29 09-Shake The Disease (Big Mix '98)
DR11 -0.64 dB -13.42 dB 7:47 10-Fly On The Windscreen (Brutal Mix)

Number of tracks: 10
Official DR value: DR13

Samplerate: 44100 Hz
Channels: 2
Bits per sample: 16
Bitrate: 727 kbps
Codec: FLAC

[CUETools log; Date: 18.09.2015 2:15:42; Version: 2.1.4]
[CTDB TOCID: 83oeDuHo2EEVE9wWlDxthbcbkZ4-] found.
Track | CTDB Status
1 | (3/3) Accurately ripped
2 | (3/3) Accurately ripped
3 | (3/3) Accurately ripped
4 | (3/3) Accurately ripped
5 | (3/3) Accurately ripped
6 | (3/3) Accurately ripped
7 | (3/3) Accurately ripped
8 | (3/3) Accurately ripped
9 | (3/3) Accurately ripped
10 | (3/3) Accurately ripped
[AccurateRip ID: 001ad72d-00d467ed-88108b0a] found.
Track [ CRC | V2 ] Status
01 [a9fdf485|959deee1] (0+2/2) Accurately ripped
02 [a38c0678|14a49f15] (0+2/2) Accurately ripped
03 c583ff2|9cf67b44 (0+2/2) Accurately ripped
04 [08c09135|437cf0e6] (0+2/2) Accurately ripped
05 [70efb4a4|c9b2992d] (0+2/2) Accurately ripped
06 [e58ca513|c0b05b53] (0+2/2) Accurately ripped
07 [c31ecd0d|3f0d42b5] (0+2/2) Accurately ripped
08 [e8357927|6be66608] (0+2/2) Accurately ripped
09 [3d059116|120b153b] (0+2/2) Accurately ripped
10 [7745c3f1|88aeab40] (0+2/2) Accurately ripped

Track Peak [ CRC32 ] [W/O NULL] [ LOG ]
-- 100,0 [310CD839] [1EA72DAC] CRC32
01 86,8 [336C0D2E] [95CA35ED]
02 100,0 [FE716D01] [5FB947D8]
03 95,8 [853C6E9B] F8BCDAB
04 99,4 [51578E2C] [2F8FC2F2]
05 98,2 [CC237A58] [D96BEAC1]
06 84,8 [95EB7951] [99120256]
07 100,0 [F14755AF] [17CE2DFA]
08 96,1 [7912C37D] [66B2D43D]
09 97,0 [76B4B705] [73E69749]
10 92,9 [42153D73] 8C78731

Depeche Mode - Mysterious Mixes (1999)

DOWNLOAD LINKS:


No Password
Direct Download

Tags: Depeche, Mysterious

Depeche Mode - Mysterious Mixes (1999) Download via Hotfile Rapidshare Fileserve Megaupload & FileSonic, Depeche Mode - Mysterious Mixes (1999) free torrent downloads included crack, serial, keygen.Depeche Mode - Mysterious Mixes (1999) Fast Download via Rapidshare Hotfile Fileserve Filesonic Megaupload, Depeche Mode - Mysterious Mixes (1999) Torrents and Emule Download or anything related.
Leave a Comment
Your Name:
E-Mail:
Add Comments:

Enter Code: