Big Sugar - Hemi Vision (1996)

Download Now

Big Sugar - Hemi Vision (1996)

Big Sugar - Hemi Vision (1996)
EAC | Flac(Image) + Cue + Log & MP3 CBR 320Kbps
A&M Records, A&M 540 600 2 | ~ 448 or 158 Mb | Scans(600dpi, jpg) -> 67 Mb
Blues-Rock / Reggae Rock

"This third album from Big Sugar stands as one of their very best, with each song being a powerful electric rock/blues song that is eminently listenable and enjoyable. Excellent, and an excellent introduction to this powerhouse band..."


Tracklist:

01. Diggin' A Hole (4:37)
02. Gone For Good (3:58)
03. If I Had My Way (5:14)
04. Skull Ring (4:25)
05. Joe Louis / Judgement Day (8:58)
06. Tommy Johnson (4:13)
07. La Stralla (4:16)
08. Tired All The Time (4:27)
09. Empty Head (5:12)
10. Opem Up Baby (5:12)
11. Rolling Pin (6:46)
12. Tobacco Hand (8:55)

Musicians:

Bass - Garry Lowe
Drums - Matt DeMatteo (tracks: 12), Paul Brennan (tracks: 1 to 3, 6 to 11), Raffa* (tracks: 4, 5)
Fiddle - Ashley MacIsaac (tracks: 12)
Saxophone - Kelly Hoppe
Vocals, Guitar - Gordie Johnson


Exact Audio Copy V0.99 prebeta 4 from 23. January 2008

EAC extraction logfile from 15. February 2009, 20:40

Big Sugar / Five Hundred Pounds

Used drive : PIONEER DVD-RW DVR-115D Adapter: 0 ID: 0

Read mode : Secure
Utilize accurate stream : Yes
Defeat audio cache : Yes
Make use of C2 pointers : No

Read offset correction

: 48
Overread into Lead-In and Lead-Out : No
Fill up missing offset samples with silence : Yes
Delete leading and trailing silent blocks : No
Null samples used in CRC calculations : Yes
Used interface
: Native Win32 interface for Win NT & 2000
Gap handling
: Appended to previous track

Used output format : User Defined Encoder
Selected bitrate : 128 kBit/s
Quality : High
Add ID3 tag : No
Command line compressor : C:\Program Files\FLAC\flac.exe
Additional command line options : -V -8 -T "artist=%a" -T "title=%t" -T "album=%g" -T "date=%y" -T "tracknumber=%n" -T "genre=%m" %s

TOC of the extracted CD Track | Start | Length | Start sector | End sector
--1 | 0:00.00 | 4:48.50 | 0 | 21649 2 | 4:48.50 | 3:56.12 | 21650 | 39361 3 | 8:44.62 | 3:31.50 | 39362 | 55236 4 | 12:16.37 | 5:12.08 | 55237 | 78644 5 | 17:28.45 | 3:41.55 | 78645 | 95274 6 | 21:10.25 | 2:13.50 | 95275 | 105299 7 | 23:24.00 | 4:05.62 | 105300 | 123736 8 | 27:29.62 | 4:16.25 | 123737 | 142961 9 | 31:46.12 | 5:31.63 | 142962 | 167849
10 | 37:18.00 | 5:41.05 | 167850 | 193429
11 | 42:59.05 | 6:49.37 | 193430 | 224141

Track 1 Filename E:\Temp\RIP\Big Sugar - Five Hundred Pounds (1993) [FLAC]\01 - Ride Like Hell.wav Pre-gap length 0:00:02.00 Peak level 88.6 %
Track quality 100.0 %
Test CRC A270A688
Copy CRC A270A688
Cannot be verified as accurate (confidence 11) [4E6CBAFF], AccurateRip returned [38CB6C9B]
Copy OK

Track 2 Filename E:\Temp\RIP\Big Sugar - Five Hundred Pounds (1993) [FLAC]\02 - Standing Around Crying.wav Pre-gap length 0:00:01.10 Peak level 97.8 %
Track quality 100.0 %
Test CRC 64DD8602
Copy CRC 64DD8602
Cannot be verified as accurate (confidence 11) [96836A1C], AccurateRip returned [7B763F59]
Copy OK

Track 3 Filename E:\Temp\RIP\Big Sugar - Five Hundred Pounds (1993) [FLAC]\03 - I'm a Ram.wav Pre-gap length 0:00:01.20 Peak level 97.9 %
Track quality 100.0 %
Test CRC 672B4E4C
Copy CRC 672B4E4C
Cannot be verified as accurate (confidence 11) [5AEBA323], AccurateRip returned [E3C6B30B]
Copy OK

Track 4 Filename E:\Temp\RIP\Big Sugar - Five Hundred Pounds (1993) [FLAC]\04 - Sugar In my Coffee.wav Peak level 97.9 %
Track quality 100.0 %
Test CRC 29AA2A7E
Copy CRC 29AA2A7E
Cannot be verified as accurate (confidence 10) [8EC0029E], AccurateRip returned [90881B95]
Copy OK

Track 5 Filename E:\Temp\RIP\Big Sugar - Five Hundred Pounds (1993) [FLAC]\05 - All Over Now.wav Pre-gap length 0:00:05.05 Peak level 97.9 %
Track quality 100.0 %
Test CRC B488A5CF
Copy CRC B488A5CF
Cannot be verified as accurate (confidence 11) [1AFEA179], AccurateRip returned [0F6F63C6]
Copy OK

Track 6 Filename E:\Temp\RIP\Big Sugar - Five Hundred Pounds (1993) [FLAC]\06 - AAA Aardvark Hotel.wav Pre-gap length 0:00:02.70 Peak level 97.9 %
Track quality 100.0 %
Test CRC 119A92B9
Copy CRC 119A92B9
Cannot be verified as accurate (confidence 11) [AABEA452], AccurateRip returned [0AEF4420]
Copy OK

Track 7 Filename E:\Temp\RIP\Big Sugar - Five Hundred Pounds (1993) [FLAC]\07 - How Many Times.wav Pre-gap length 0:00:03.15 Peak level 97.9 %
Track quality 100.0 %
Test CRC 6152BF4E
Copy CRC 6152BF4E
Cannot be verified as accurate (confidence 11) [85B19FC5], AccurateRip returned [3F937F54]
Copy OK

Track 8 Filename E:\Temp\RIP\Big Sugar - Five Hundred Pounds (1993) [FLAC]\08 - Deliver Me.wav Pre-gap length 0:00:03.15 Peak level 97.9 %
Track quality 99.9 %
Test CRC 3E97C99C
Copy CRC 3E97C99C
Cannot be verified as accurate (confidence 11) [A5F86E67], AccurateRip returned [3629F068]
Copy OK

Track 9 Filename E:\Temp\RIP\Big Sugar - Five Hundred Pounds (1993) [FLAC]\09 - Still Waitin'.wav Peak level 97.9 %
Track quality 100.0 %
Test CRC FE98508A
Copy CRC FE98508A
Cannot be verified as accurate (confidence 11) [5FED8A89], AccurateRip returned [356D5D42]
Copy OK

Track 10 Filename E:\Temp\RIP\Big Sugar - Five Hundred Pounds (1993) [FLAC]\10 - Wild Ox Moan.wav Pre-gap length 0:00:01.58 Peak level 97.9 %
Track quality 100.0 %
Test CRC 9ECB01C7
Copy CRC 9ECB01C7
Cannot be verified as accurate (confidence 11) [94B9B8C5], AccurateRip returned [C986CACA]
Copy OK

Track 11 Filename E:\Temp\RIP\Big Sugar - Five Hundred Pounds (1993) [FLAC]\11 - Ride On.wav Pre-gap length 0:00:04.25 Peak level 97.9 %
Track quality 100.0 %
Test CRC 48D5DD83
Copy CRC 48D5DD83
Cannot be verified as accurate (confidence 10) [4B9ACD20], AccurateRip returned [4C1BC1AF]
Copy OK

No tracks could be verified as accurate
You may have a different pressing from the one(s) in the database

No errors occurred

End of status report

foobar2000 1.2.9 / Dynamic Range Meter 1.1.1
log date: 2015-09-16 09:11:59

Analyzed: Big Sugar / Five Hundred Pounds

DR Peak RMS Duration Track

DR5 -1.05 dB -6.74 dB 4:49 01-Ride Like Hell
DR10 -0.19 dB -11.70 dB 3:56 02-Standing Around Crying
DR10 -0.18 dB -10.56 dB 3:32 03-I'm a Ram
DR10 -0.18 dB -11.85 dB 5:12 04-Sugar In my Coffee
DR12 -0.18 dB -12.92 dB 3:42 05-All Over Now
DR8 -0.18 dB -9.05 dB 2:14 06-AAA Aardvark Hotel
DR10 -0.18 dB -12.19 dB 4:06 07-How Many Times
DR9 -0.18 dB -10.17 dB 4:16 08-Deliver Me
DR6 -0.18 dB -8.98 dB 5:32 09-Still Waitin'
DR7 -0.18 dB -8.56 dB 5:41 10-Wild Ox Moan
DR11 -0.18 dB -13.75 dB 6:49 11-Ride On

Number of tracks: 11
Official DR value: DR9

Samplerate: 44100 Hz
Channels: 2
Bits per sample: 16
Bitrate: 846 kbps
Codec: FLAC

[CUETools log; Date: 16.09.2015 9:12:01; Version: 2.1.4]
[CTDB TOCID: 83FrbV4GXHjtmr70Isx8KrrXDP8-] found.
Track | CTDB Status
1 | (11/11) Accurately ripped
2 | (11/11) Accurately ripped
3 | (11/11) Accurately ripped
4 | (11/11) Accurately ripped
5 | (11/11) Accurately ripped
6 | (11/11) Accurately ripped
7 | (11/11) Accurately ripped
8 | (11/11) Accurately ripped
9 | (11/11) Accurately ripped
10 | (11/11) Accurately ripped
11 | (11/11) Accurately ripped
[AccurateRip ID: 00130966-00a5a95e-800bac0b] found.
Track [ CRC | V2 ] Status
01 [4e6cbaff|87f6c9fa] (00+00/25) No match
02 [96836a1c|fc87fd57] (00+00/26) No match
03 [5aeba323|79d3b1c1] (00+00/25) No match
04 [8ec0029e|c2181cc1] (00+00/24) No match
05 [1afea179|b953d62e] (00+00/26) No match
06 [aabea452|39ddec88] (00+00/26) No match
07 [85b19fc5|c6fed76c] (00+00/25) No match
08 [a5f86e67|e80bccf4] (00+00/26) No match
09 [5fed8a89|37492d56] (00+00/26) No match
10 [94b9b8c5|f3544eb8] (00+00/26) No match
11 [4b9acd20|67333e49] (00+00/24) No match
Offsetted by -1015:
01 [38cb6c9b] (14/25) Accurately ripped
02 [7b763f59] (15/26) Accurately ripped
03 [e3c6b30b] (14/25) Accurately ripped
04 [90881b95] (13/24) Accurately ripped
05 [0f6f63c6] (15/26) Accurately ripped
06 [0aef4420] (15/26) Accurately ripped
07 [3f937f54] (15/25) Accurately ripped
08 [3629f068] (15/26) Accurately ripped
09 [356d5d42] (15/26) Accurately ripped
10 [c986caca] (15/26) Accurately ripped
11 [4c1bc1af] (13/24) Accurately ripped
Offsetted by -12:
01 [e6a49792] (00/25) No match (V2 was not tested)
02 [d0178ada] (00/26) No match (V2 was not tested)
03 [fbbf6fc2] (00/25) No match (V2 was not tested)
04 [a1141b6f] (00/24) No match (V2 was not tested)
05 [d1ffc1cb] (00/26) No match (V2 was not tested)
06 [484e7746] (00/26) No match (V2 was not tested)
07 [c781e6cf] (00/25) No match (V2 was not tested)
08 [720559fb] (00/26) No match (V2 was not tested)
09 [e6a96f41] (00/26) No match (V2 was not tested)
10 5d196c8 (00/26) No match (V2 was not tested)
11 [7f36c37c] (00/24) No match (V2 was not tested)

Track Peak [ CRC32 ] [W/O NULL] [ LOG ]
-- 97,8 [CD70FF69] [5F6DECD6]
01 88,6 [A270A688] [31BCAD06] CRC32
02 97,8 [64DD8602] [AF2D8FE2] CRC32
03 97,8 [672B4E4C] [237E431B] CRC32
04 97,8 [29AA2A7E] 55A1794 CRC32
05 97,8 488A5CF [8685EA98] CRC32
06 97,8 [119A92B9] [734AF3DD] CRC32
07 97,8 [6152BF4E] [0D8FBD9C] CRC32
08 97,8 [3E97C99C] [9E2E3777] CRC32
09 97,8 [FE98508A] [4739D557] CRC32
10 97,8 [9ECB01C7] [FE4D3F5A] CRC32
11 97,8 [48D5DD83] [84C8E2B0] CRC32

Big Sugar - Hemi Vision (1996)

DOWNLOAD LINKS
Buy Premium From My Links To Get Resumable Support & Max Speed & To Support Me


Links are Interchangeable - No Password - Single Extraction
Direct Download

Tags: Vision

Big Sugar - Hemi Vision (1996) Download via Hotfile Rapidshare Fileserve Megaupload & FileSonic, Big Sugar - Hemi Vision (1996) free torrent downloads included crack, serial, keygen.Big Sugar - Hemi Vision (1996) Fast Download via Rapidshare Hotfile Fileserve Filesonic Megaupload, Big Sugar - Hemi Vision (1996) Torrents and Emule Download or anything related.
Leave a Comment
Your Name:
E-Mail:
Add Comments:

Enter Code: