Bryce Janey - Heal The Night (2006)

Download Now

Bryce Janey - Heal The Night (2006)

Bryce Janey - Heal The Night (2006)
EAC Rip | FLAC (Img) + Cue + Log ~ 287 Mb | MP3 CBR320 ~ 103 Mb
Scans Included (JPG, 360 dpi) | RAR 5% Recovery
Rock, Blues Rock | 3RD AVENUE MUSIC #3AM-901

"This album has it all, upbeat, blues- rock, but with a blend of R&B,and solo acoustic blues and rock ballads and more. Bryce Janey began his career in his hometown of Marion, IA at the age of 13 in a blues-rock trio called The Janey's. With his mother on drums and his father BillyLee on guitar, The Janey's played regionally and nationally from Chicago to Los Angeles. They shared the stage with over 50 national acts, including Buddy Guy, Delbert McClinton, Blues Traveler, Johnny Winter and Koko Taylor..."

While still in The Janey's, Bryce began a solo career and released his first CD, Practice What You Preach, in 1996 on Hot Fudge Music label. This release was later picked up by an independent label in Minneapolis, MN where Bryce began to showcase in local clubs like Whiskey Junction and BrewBakers in St. Paul.

Two more CDs were released, Live at Checker's Tavern and Sweet Baby Jane. These early CDs have gained national attention and five stars from Blues Access magazine (1998) and great reviews from Blues Revue and Living Blues, among others.

In 1999, Bryce signed with San Diego music attorney, Rod Underhill and became the number one artist on mp3.com later that year.

In 2001, Bryce released his next CD, Bare Wire, and began touring again with his own band and with Iowa's own The Blue Band. Bryce played festivals and successful venues like B.B. King's in Memphis and Buddy Guy's Legends in Chicago. The Blue Band also played venues in Minneapolis, Kansas City, St. Louis, Nashville, Denver and Keystone.

In early 2003, Bryce released Live At JM O'Malley's. That same year, he also released The Janey's with his father, Iowa Rock and Roll Hall of Fame Inductee, BillyLee Janey. He performed with The Janey's father/son team-up, as well as with his own band.

Bryce's influences include many artists ranging from Gene Vincent, Buddy Holly, and Chuck Berry to Jimi Hendrix, Cream and The Band, in addition to many blues artists.
~ cduniverse.com
All Music
***************

Bryce Janey - Heal The Night (2006)

Track List:

01. Sweet Lovin' You [0:03:48.36]
02. Love in New York City [0:03:59.49]
03. 1973 [0:04:16.25]
04. Heal the Night [0:03:32.08]
05. Chance with Me [0:04:14.31]
06. Just Wanna Show You [0:05:01.49]
07. Come Sit by the Fire [0:04:00.00]
08. Hey Now Baby [0:03:34.57]
09. Real Good Time [0:05:03.56]
10. Need Your Love [0:02:56.26]

Exact Audio Copy V1.0 beta 3 from 29. August 2011

Отчёт EAC об извлечении, выполненном 13. декабря 2013, 22:28

Bryce Janey / Heal The Night

Дисковод: SlimtypeDVD A DS8A5SH Adapter: 0 ID: 1

Режим чтения : Достоверность
Использование точного потока : Да
Отключение кэша аудио : Да
Использование указателей C2 : Нет

Коррекция смещения при чтении : 6
Способность читать области Lead-in и Lead-out : Нет
Заполнение пропущенных сэмплов тишиной : Да
Удаление блоков с тишиной в начале и конце : Нет
При вычислениях CRC использовались нулевые сэмплы : Да
Интерфейс : Встроенный Win32-интерфейс для Win NT/2000

Выходной формат : Внутренние WAV-операции
Формат сэмплов : 44.100 Гц; 16 бит; стерео

TOC извлечённого CD Трек | Старт | Длительность | Начальный сектор | Конечный сектор

1 | 0:00.00 | 3:48.36 | 0 | 17135
2 | 3:48.36 | 3:59.49 | 17136 | 35109
3 | 7:48.10 | 4:16.25 | 35110 | 54334
4 | 12:04.35 | 3:32.08 | 54335 | 70242
5 | 15:36.43 | 4:14.31 | 70243 | 89323
6 | 19:50.74 | 5:01.49 | 89324 | 111947
7 | 24:52.48 | 4:00.00 | 111948 | 129947
8 | 28:52.48 | 3:34.57 | 129948 | 146054
9 | 32:27.30 | 5:03.56 | 146055 | 168835
10 | 37:31.11 | 2:56.26 | 168836 | 182061

Характеристики диапазона извлечения и сообщения об ошибках

Выбранный диапазон Имя файла D:\Свои\Bryce Janey - Heal The Night - 2006\Bryce Janey - Heal The Night.wav Пиковый уровень 100.0 %
Скорость извлечения 4.2 X
Качество диапазона 100.0 %
CRC теста B05B4754
CRC копии B05B4754
Копирование... OK

Ошибок не произошло


AccurateRip: сводка

Трек 1 отсутствует в базе данных
Трек 2 отсутствует в базе данных
Трек 3 отсутствует в базе данных
Трек 4 отсутствует в базе данных
Трек 5 отсутствует в базе данных
Трек 6 отсутствует в базе данных
Трек 7 отсутствует в базе данных
Трек 8 отсутствует в базе данных
Трек 9 отсутствует в базе данных
Трек 10 отсутствует в базе данных

Ни одного трека нет в базе AccurateRip

Конец отчёта

==== Контрольная сумма отчёта 43BECC9FE6572D819D4A29D32698276762582DC5356030CDC1ED0C2C64F72E5A ====

foobar2000 1.2.6 / Dynamic Range Meter 1.1.1
log date: 2015-09-17 14:01:50

Analyzed: Bryce Janey / Heal The Night

DR Peak RMS Duration Track

DR8 0.00 dB -8.43 dB 3:48 01-Sweet Lovin' You
DR8 0.00 dB -8.95 dB 4:00 02-Love in New York City
DR7 -0.03 dB -8.87 dB 4:16 03-1973
DR9 0.00 dB -11.06 dB 3:32 04-Heal the Night
DR7 0.00 dB -8.09 dB 4:14 05-Chance with Me
DR8 0.00 dB -9.62 dB 5:02 06-Just Wanna Show You
DR8 0.00 dB -9.08 dB 4:00 07-Come Sit by the Fire
DR8 0.00 dB -8.77 dB 3:35 08-Hey Now Baby
DR8 0.00 dB -9.48 dB 5:04 09-Real Good Time
DR12 0.00 dB -14.33 dB 2:56 10-Need Your Love

Number of tracks: 10
Official DR value: DR8

Samplerate: 44100 Hz
Channels: 2
Bits per sample: 16
Bitrate: 926 kbps
Codec: FLAC

[CUETools log; Date: 17.09.2015 14:01:47; Version: 2.1.5]
[CTDB TOCID: u71FesU5EsZElUzYOo2kUjaGBEs-] disk not present in database.
[AccurateRip ID: 000f55c5-007b2e9b-86097b0a] found.
Track [ CRC | V2 ] Status
01 [74f94e53|1fda025a] (1+0/1) Accurately ripped
02 [9ccc810b|821a70c1] (1+0/1) Accurately ripped
03 [af009902|f2cdba89] (1+0/1) Accurately ripped
04 0491646|ab19001c (1+0/1) Accurately ripped
05 [7615294a|4b207f76] (1+0/1) Accurately ripped
06 [973ab904|fe7d89d5] (1+0/1) Accurately ripped
07 [e089a91d|3e8c88e7] (1+0/1) Accurately ripped
08 [a6835fd2|e13cee61] (1+0/1) Accurately ripped
09 [f8f45f24|d853c197] (1+0/1) Accurately ripped
10 [5c378d9e|59c3e9d3] (1+0/1) Accurately ripped

Track Peak [ CRC32 ] [W/O NULL] [ LOG ]
-- 100,0 05B4754 [CCBA7E69] CRC32
01 100,0 [D8B3A91E] [928B7A10]
02 100,0 [F0F89976] [FCAE678C]
03 99,6 [E07B2CDB] [45D3E59A]
04 100,0 [729F062F] [65D5B8C2]
05 100,0 [67529629] [1D033C7F]
06 100,0 [2771DC75] [0CE4C847]
07 100,0 [C915AEAD] [6D966C2D]
08 100,0 [88E99F86] [4A2F5A2E]
09 100,0 [4BDE7357] [5207282D]
10 100,0 [984DEA94] [603489D5]

Bryce Janey - Heal The Night (2006)

DOWNLOAD LINKS
Buy Premium From My Links To Get Resumable Support & Max Speed & To Support Me


Links are Interchangeable - No Password - Single Extraction
Direct Download

Bryce Janey - Heal The Night (2006) Download via Hotfile Rapidshare Fileserve Megaupload & FileSonic, Bryce Janey - Heal The Night (2006) free torrent downloads included crack, serial, keygen.Bryce Janey - Heal The Night (2006) Fast Download via Rapidshare Hotfile Fileserve Filesonic Megaupload, Bryce Janey - Heal The Night (2006) Torrents and Emule Download or anything related.
Leave a Comment
Your Name:
E-Mail:
Add Comments:

Enter Code: