Kronos Quartet - Terry Riley: Requiem For Adam (2001)

Download Now

Kronos Quartet - Terry Riley: Requiem For Adam (2001)

Kronos Quartet - Terry Riley: Requiem For Adam (2001)
EAC | APE | Image (Cue&Log) ~ 197 Mb (incl 5%) | Mp3 (CBR320) ~ 132 Mb (incl 5%) | Scans included
Genre: Classical, Avant-Garde, Minimalism | Label: Nonesuch | # 79639-2 | Time: 00:47:55

"This may be the single most powerful piece of music that the Kronos Quartet has ever recorded, and perhaps that Terry Riley has ever written. This is because Requiem for Adam is so personal, so direct, and experiential. Requiem for Adam was written after the death of Kronos violinist David Harrignton's son. He died, in 1995, at the age of 16, from an aneurysm in his coronary artery. Riley, who is very close to the Harringtons and has a son the same age, has delved deep into the experience of death and resurrection, or, at the very least, transmutation. Requiem for Adam is written in three parts, or movements. The first, "Ascending the Heaven Ladder," is based on a four-note pattern that re-harmonizes itself as it moves up the scale. There are many variations and series based on each of these notes and their changing harmonics, and finally a 5/4 dance as it moves to the highest point on the strings. The drone-like effect is stunning when the listener realizes that the drone is changing shape too, ascending the scale, moving ever upward and taking part in the transmutation of harmony."



Kronos Quartet:

- David Harrington, violin
- John Sherba, violin
- Hank Dutt, viola
- Jennifer Culp, cello


Tracklist:

01. Ascending the Heaven Ladder (13:23)
02. Cortejo Funebre En El Monte Diablo (07:08)
03. Requiem for Adam (21:32)
04. The Philosopher's Hand (05:50)


Exact Audio Copy V0.99 prebeta 4 from 23. January 2008

Отчёт EAC об извлечении, выполненном 30. октября 2008, 21:36

Kronos Quartet / Terry Riley. Requiem for Adam

Дисковод: Optiarc DVD RW AD-7173A Adapter: 1 ID: 0

Режим чтения : Достоверность
Использование точного потока : Да
Отключение кэша аудио : Да
Использование указателей C2 : Нет

Коррекция смещения при чтении : 48
Способность читать области Lead-in и Lead-out : Нет
Заполнение пропущенных сэмплов тишиной : Да
Удаление блоков с тишиной в начале и конце : Нет
При вычислениях CRC использовались нулевые сэмплы : Да
Интерфейс : Встроенный Win32-интерфейс для Win NT/2000

Выходной формат : Внутренние WAV-операции
Формат сэмплов : 44.100 Гц; 16 бит; стерео

TOC извлечённого CD Трек | Старт | Длительность | Начальный сектор | Конечный сектор

1 | 0:00.32 | 13:23.10 | 32 | 60266
2 | 13:23.42 | 7:08.48 | 60267 | 92414
3 | 20:32.15 | 21:32.30 | 92415 | 189344
4 | 42:04.45 | 5:50.47 | 189345 | 215641

Характеристики диапазона извлечения и сообщения об ошибках

Выбранный диапазон Имя файла F:\___Torrent\Kronos__Quartet\Kronos Quartet - Terry Riley. Requiem for Adam.wav Пиковый уровень 91.1 %
Качество диапазона 100.0 %
CRC копии DC7E7583
Копирование... OK

Ошибок не произошло

Конец отчёта

[CUETools log; Date: 18.09.2015 14:13:36; Version: 2.1.4]
Pregap length 00:00:32.
[CTDB TOCID: J9ev3wt8Vonqk7f6aopDx5_oiJU-] found.
Track | CTDB Status
1 | (2/2) Accurately ripped
2 | (2/2) Accurately ripped
3 | (2/2) Accurately ripped
4 | (2/2) Accurately ripped
[AccurateRip ID: 00088285-00221439-280b3b04] found.
Track [ CRC | V2 ] Status
01 [45fe7969|630f2687] (02+02/26) Accurately ripped
02 [4f995d05|0fbc78e5] (02+02/27) Accurately ripped
03 [a8b6357f|88d6de51] (02+02/27) Accurately ripped
04 [d441ba3d|1dbbc158] (02+02/26) Accurately ripped
Offsetted by 681:
01 [fe18fa8d] (15/26) Accurately ripped
02 [84e3147b] (15/27) Accurately ripped
03 [f2e786b8] (15/27) Accurately ripped
04 [1727f4a6] (15/26) Accurately ripped

Track Peak [ CRC32 ] [W/O NULL] [ LOG ]
-- 91,1 [DC7E7583] [67F9C9C1] CRC32
01 59,5 [38FE9783] [55003B59]
02 74,4 831CF94 [30C2873B]
03 91,1 [4A24C475] [22E67585]
04 19,7 [6AD29BB2] [01CA7F16]

foobar2000 1.2 / Dynamic Range Meter 1.1.1
log date: 2015-09-18 14:46:01

Analyzed: Kronos Quartet / Terry Riley. Requiem for Adam

DR Peak RMS Duration Track

DR16 -4.50 dB -27.11 dB 13:23 01-Ascending the Heaven Ladder
DR13 -2.57 dB -20.19 dB 7:09 02-Cortejo Funebre En El Monte Diablo
DR15 -0.81 dB -23.19 dB 21:32 03-Requiem for Adam
DR14 -14.09 dB -33.92 dB 5:51 04-The Philosopher's Hand

Number of tracks: 4
Official DR value: DR15

Samplerate: 44100 Hz
Channels: 2
Bits per sample: 16
Bitrate: 502 kbps
Codec: Monkey's Audio

Kronos Quartet - Terry Riley: Requiem For Adam (2001)

Kronos Quartet - Terry Riley: Requiem For Adam (2001)

All thanks to original releaser - BolshoeR
Password: designol

DOWNLOAD LINKS
Buy Premium From My Links To Get Resumable Support & Max Speed & To Support Me


Links are Interchangeable - No Password - Single Extraction
Direct Download

Tags: Kronos, Quartet, Requiem

Kronos Quartet - Terry Riley: Requiem For Adam (2001) Download via Hotfile Rapidshare Fileserve Megaupload & FileSonic, Kronos Quartet - Terry Riley: Requiem For Adam (2001) free torrent downloads included crack, serial, keygen.Kronos Quartet - Terry Riley: Requiem For Adam (2001) Fast Download via Rapidshare Hotfile Fileserve Filesonic Megaupload, Kronos Quartet - Terry Riley: Requiem For Adam (2001) Torrents and Emule Download or anything related.
Leave a Comment
Your Name:
E-Mail:
Add Comments:

Enter Code: