Mahler - Symphony No.4 (Ivan Fischer)

Download Now

Mahler - Symphony No.4 (Ivan Fischer)

Mahler - Symphony No.4 (Iván Fischer) (2012)
BluRay | BDMV | MPEG-4 AVC Video / 21984 kbps / 1080i / 29,970 fps | 60 min | 14,6 GB
Audio1: LPCM Audio / 2.0 / 24-bit | Audio2: DTS-HD Master Audio / 5.0 / 96 kHz / 6134 kbps

BluRay-rip | AVC | MKV 1920x1080 (16:9) / 9322 kbps / 29,970 fps | 60 min | 4,6GB
Audio: German / DTS / 5ch / 1509 kbps / 48.0 KHz / 24 bits
Classical | RCO Live

"A host of accomplished conductors including Daniel Harding, Daniele Gatti, Bernard Haitink and Eliahu Inbal lead the Royal Concertgebouw Orchestra in these performances of Mahler's Symphonies Nos. 1-10. Recorded in Amsterdam over two seasons in 2010/11, the collection also includes 'Das Lied von der Erde'."

Cast:
Miah Persson (soprano)
Royal Concertgebouw Orchestra
Conductor - Iván Fischer

Track:
Symphony No. 4:
I. Bedächtig, nicht eilen
II. In gemächlicher Bewegung, ohne Hast
III. Ruhevoll, poco adagio
IV. Wir geniessen die Himmlischen Freuden. Sehr behaglich

Disc Title: MAHLER4
Disc Size: 15774490598 bytes
Protection: AACS
BD-Java: Yes
Playlist: 00002.MPLS
Size: 15763034112 bytes
Length: 1:00:45.742
Total Bitrate: 34,59 Mbps
Video: MPEG-4 AVC Video / 21984 kbps / 1080i / 29,970 fps / 16:9 / High Profile 4.1
Audio: Undetermined / LPCM Audio / 2.0 / 96 kHz / 4608 kbps / 24-bit
Audio: Undetermined / DTS-HD Master Audio / 5.0 / 96 kHz / 6134 kbps / 24-bit (DTS Core: 5.0 / 48 kHz / 1509 kbps / 24-bit)

General
Unique ID
: 241910449717010384502939055565222943549 (0xB5FE420589F70CD9BFD5EE7C2D8F9B3D)
Complete name : C:\Mahler_Symphony_04.mkv
Format
: Matroska
Format version : Version 2
File size
: 4.60 GiB
Duration
: 1h 0mn
Overall bit rate : 10.8 Mbps
Movie name
: Mahler_Symphony_04
Encoded date : UTC 2015-09-16 09:24:36
Writing application

: DVDFab 9.1.6.8
Writing library : libebml v0.7.8 + libmatroska v0.8.1

Video
ID : 1
Format
: AVC
Format/Info
: Advanced Video Codec
Format profile : [email protected]
Format settings, CABAC : Yes
Format settings, ReFrames : 2 frames
Codec ID
: V_MPEG4/ISO/AVC
Duration
: 1h 0mn
Bit rate
: 9 322 Kbps
Width
: 1 920 pixels
Height
: 1 080 pixels
Display aspect ratio : 16:9
Frame rate mode : Constant
Frame rate
: 29.970 fps
Color space
: YUV
Chroma subsampling

: 4:2:0
Bit depth
: 8 bits
Scan type
: Progressive
Bits/(Pixel*Frame)

: 0.150
Stream size
: 3.87 GiB (84%)
Writing library : x264 core 142
Encoding settings: cabac=1 / ref=1 / deblock=1:-1:-1 / analyse=0x3:0 / me=hex / subme=5 / psy=0 / mixed_ref=0 / me_range=16 / chroma_me=1 / trellis=0 / 8x8dct=1 / cqm=0 / deadzone=21,11 / fast_pskip=1 / chroma_qp_offset=0 / threads=8 / lookahead_threads=2 / sliced_threads=0 / nr=0 / decimate=1 / interlaced=0 / bluray_compat=0 / constrained_intra=0 / bframes=2 / b_pyramid=0 / b_adapt=1 / b_bias=0 / direct=1 / weightb=1 / open_gop=0 / weightp=0 / keyint=24 / keyint_min=13 / scenecut=40 / intra_refresh=0 / rc=abr / mbtree=0 / bitrate=9322 / ratetol=1.0 / qcomp=0.60 / qpmin=0 / qpmax=69 / qpstep=4 / ip_ratio=1.40 / pb_ratio=1.30 / aq=1:1.00
Default
: Yes
Forced
: No
Color primaries : BT.709
Transfer characteristics : BT.709
Matrix coefficients

: BT.709
Color range
: Limited

Audio
ID : 2
Format
: DTS
Format/Info
: Digital Theater Systems
Mode
: 16
Format settings, Endianness : Big
Codec ID
: A_DTS
Duration
: 1h 0mn
Bit rate mode : Constant
Bit rate
: 1 509 Kbps
Channel(s)
: 5 channels
Channel positions: Front: L C R, Side: L R
Sampling rate : 48.0 KHz
Bit depth
: 24 bits
Compression mode : Lossy
Stream size
: 656 MiB (14%)
Default
: Yes
Forced
: No

Menu
00:00:00.000 : en:Chapter 01
00:18:12.224 : en:Chapter 02
00:28:07.652 : en:Chapter 03
00:49:24.895 : en:Chapter 04

All screenshots taken from BDRip

Mahler - Symphony No.4 (Ivan Fischer)



DOWNLOAD LINKS:
Buy Premium To Support Me & Get Resumable Support & Max Speed

Rapidgator.net:
g2759.MahSymRCOI.part1.rar.html
g2759.MahSymRCOI.part2.rar.html
g2759.MahSymRCOI.part3.rar.html
g2759.MahSymRCOI.part4.rar.html
g2759.MahSymRCOI.part5.rar.html
g2759.MahSymRCOI.part6.rar.html
g2759.MahSymRCOII.part01.rar.html
g2759.MahSymRCOII.part02.rar.html
g2759.MahSymRCOII.part03.rar.html
g2759.MahSymRCOII.part04.rar.html
g2759.MahSymRCOII.part05.rar.html
g2759.MahSymRCOII.part06.rar.html
g2759.MahSymRCOII.part07.rar.html
g2759.MahSymRCOII.part08.rar.html
g2759.MahSymRCOII.part09.rar.html
g2759.MahSymRCOIII.part01.rar.html
g2759.MahSymRCOIII.part02.rar.html
g2759.MahSymRCOIII.part03.rar.html
g2759.MahSymRCOIII.part04.rar.html
g2759.MahSymRCOIII.part05.rar.html
g2759.MahSymRCOIII.part06.rar.html
g2759.MahSymRCOIII.part07.rar.html
g2759.MahSymRCOIII.part08.rar.html
g2759.MahSymRCOIII.part09.rar.html
g2759.MahSymRCOIII.part10.rar.html
g2759.MahSymRCOIV.part1.rar.html
g2759.MahSymRCOIV.part2.rar.html
g2759.MahSymRCOIV.part3.rar.html
g2759.MahSymRCOIV.part4.rar.html
g2759.MahSymRCOIV.part5.rar.html
g2759.MahSymRCOIV.part6.rar.html

Uploaded.net:
g2759.MahSymRCOI.part1.rar
g2759.MahSymRCOI.part2.rar
g2759.MahSymRCOI.part3.rar
g2759.MahSymRCOI.part4.rar
g2759.MahSymRCOI.part5.rar
g2759.MahSymRCOI.part6.rar
g2759.MahSymRCOII.part01.rar
g2759.MahSymRCOII.part02.rar
g2759.MahSymRCOII.part03.rar
g2759.MahSymRCOII.part04.rar
g2759.MahSymRCOII.part05.rar
g2759.MahSymRCOII.part06.rar
g2759.MahSymRCOII.part07.rar
g2759.MahSymRCOII.part08.rar
g2759.MahSymRCOII.part09.rar
g2759.MahSymRCOIII.part01.rar
g2759.MahSymRCOIII.part02.rar
g2759.MahSymRCOIII.part03.rar
g2759.MahSymRCOIII.part04.rar
g2759.MahSymRCOIII.part05.rar
g2759.MahSymRCOIII.part06.rar
g2759.MahSymRCOIII.part07.rar
g2759.MahSymRCOIII.part08.rar
g2759.MahSymRCOIII.part09.rar
g2759.MahSymRCOIII.part10.rar
g2759.MahSymRCOIV.part1.rar
g2759.MahSymRCOIV.part2.rar
g2759.MahSymRCOIV.part3.rar
g2759.MahSymRCOIV.part4.rar
g2759.MahSymRCOIV.part5.rar
g2759.MahSymRCOIV.part6.rar

Nitroflare.com
g2759.MahSymRCOI.part1.rar
g2759.MahSymRCOI.part2.rar
g2759.MahSymRCOI.part3.rar
g2759.MahSymRCOI.part4.rar
g2759.MahSymRCOI.part5.rar
g2759.MahSymRCOI.part6.rar
g2759.MahSymRCOII.part01.rar
g2759.MahSymRCOII.part02.rar
g2759.MahSymRCOII.part03.rar
g2759.MahSymRCOII.part04.rar
g2759.MahSymRCOII.part05.rar
g2759.MahSymRCOII.part06.rar
g2759.MahSymRCOII.part07.rar
g2759.MahSymRCOII.part08.rar
g2759.MahSymRCOII.part09.rar
g2759.MahSymRCOIII.part01.rar
g2759.MahSymRCOIII.part02.rar
g2759.MahSymRCOIII.part03.rar
g2759.MahSymRCOIII.part04.rar
g2759.MahSymRCOIII.part05.rar
g2759.MahSymRCOIII.part06.rar
g2759.MahSymRCOIII.part07.rar
g2759.MahSymRCOIII.part08.rar
g2759.MahSymRCOIII.part09.rar
g2759.MahSymRCOIII.part10.rar
g2759.MahSymRCOIV.part1.rar
g2759.MahSymRCOIV.part2.rar
g2759.MahSymRCOIV.part3.rar
g2759.MahSymRCOIV.part4.rar
g2759.MahSymRCOIV.part5.rar
g2759.MahSymRCOIV.part6.rar

Uploadable.ch:
g2759.MahSymRCOI.part1.rar
g2759.MahSymRCOI.part2.rar
g2759.MahSymRCOI.part3.rar
g2759.MahSymRCOI.part4.rar
g2759.MahSymRCOI.part5.rar
g2759.MahSymRCOI.part6.rar
g2759.MahSymRCOII.part01.rar
g2759.MahSymRCOII.part02.rar
g2759.MahSymRCOII.part03.rar
g2759.MahSymRCOII.part04.rar
g2759.MahSymRCOII.part05.rar
g2759.MahSymRCOII.part06.rar
g2759.MahSymRCOII.part07.rar
g2759.MahSymRCOII.part08.rar
g2759.MahSymRCOII.part09.rar
g2759.MahSymRCOIII.part01.rar
g2759.MahSymRCOIII.part02.rar
g2759.MahSymRCOIII.part03.rar
g2759.MahSymRCOIII.part04.rar
g2759.MahSymRCOIII.part05.rar
g2759.MahSymRCOIII.part06.rar
g2759.MahSymRCOIII.part07.rar
g2759.MahSymRCOIII.part08.rar
g2759.MahSymRCOIII.part09.rar
g2759.MahSymRCOIII.part10.rar
g2759.MahSymRCOIV.part1.rar
g2759.MahSymRCOIV.part2.rar
g2759.MahSymRCOIV.part3.rar
g2759.MahSymRCOIV.part4.rar
g2759.MahSymRCOIV.part5.rar
g2759.MahSymRCOIV.part6.rar

Links are Interchangeable - No Password - Single Extraction
Direct Download

Tags: Mahler, Symphony, Fischer

Mahler - Symphony No.4 (Ivan Fischer) Download via Hotfile Rapidshare Fileserve Megaupload & FileSonic, Mahler - Symphony No.4 (Ivan Fischer) free torrent downloads included crack, serial, keygen.Mahler - Symphony No.4 (Ivan Fischer) Fast Download via Rapidshare Hotfile Fileserve Filesonic Megaupload, Mahler - Symphony No.4 (Ivan Fischer) Torrents and Emule Download or anything related.
Leave a Comment
Your Name:
E-Mail:
Add Comments:

Enter Code: