Geordie - Hope You Like It (1973) [1990, Reissue]

Download Now

Geordie - Hope You Like It (1973) [1990, Reissue]

Geordie - Hope You Like It (1973/1990)
EAC Rip | FLAC (Img) + Cue + Log ~ 334 Mb | MP3 CBR320 ~ 140 Mb
Scans Included (JPG, 300 dpi) | RAR 5% Recovery
Glam Rock, Hard Rock | Repertoire Records #RR 4033-C

"The Newcastle quartet's debut album followed hard on the heels of two superlative hit singles. Beyond a passing affection for a Slade-style stomp, "Don't Do That" and "All Because of You" have little in common with the then-prevalent glam sound, but still their pounding hard rock ethos slipped effortlessly into the mood of the day, to portray Geordie as the unabashed hard rockers that even the teenies could enjoy. (Nazareth pulled off a similar coup around the same time.) Following in those same stack-heeled footsteps, Hope You Like It makes few concessions to the band's newfound fame, a raw and raucous slam through 11 songs that only let the bombast slip when they fall into the closing clown time of the traditional "Geordie's Lost His Liggie," a mad singalong that is absolutely captivating."

Wiki | Discogs | All Music
***************

Geordie - Hope You Like It (1973) [1990, Reissue]

Track List:

01. Keep On Rockin' [03:22]
02. Give You Till Monday [04:01]
03. Hope You Like It [03:42]
04. Don't Do That [03:14]
05. All Because Of You [02:52]
06. Old Time Rocker [03:25]
07. Oh Lord [05:11]
08. Natural Born Looser [04:16]
09. Strange Man [03:33]
10. Ain't It Just Like A Woman [03:58]
11. Geordie's Lost His Liggie [03:39]

Bonus tracks:

12. Can You Do It [03:17]
13. Electric Lady [03:02]
14. Geordie Stomp [02:48]
15. Black Cat Woman [03:19]

Exact Audio Copy V1.0 beta 4 from 7. December 2014

Отчёт EAC об извлечении, выполненном 3. июля 2015, 20:12

Geordie / Hope You Like It

Дисковод: ASUS DRW-24F1ST a Adapter: 1 ID: 0

Режим чтения : Достоверность
Использование точного потока : Да
Отключение кэша аудио : Да
Использование указателей C2 : Нет

Коррекция смещения при чтении : 6
Способность читать области Lead-in и Lead-out : Нет
Заполнение пропущенных сэмплов тишиной : Да
Удаление блоков с тишиной в начале и конце : Нет
При вычислениях CRC использовались нулевые сэмплы : Да
Интерфейс : Встроенный Win32-интерфейс для Win NT/2000

Выходной формат : Пользовательский кодировщик
Выбранный битрейт : 128 kBit/s
Качество : Высокий
Добавление ID3-тега : Нет
Утилита сжатия : C:\Program Files\Exact Audio Copy\Flac\flac.exe
Дополнительные параметры : -V -8 -T "Date=%year%" -T "Genre=%genre%" %source%

TOC извлечённого CD Трек | Старт | Длительность | Начальный сектор | Конечный сектор

1 | 0:00.00 | 3:21.55 | 0 | 15129
2 | 3:21.55 | 4:00.05 | 15130 | 33134
3 | 7:21.60 | 3:41.50 | 33135 | 49759
4 | 11:03.35 | 3:13.45 | 49760 | 64279
5 | 14:17.05 | 2:51.40 | 64280 | 77144
6 | 17:08.45 | 3:24.40 | 77145 | 92484
7 | 20:33.10 | 5:10.35 | 92485 | 115769
8 | 25:43.45 | 4:15.50 | 115770 | 134944
9 | 29:59.20 | 3:32.05 | 134945 | 150849
10 | 33:31.25 | 3:58.00 | 150850 | 168699
11 | 37:29.25 | 3:39.00 | 168700 | 185124
12 | 41:08.25 | 3:16.02 | 185125 | 199826
13 | 44:24.27 | 3:01.08 | 199827 | 213409
14 | 47:25.35 | 2:47.22 | 213410 | 225956
15 | 50:12.57 | 3:18.40 | 225957 | 240846

Характеристики диапазона извлечения и сообщения об ошибках

Выбранный диапазон Имя файла C:\Users\Erik\Desktop\Geordie - Hope You Like It.wav Пиковый уровень 97.1 %
Скорость извлечения 2.8 X
Качество диапазона 100.0 %
CRC теста 2BEC0B1C
CRC копии 2BEC0B1C
Копирование... OK

Ошибок не произошло


AccurateRip: сводка

Трек 1 : извлечено точно (доверие 10) 72ED2D9 (AR v2)
Трек 2 : извлечено точно (доверие 10) [35311C37] (AR v2)
Трек 3 : извлечено точно (доверие 10) [FFEF3A05] (AR v2)
Трек 4 : извлечено точно (доверие 10) [A34C028B] (AR v2)
Трек 5 : извлечено точно (доверие 10) [27892A32] (AR v2)
Трек 6 : извлечено точно (доверие 10) [6DD811A0] (AR v2)
Трек 7 : извлечено точно (доверие 10) [733A419F] (AR v2)
Трек 8 : извлечено точно (доверие 10) [A55D4B27] (AR v2)
Трек 9 : извлечено точно (доверие 10) [65385CD3] (AR v2)
Трек 10 : извлечено точно (доверие 10) [32A63BF8] (AR v2)
Трек 11 : извлечено точно (доверие 10) [D589FDED] (AR v2)
Трек 12 : извлечено точно (доверие 10) [8A253B91] (AR v2)
Трек 13 : извлечено точно (доверие 10) [44D5B04A] (AR v2)
Трек 14 : извлечено точно (доверие 10) [769E70FB] (AR v2)
Трек 15 : извлечено точно (доверие 9) [245DCA5D] (AR v2)

Все треки извлечены точно

Конец отчёта

- CUETools DB Plugin V2.1.4

[CTDB TOCID: vQmdkr4XSRXi53XfcQKYqwvEpNg-] found
Submit result: vQmdkr4XSRXi53XfcQKYqwvEpNg- has been confirmed
Track | CTDB Status
1 | (10/10) Accurately ripped
2 | (10/10) Accurately ripped
3 | (10/10) Accurately ripped
4 | (10/10) Accurately ripped
5 | (10/10) Accurately ripped
6 | (10/10) Accurately ripped
7 | (10/10) Accurately ripped
8 | (10/10) Accurately ripped
9 | (10/10) Accurately ripped
10 | (10/10) Accurately ripped
11 | (10/10) Accurately ripped
12 | (10/10) Accurately ripped
13 | (10/10) Accurately ripped
14 | (10/10) Accurately ripped
15 | (10/10) Accurately ripped

foobar2000 1.2.6 / Dynamic Range Meter 1.1.1
log date: 2015-09-17 13:33:16

Analyzed: Geordie / Hope You Like It

DR Peak RMS Duration Track

DR12 -1.25 dB -15.46 dB 3:22 01-Keep On Rockin'
DR11 -2.84 dB -15.98 dB 4:00 02-Give You Till Monday
DR12 -1.70 dB -16.87 dB 3:42 03-Hope You Like It
DR11 -2.59 dB -15.68 dB 3:14 04-Don't Do That
DR12 -2.56 dB -17.15 dB 2:52 05-All Because Of You
DR13 -1.27 dB -15.64 dB 3:25 06-Old Time Rocker
DR11 -2.58 dB -17.39 dB 5:10 07-Oh Lord
DR13 -1.00 dB -16.27 dB 4:16 08-Natural Born Looser
DR12 -0.82 dB -15.49 dB 3:32 09-Strange Man
DR13 -0.25 dB -15.53 dB 3:58 10-Ain't It Just Like A Woman
DR12 -1.60 dB -16.37 dB 3:39 11-Geordie's Lost His Liggie
DR13 -1.85 dB -16.16 dB 3:16 12-Can You Do It
DR11 -2.85 dB -16.15 dB 3:01 13-Electric Lady
DR12 -0.77 dB -15.81 dB 2:47 14-Geordie Stomp
DR11 -2.21 dB -15.47 dB 3:19 15-Black Cat Woman

Number of tracks: 15
Official DR value: DR12

Samplerate: 44100 Hz
Channels: 2
Bits per sample: 16
Bitrate: 804 kbps
Codec: FLAC

[CUETools log; Date: 17.09.2015 13:33:00; Version: 2.1.5]
[CTDB TOCID: vQmdkr4XSRXi53XfcQKYqwvEpNg-] found.
Track | CTDB Status
1 | (12/12) Accurately ripped
2 | (12/12) Accurately ripped
3 | (12/12) Accurately ripped
4 | (12/12) Accurately ripped
5 | (12/12) Accurately ripped
6 | (12/12) Accurately ripped
7 | (12/12) Accurately ripped
8 | (12/12) Accurately ripped
9 | (12/12) Accurately ripped
10 | (12/12) Accurately ripped
11 | (12/12) Accurately ripped
12 | (12/12) Accurately ripped
13 | (12/12) Accurately ripped
14 | (12/12) Accurately ripped
15 | (12/12) Accurately ripped
[AccurateRip ID: 001e0506-0154807e-af0c8b0f] found.
Track [ CRC | V2 ] Status
01 [07a55619|b72ed2d9] (08+11/21) Accurately ripped
02 [ecc25ec5|35311c37] (08+11/21) Accurately ripped
03 [dc541a25|ffef3a05] (08+11/21) Accurately ripped
04 [0492e39c|a34c028b] (08+11/21) Accurately ripped
05 d59b453|27892a32 (08+11/21) Accurately ripped
06 [04a7b020|6dd811a0] (09+11/22) Accurately ripped
07 [efa20e2c|733a419f] (09+11/22) Accurately ripped
08 [95da0db1|a55d4b27] (09+11/22) Accurately ripped
09 [9bf432d3|65385cd3] (09+11/22) Accurately ripped
10 [32b008a6|32a63bf8] (09+11/22) Accurately ripped
11 [033b0b8d|d589fded] (09+11/22) Accurately ripped
12 [90d3c17e|8a253b91] (09+11/22) Accurately ripped
13 [390a69ef|44d5b04a] (09+11/22) Accurately ripped
14 [ca52e4f5|769e70fb] (09+11/22) Accurately ripped
15 [4aba0299|245dca5d] (09+10/21) Accurately ripped
Offsetted by -659:
01 [2c70e942] (02/21) Accurately ripped
02 [423741fe] (02/21) Accurately ripped
03 [f46a7d5e] (02/21) Accurately ripped
04 [009c3ff4] (02/21) Accurately ripped
05 [d37d39f5] (02/21) Accurately ripped
06 [ceda9ba5] (02/22) Accurately ripped
07 [5956249b] (02/22) Accurately ripped
08 [f18e60ce] (02/22) Accurately ripped
09 [034175b2] (02/22) Accurately ripped
10 [a6ff9d62] (02/22) Accurately ripped
11 [d08087bb] (02/22) Accurately ripped
12 [1de3b4f6] (02/22) Accurately ripped
13 [e57e94fb] (02/22) Accurately ripped
14 [c362821e] (02/22) Accurately ripped
15 [62647404] (02/21) Accurately ripped

Track Peak [ CRC32 ] [W/O NULL] [ LOG ]
-- 97,1 [2BEC0B1C] [0C32620E] CRC32
01 86,5 [29E547FB] [35AEBF55]
02 72,1 [915FD88E] [E2E664A5]
03 82,2 [063A22F6] [786738B7]
04 74,1 [536313F5] [3E27EED3]
05 74,4 [26886821] [75DF17B5]
06 86,4 [2CA5525C] [E8E37BE8]
07 74,3 [56223AD9] [7BAB9389]
08 89,1 [FFB452FF] [14328C4E]
09 91,0 [3A088AEF] [799CC692]
10 97,1 [876EB4A3] [64D77642]
11 83,1 [0F440500] [1F4BE602]
12 80,7 [C0094FB7] [85E558A0]
13 71,9 8592A44 [670ACD57]
14 91,4 [45DCCD27] [C2DFF538]
15 77,5 [D0B461A8] [C543DED5]

Geordie - Hope You Like It (1973) [1990, Reissue]

Geordie - Hope You Like It (1973) [1990, Reissue]

DOWNLOAD LINKS:
(Premium Recommended)


All above links are interchangable. No password
Direct Download

Tags: Geordie, Reissue

Geordie - Hope You Like It (1973) [1990, Reissue] Download via Hotfile Rapidshare Fileserve Megaupload & FileSonic, Geordie - Hope You Like It (1973) [1990, Reissue] free torrent downloads included crack, serial, keygen.Geordie - Hope You Like It (1973) [1990, Reissue] Fast Download via Rapidshare Hotfile Fileserve Filesonic Megaupload, Geordie - Hope You Like It (1973) [1990, Reissue] Torrents and Emule Download or anything related.
Leave a Comment
Your Name:
E-Mail:
Add Comments:

Enter Code: