Narada Michael Walden - Confidence (1982) {Warner Japan}

Download Now

Narada Michael Walden - Confidence (1982) {Warner Japan}

Narada Michael Walden - Confidence (1982) {Warner Japan}
EAC 1.0b2 | FLAC tracks level 8 | Cue+Log+M3U | Full Scans 300dpi | 287MB + 5% Recovery
Genre: Funk, Soul

"Albums like this are why CD reissues exist and why Wounded Bird are so important. There are handfulls of classics from the jazz-funk-R&B world in the 70's and 80's that are definately lost classics and many with huge commercial potencial that never came close to getting it.Narada Michael Walden's 1982 date 'Confidance' is among them."

Track List
01. You're #1 5:41
02. Summer Lady 5:18
03. I'm Ready 4:20
04. Safe In My Arms 4:17
05. Confidence 4:00
06. Holiday 4:30
07. You Ought To Love Me 5:07
08. Blue Side Of Midnight 6:56

musicians
Narada Michael Walden - drums, percussion, piano, background vocals
Randy Brecker - trumpet
David Sanborn - alto sax
Wayne Shorter - soprano sax
Bob Mintzer - tenor sax
Ernie Watts - tenor sax
Marc Russo - alto sax
Corrado Rustici - guitar
Jerry Hey - trumpet
Chuck Findley - trumpet
John Barnes - bass synth
Frank Martin - guitar
Joe Bob - guitar

Produced by Narada Michael Walden

Exact Audio Copy V1.0 beta 2 from 29. April 2011

EAC extraction logfile from 17. January 2014, 20:00

Narada Michael Walden / Confidence

Used drive : Optiarc DVD RW AD-7260S Adapter: 3 ID: 0

Read mode : Secure
Utilize accurate stream : Yes
Defeat audio cache : Yes
Make use of C2 pointers : No

Read offset correction

: 48
Overread into Lead-In and Lead-Out : No
Fill up missing offset samples with silence : Yes
Delete leading and trailing silent blocks : No
Null samples used in CRC calculations : Yes
Used interface
: Native Win32 interface for Win NT & 2000
Gap handling
: Appended to previous track

Used output format : User Defined Encoder
Selected bitrate : 768 kBit/s
Quality : High
Add ID3 tag : No
Command line compressor : D:\Program Files\Exact Audio Copy1.0\FLAC\FLAC.EXE
Additional command line options : -8 -V -T "ARTIST=%artist%" -T "TITLE=%title%" -T "ALBUM=%albumtitle%" -T "DATE=%year%" -T "TRACKNUMBER=%tracknr%" -T "GENRE=%genre%" -T "PERFORMER=%albuminterpret%" -T "COMPOSER=%composer%" %haslyrics%--tag-from-file=LYRICS

TOC of the extracted CD Track | Start | Length | Start sector | End sector
--1 | 0:00.00 | 5:41.15 | 0 | 25589 2 | 5:41.15 | 5:17.53 | 25590 | 49417 3 | 10:58.68 | 4:19.55 | 49418 | 68897 4 | 15:18.48 | 4:16.49 | 68898 | 88146 5 | 19:35.22 | 4:00.17 | 88147 | 106163 6 | 23:35.39 | 4:29.45 | 106164 | 126383 7 | 28:05.09 | 5:07.14 | 126384 | 149422 8 | 33:12.23 | 6:56.31 | 149423 | 180653

Track 1 Filename E:\EAC\Narada Michael Walden - Confidence - (1982) (2012 Remastered Japanese Reissue) - FLAC\01 - You're #1.wav Pre-gap length 0:00:02.00 Peak level 96.5 %
Extraction speed 2.4 X
Track quality 100.0 %
Test CRC 36D3DCB3
Copy CRC 36D3DCB3
Cannot be verified as accurate (confidence 3) [391EEFC6], AccurateRip returned [D1DE9A12] (AR v2)
Copy OK

Track 2 Filename E:\EAC\Narada Michael Walden - Confidence - (1982) (2012 Remastered Japanese Reissue) - FLAC\02 - Summer Lady.wav Pre-gap length 0:00:02.00 Peak level 96.5 %
Extraction speed 2.5 X
Track quality 99.9 %
Test CRC 942FD7E9
Copy CRC 942FD7E9
Cannot be verified as accurate (confidence 3) [519F319C], AccurateRip returned [7D3F225A] (AR v2)
Copy OK

Track 3 Filename E:\EAC\Narada Michael Walden - Confidence - (1982) (2012 Remastered Japanese Reissue) - FLAC\03 - I'm Ready.wav Pre-gap length 0:00:02.00 Peak level 96.5 %
Extraction speed 3.0 X
Track quality 100.0 %
Test CRC 334816E1
Copy CRC 334816E1
Cannot be verified as accurate (confidence 3) [78B7DAC7], AccurateRip returned [6A324450] (AR v2)
Copy OK

Track 4 Filename E:\EAC\Narada Michael Walden - Confidence - (1982) (2012 Remastered Japanese Reissue) - FLAC\04 - Safe In My Arms.wav Pre-gap length 0:00:02.00 Peak level 96.5 %
Extraction speed 2.8 X
Track quality 99.9 %
Test CRC 4EC8FA86
Copy CRC 4EC8FA86
Cannot be verified as accurate (confidence 3) 045D49C, AccurateRip returned [6D800BCC] (AR v2)
Copy OK

Track 5 Filename E:\EAC\Narada Michael Walden - Confidence - (1982) (2012 Remastered Japanese Reissue) - FLAC\05 - Confidence.wav Pre-gap length 0:00:02.00 Peak level 96.5 %
Extraction speed 3.3 X
Track quality 100.0 %
Test CRC AD353AD5
Copy CRC AD353AD5
Cannot be verified as accurate (confidence 3) [A14D2435], AccurateRip returned [356EE061] (AR v2)
Copy OK

Track 6 Filename E:\EAC\Narada Michael Walden - Confidence - (1982) (2012 Remastered Japanese Reissue) - FLAC\06 - Holiday.wav Pre-gap length 0:00:02.00 Peak level 96.4 %
Extraction speed 3.2 X
Track quality 99.9 %
Test CRC A3179EB1
Copy CRC A3179EB1
Cannot be verified as accurate (confidence 3) [686F9F1F], AccurateRip returned [14F54BB8] (AR v2)
Copy OK

Track 7 Filename E:\EAC\Narada Michael Walden - Confidence - (1982) (2012 Remastered Japanese Reissue) - FLAC\07 - You Ought To Love Me.wav Pre-gap length 0:00:02.00 Peak level 96.5 %
Extraction speed 3.8 X
Track quality 100.0 %
Test CRC 37ACBE0E
Copy CRC 37ACBE0E
Cannot be verified as accurate (confidence 3) [C3CF15F1], AccurateRip returned [6E59FF2A] (AR v2)
Copy OK

Track 8 Filename E:\EAC\Narada Michael Walden - Confidence - (1982) (2012 Remastered Japanese Reissue) - FLAC\08 - Blue Side Of Midnight.wav Pre-gap length 0:00:02.00 Peak level 96.5 %
Extraction speed 4.2 X
Track quality 100.0 %
Test CRC AAC9AAAB
Copy CRC AAC9AAAB
Cannot be verified as accurate (confidence 3) [03A5536A], AccurateRip returned [DBCBADB6] (AR v2)
Copy OK

No tracks could be verified as accurate
You may have a different pressing from the one(s) in the database

No errors occurred

End of status report

==== Log checksum 170880A7D91370E32393AA70C69C050034BB256D00FA44053656491A5B07203F ====

Analyzed: Narada Michael Walden / Confidence

DR Peak RMS Duration Track

DR10 -0.31 dB -12.27 dB 5:41 01-You're #1
DR11 -0.31 dB -12.21 dB 5:18 02-Summer Lady
DR10 -0.31 dB -12.57 dB 4:20 03-I'm Ready
DR8 -0.31 dB -11.32 dB 4:17 04-Safe In My Arms
DR11 -0.31 dB -12.42 dB 4:00 05-Confidence
DR9 -0.31 dB -11.08 dB 4:30 06-Holiday
DR12 -0.31 dB -13.25 dB 5:07 07-You Ought To Love Me
DR9 -0.31 dB -11.72 dB 6:56 08-Blue Side Of Midnight

Number of tracks: 8
Official DR value: DR10

Samplerate: 44100 Hz
Channels: 2
Bits per sample: 16
Bitrate: 925 kbps
Codec: FLAC

Narada Michael Walden - Confidence (1982) {Warner Japan}

Narada Michael Walden - Confidence (1982) {Warner Japan}

Narada Michael Walden - Confidence (1982) {Warner Japan}

Rip by james77


DOWNLOAD LINKS:


No Password
Direct Download

Tags: Narada, Michael, Walden, Confidence, Warner

Narada Michael Walden - Confidence (1982) {Warner Japan} Download via Hotfile Rapidshare Fileserve Megaupload & FileSonic, Narada Michael Walden - Confidence (1982) {Warner Japan} free torrent downloads included crack, serial, keygen.Narada Michael Walden - Confidence (1982) {Warner Japan} Fast Download via Rapidshare Hotfile Fileserve Filesonic Megaupload, Narada Michael Walden - Confidence (1982) {Warner Japan} Torrents and Emule Download or anything related.
Leave a Comment
Your Name:
E-Mail:
Add Comments:

Enter Code: