The Let's Go's - Reamp! (2011) RESTORED

Download Now


The Let's Go's - Reamp! (2011) RESTORED
The Let's Go's - Reamp! (2011)
FLAC+CUE+LOG or MP3 CBR 320 | Complete Scanwork | 401 or 121 MB

The Let's Go's are Japanese all-girl garage rock band. They are play together from 2006. Their music very inspired by the 50's Rock & Roll and 60's Girl Groups, as well another Japanese super-group, Shonen Knife. "Reamp!" is the band second (and more electric) full-length album...
Tracklist:

01. ロックンロールスター
02. NY
03. 森の猫
04. Mister Baby
05. Banana Shake
06. Don't Let Me Cry
07. D.B.D.G.
08. Mirrorball
09. Magic
10. ベートーベンだね Rock 'N' Roll
11. Too Much Moon
12. Danny My Love
13. Go! Let's Go's, Go!

Exact Audio Copy V1.0 beta 1 from 15. November 2010

EAC extraction logfile from 29. June 2014, 1:53

The Let's Go's / Reamp!

Used drive : PIONEER DVD-RW DVR-219L Adapter: 5 ID: 0

Read mode : Secure
Utilize accurate stream : Yes
Defeat audio cache : Yes
Make use of C2 pointers : No

Read offset correction

: 6
Overread into Lead-In and Lead-Out : No
Fill up missing offset samples with silence : Yes
Delete leading and trailing silent blocks : No
Null samples used in CRC calculations : Yes
Used interface
: Installed external ASPI interface

Used output format : Internal WAV Routines
Sample format : 44.100 Hz; 16 Bit; Stereo

TOC of the extracted CD Track | Start | Length | Start sector | End sector
--1 | 0:00.00 | 4:04.71 | 0 | 18370 2 | 4:04.71 | 3:12.71 | 18371 | 32841 3 | 7:17.67 | 3:00.04 | 32842 | 46345 4 | 10:17.71 | 3:50.09 | 46346 | 63604 5 | 14:08.05 | 2:44.01 | 63605 | 75905 6 | 16:52.06 | 2:37.02 | 75906 | 87682 7 | 19:29.08 | 3:40.23 | 87683 | 104205 8 | 23:09.31 | 4:05.46 | 104206 | 122626 9 | 27:15.02 | 3:26.12 | 122627 | 138088
10 | 30:41.14 | 2:38.23 | 138089 | 149961
11 | 33:19.37 | 4:32.20 | 149962 | 170381
12 | 37:51.57 | 2:15.59 | 170382 | 180565
13 | 40:07.41 | 1:53.38 | 180566 | 189078

Range status and errors

Selected range Filename G:\_AvaxHome__Rehabilly\The Let's Go's - Reamp! (2011)\The Let's Go's - Reamp (XQGX-1008).wav Peak level 99.3 %
Extraction speed 0.2 X
Range quality 99.9 %
Test CRC 0861B2DE
Copy CRC 0861B2DE
Copy OK

No errors occurred


AccurateRip summary

Track 1 accurately ripped (confidence 2) [2E910F08]
Track 2 accurately ripped (confidence 2) [2B156A17]
Track 3 accurately ripped (confidence 2) [C6D11A0E]
Track 4 accurately ripped (confidence 2) [452CEC7D]
Track 5 accurately ripped (confidence 2) [F4FEF6EB]
Track 6 accurately ripped (confidence 2) [03FF9A1B]
Track 7 accurately ripped (confidence 2) 25F8C93
Track 8 accurately ripped (confidence 2) [C0FFD485]
Track 9 accurately ripped (confidence 2) [47CF5BFD]
Track 10 accurately ripped (confidence 2) [63B7709E]
Track 11 accurately ripped (confidence 2) [331E7B70]
Track 12 accurately ripped (confidence 2) [2B05C1F4]
Track 13 accurately ripped (confidence 2) [84CAB2B6]

All tracks accurately ripped

End of status report

==== Log checksum A5AE94E57DF059AEC69BC007EDBE660A36657723AC9DEDB95A0D51558343038A ====

Produced by The Let's Go's
For more info - read the booklet.

* Coco - vocals, guitar, keys
* Mie - vocals, bass
* 山田モエコフ - vocals, drums

Release Date: May 18, 2011
Label: Sazanami Label, Japan
Catalog No.: XQGX-1008 (SZNM-1040)
DOWNLOAD LINKS
Buy Premium From My Links To Get Resumable Support & Max Speed & To Support Me


Links are Interchangeable - No Password - Single Extraction
Direct Download

Tags: RESTORED

The Let's Go's - Reamp! (2011) RESTORED Download via Hotfile Rapidshare Fileserve Megaupload & FileSonic, The Let's Go's - Reamp! (2011) RESTORED free torrent downloads included crack, serial, keygen.The Let's Go's - Reamp! (2011) RESTORED Fast Download via Rapidshare Hotfile Fileserve Filesonic Megaupload, The Let's Go's - Reamp! (2011) RESTORED Torrents and Emule Download or anything related.
Leave a Comment
Your Name:
E-Mail:
Add Comments:

Enter Code: