John Mellencamp - Plain Spoken (2014)

Download Now

John Mellencamp - Plain Spoken (2014)

John Mellencamp - Plain Spoken (2014)
EAC | FLAC | Image (Cue&Log) ~ 265 Mb (incl 5%) | Mp3 (CBR320) ~ 105 Mb (incl 5%) | Scans ~ 79 Mb
Genre: Americana, Folk Rock, Heartland Rock | Label: Republic Records | # B0021723-02 | Time: 00:43:43

"Plain Spoken is the first album from the Rock and Roll Hall of Famer since 2010 s critically acclaimed, No Better Than This which landed in the Top 10 of Billboard s Top 200 during release week and garnered the honor of becoming one of Rolling Stone s Best Albums of 2010. Grammy winning musician John Mellencamp has touched the heart and souls of music listeners and influenced American Culture with enduring songs, he is also one of the most successful live concert performers in the world. A man with a conscience, he used his visibility and influence to advocate an issue that hit close to home and became one of the founding members of Farm Aid, an organization that began in 1985 to raise awareness about the loss of family farm. The Farm Aid concerts have raised over $45 million to promote a resilient family farm system of agriculture."

"This is arguably John Mellencamp's best album since his '80s heyday. It's basically an extension of the back porch folkiness of a song like Jackie Brown, or a song like Human Wheels with the drums and guitars turned down. You sense his heart is in this work. He's written one of his best batches of songs in a very long time. And, unlike a few of his recent albums, this one successfully cuts the difference between a certain simple audio verite and just enough adornment to best bring the songs to life. (To elaborate on that last point: His last few albums have all been in a more mature style, but in my opinion, they've been a bit studied and claustrophobic in their approach. This album is freed from any particular audio concept and is the better for it. I also think the songs here are, on the whole, stronger.)

Ultimately, there's a lot of simplicity here: John, mostly acoustic instruments, and few production tricks. You could imagine that John could sound exactly like this if he were playing on your back porch with a few of his friends. Plain Spoken is an apt title. (The one exception is the last track, Lawless Times, a bluesy toss off).

If, like a lot of people, you were a big fan of Mellencamp but lost interest when John seemed to lose focus, this might be the right moment, the right album, to get back on the bus. He's older, he's quieter, and he sings with a bit more gravel, but so, presumably, do those things apply to all of us.

This is Mellencamp more mature, but no less impressive than the Kid who kicked it up about Little Pink Houses way back when. He doesn't really rock here, but he's present and engaged and engaging. And that rocks a lot more.

Highly recommended.

Review by David Pearlman, Amazon.com
"


"If ever there were a prototypical John Mellencamp title, it's Plain Spoken. Mellencamp has long striven for direct, forthright communication, so the title suits his overall aesthetic as well as this album in specific. His first album underneath a "lifetime" recording contract for Republic Records -- a deal that effectively amounts to his return to the Universal group -- this is also his first record since 2007's Freedom's Road not to be produced by T-Bone Burnett, but that titan of Americana has certainly left an imprint on the singer/songwriter. Like many Burnett productions, this trades in hushed authentic acoustica, but where Burnett often indulges aural impressionism -- or, in the case of 2010's No Better Than This, such quasi-stunts as mono mixes -- Mellencamp opts to revert to a streamlined version of the wide-ranging Heartland Rock of The Lonesome Jubilee. There are echoes of this 1987 masterwork on Plain Spoken but only in the sense that's where Mellencamp first delved into acoustic folk and country. Twenty seven years later, he's an older man in every sense: his voice sounds ravaged by cigarettes, he doesn't bother rocking at all (although he does play a bit of blues on "Lawless Times," a subdued shuffle that offers a welcome tonal tonic at the close), and he feels battered down by the passage of time. He's mourning the end of his marriage, he's pondering mortality, he's sour at the politicians and the bankers, and he's not so sure he has much to offer anybody else, either. If his bitterness is unavoidable in the lyrics or in his voice, his music softens his bite, turning these tunes into melancholy laments instead of invective, so there winds up being a bit of a needed cushion to Mellencamp's straight talk on Plain Spoken.

Review by Stephen Thomas Erlewine, Allmusic.com
"




Tracklist:

01. Troubled Man (04:14)
02. Sometimes There's God (04:34)
03. The Isolation Of Mister (05:34)
04. The Company Of Cowards (03:52)
05. Tears In Vain (03:53)
06. The Brass Ring (05:37)
07. Freedom Of Speech (03:52)
08. Blue Charlotte (04:40)
09. The Courtesy Of Kings (03:33)
10. Lawless Times (03:51)


Exact Audio Copy V1.0 beta 3 from 29. August 2011

Отчёт EAC об извлечении, выполненном 21. октября 2014, 20:59

John Mellencamp / Plain Spoken

Дисковод: PLEXTOR DVDR PX-891SA Adapter: 6 ID: 0

Режим чтения : Достоверность
Использование точного потока : Да
Отключение кэша аудио : Да
Использование указателей C2 : Нет

Коррекция смещения при чтении : 6
Способность читать области Lead-in и Lead-out : Нет
Заполнение пропущенных сэмплов тишиной : Да
Удаление блоков с тишиной в начале и конце : Нет
При вычислениях CRC использовались нулевые сэмплы : Да
Интерфейс : Встроенный Win32-интерфейс для Win NT/2000

Выходной формат : Пользовательский кодировщик
Выбранный битрейт : 768 kBit/s
Качество : Высокий
Добавление ID3-тега : Нет
Утилита сжатия : C:\Program Files\Exact Audio Copy\FLAC\FLAC.EXE
Дополнительные параметры : -6 -V -T "ARTIST=%artist%" -T "TITLE=%title%" -T "ALBUM=%albumtitle%" -T "DATE=%year%" -T "TRACKNUMBER=%tracknr%" -T "GENRE=%genre%" -T "COMMENT=%comment%" -T "BAND=%albuminterpret%" -T "ALBUMARTIST=%albuminterpret%" -T "COMPOSER=%composer%" %haslyrics%--tag-from-file=LYRICS="%lyricsfile%"%haslyrics% -T "DISCNUMBER=%cdnumber%" -T "TOTALDISCS=%totalcds%" -T "TOTALTRACKS=%numtracks%" %hascover%--picture="%coverfile%"%hascover% %source% -o %dest%

TOC извлечённого CD Трек | Старт | Длительность | Начальный сектор | Конечный сектор

1 | 0:00.00 | 4:14.28 | 0 | 19077
2 | 4:14.28 | 4:34.36 | 19078 | 39663
3 | 8:48.64 | 5:34.66 | 39664 | 64779
4 | 14:23.55 | 3:52.05 | 64780 | 82184
5 | 18:15.60 | 3:53.14 | 82185 | 99673
6 | 22:08.74 | 5:37.11 | 99674 | 124959
7 | 27:46.10 | 3:52.46 | 124960 | 142405
8 | 31:38.56 | 4:40.07 | 142406 | 163412
9 | 36:18.63 | 3:33.04 | 163413 | 179391
10 | 39:51.67 | 3:51.49 | 179392 | 196765

Характеристики диапазона извлечения и сообщения об ошибках

Выбранный диапазон Имя файла C:\Users\Евгений\Desktop\John Mellencamp - Plain Spoken - 2014 - 43'45''\John Mellencamp - Plain Spoken.wav Пиковый уровень 100.0 %
Скорость извлечения 3.2 X
Качество диапазона 100.0 %
CRC теста 2B673FE4
CRC копии 2B673FE4
Копирование... OK

Ошибок не произошло

Конец отчёта

- CUETools DB Plugin V2.1.3

[CTDB TOCID: bP5ERxsk8fjLRzx1s1MIjUB.w5c-] found, Submit result: bP5ERxsk8fjLRzx1s1MIjUB.w5c- has been confirmed
[422bdba2] (9/9) Accurately ripped

[CUETools log; Date: 19.09.2015 19:39:27; Version: 2.1.4]
[CTDB TOCID: bP5ERxsk8fjLRzx1s1MIjUB.w5c-] found.
Track | CTDB Status
1 | (85/85) Accurately ripped
2 | (85/85) Accurately ripped
3 | (85/85) Accurately ripped
4 | (85/85) Accurately ripped
5 | (85/85) Accurately ripped
6 | (85/85) Accurately ripped
7 | (85/85) Accurately ripped
8 | (85/85) Accurately ripped
9 | (85/85) Accurately ripped
10 | (85/85) Accurately ripped
[AccurateRip ID: 0010f8fe-008751ad-7d0a3f0a] found.
Track [ CRC | V2 ] Status
01 [4c3ea5d6|9f9f9582] (00+00/78) No match
02 [6e8c18ed|fc50402b] (00+00/78) No match
03 [dfe9fc25|e6a1bc16] (00+00/78) No match
04 [3e471db7|bdde9412] (00+00/78) No match
05 [0b5d706d|91923c28] (00+00/78) No match
06 [0edd897c|5952c20c] (00+00/78) No match
07 [49c27395|85b647c2] (00+00/78) No match
08 [eb9a388a|ffdee98d] (00+00/78) No match
09 [87128f5d|e953f01e] (00+00/78) No match
10 [5b88a2ff|ae10121c] (00+00/78) No match
Offsetted by 6:
01 [0c481045] (03/78) Accurately ripped
02 [5d442841] (03/78) Accurately ripped
03 [f56afba7] (03/78) Accurately ripped
04 [dcfa1cc7] (03/78) Accurately ripped
05 [ec21f1cb] (03/78) Accurately ripped
06 [2c756e5d] (03/78) Accurately ripped
07 [5d955454] (03/78) Accurately ripped
08 [76853690] (03/78) Accurately ripped
09 [0179471b] (03/78) Accurately ripped
10 [ef658d6b] (03/78) Accurately ripped
Offsetted by -640:
01 [3375a6f9] (00/78) No match (V2 was not tested)
02 [785f20ad] (00/78) No match (V2 was not tested)
03 212edb6 (00/78) No match (V2 was not tested)
04 16e477a (00/78) No match (V2 was not tested)
05 [2a2a9898] (00/78) No match (V2 was not tested)
06 [96c60cf9] (00/78) No match (V2 was not tested)
07 [10e48906] (00/78) No match (V2 was not tested)
08 [11934f5d] (00/78) No match (V2 was not tested)
09 [1c6a864d] (00/78) No match (V2 was not tested)
10 [70834653] (00/78) No match (V2 was not tested)

Track Peak [ CRC32 ] [W/O NULL] [ LOG ]
-- 100,0 [2B673FE4] 7E67A12 CRC32
01 100,0 [3E1CA8FC] [2EEB245D]
02 100,0 [6CC23235] [778AE6A0]
03 99,1 [F4BE8F2E] [6CE3D157]
04 100,0 [27A8E22D] [18363BBF]
05 99,6 [53016D0E] [362AF2BB]
06 100,0 [E3DCF1CC] [45C2F087]
07 98,3 [6BB017FF] [CB2B318B]
08 99,1 [DF1C631D] 40B6AF2
09 100,0 EC1788A [30E88B26]
10 100,0 [8531A492] [EF8AC610]

foobar2000 1.2 / Dynamic Range Meter 1.1.1
log date: 2015-09-19 18:20:36

Analyzed: John Mellencamp / Plain Spoken

DR Peak RMS Duration Track

DR10 0.00 dB -12.01 dB 4:14 01-Troubled Man
DR8 0.00 dB -10.24 dB 4:34 02-Sometimes There's God
DR9 -0.07 dB -10.46 dB 5:35 03-The Isolation Of Mister
DR9 0.00 dB -10.97 dB 3:52 04-The Company Of Cowards
DR10 -0.03 dB -11.20 dB 3:53 05-Tears In Vain
DR10 0.00 dB -11.99 dB 5:37 06-The Brass Ring
DR11 -0.14 dB -13.10 dB 3:53 07-Freedom Of Speech
DR9 -0.08 dB -10.98 dB 4:40 08-Blue Charlotte
DR10 0.00 dB -11.75 dB 3:33 09-The Courtesy Of Kings
DR10 0.00 dB -12.18 dB 3:52 10-Lawless Times

Number of tracks: 10
Official DR value: DR10

Samplerate: 44100 Hz
Channels: 2
Bits per sample: 16
Bitrate: 806 kbps
Codec: FLAC

John Mellencamp - Plain Spoken (2014)

John Mellencamp - Plain Spoken (2014)

All thanks to original releaser - RedHotBlues
Password: designol

DOWNLOAD LINKS
Buy Premium From My Links To Get Resumable Support & Max Speed & To Support Me


Links are Interchangeable - No Password - Single Extraction
Direct Download

Tags: Mellencamp, Spoken

John Mellencamp - Plain Spoken (2014) Download via Hotfile Rapidshare Fileserve Megaupload & FileSonic, John Mellencamp - Plain Spoken (2014) free torrent downloads included crack, serial, keygen.John Mellencamp - Plain Spoken (2014) Fast Download via Rapidshare Hotfile Fileserve Filesonic Megaupload, John Mellencamp - Plain Spoken (2014) Torrents and Emule Download or anything related.
Leave a Comment
Your Name:
E-Mail:
Add Comments:

Enter Code: