The Allman Brothers Band - Brothers And Sisters (1973) [4x SHM-CD Super Deluxe Edition 2013] RE-UPPED

Download Now

The Allman Brothers Band - Brothers And Sisters (1973) [4x SHM-CD Super Deluxe Edition 2013] RE-UPPED

The Allman Brothers Band - Brothers And Sisters (1973) [Super Deluxe Edition 2013]
EAC Rips | 4x SHM-CD | FLAC+CUE+LOGs > 1,68 GB | Full Scans > 1 GB | MP3 CBR 320 Kbps > 565 MB
Southern Rock / Blues Rock / County Rock | TT > 247:37 minutes | Label: USM Japan | Cat # UICY-75633~6

Super deluxe edition of "Brothers And Sisters" release from The Allman Brothers Band. This Japanese edition exclusively features the high-fidelity SHM-CD format. Disc 1 includes original remastered album. Disc 2 includes outtakes from studio sessions. Disc 3 & 4 includes unreleased live tracks from a concert held at Winter Land in San Francisco. This set comes with a 36-page book and features soft packaging with 10 panels.
"Released a year after Eat a Peach, Brothers and Sisters shows off a leaner brand of musicianship, which, coupled with a pair of serious crowd-pleasers, "Ramblin' Man" and "Jessica," helped drive it to the top of the charts for a month and a half and to platinum record sales. This was the first album to feature the group's new lineup, with Chuck Leavell on keyboards and Lamar Williams on bass, as well as Dickey Betts' emergence as a singer alongside Gregg Allman. The tracks appear on the album in the order in which they were recorded, and the first three, up through "Ramblin' Man," feature Berry Oakley -- their sound is rock-hard and crisp. The subsequent songs with Williams have the bass buried in the mix, and an overall muddier sound. The interplay between Leavell and Betts is beautiful on some songs, and Betts' slide on "Pony Boy" is a dazzling showcase that surprised everybody. Despite its sales, Brothers and Sisters is not quite a classic album (although it was their best for the next 17 years), especially in the wake of the four that had appeared previously, but it served as a template for some killer stage performances, and it proved that the band could survive the deaths of two key members.

-- allmusic.com"

More info @ Wikipedia

Disc One: Original Album


01. Wasted Words
02. Ramblin' Man
03. Come And Go Blues
04. Jelly Jelly
05. Southbound
06. Jessica
07. Pony Boy

Exact Audio Copy V1.0 beta 3 from 29. August 2011

EAC extraction logfile from 18. August 2013, 11:17

The Allman Brothers Band / Brothers And Sisters CD1

Used drive : PLEXTOR BD-R PX-B950SA Adapter: 6 ID: 0

Read mode : Secure
Utilize accurate stream : Yes
Defeat audio cache : Yes
Make use of C2 pointers : No

Read offset correction

: 6
Overread into Lead-In and Lead-Out : No
Fill up missing offset samples with silence : Yes
Delete leading and trailing silent blocks : No
Null samples used in CRC calculations : Yes
Used interface
: Native Win32 interface for Win NT & 2000

Used output format : Internal WAV Routines
Sample format : 44.100 Hz; 16 Bit; Stereo

TOC of the extracted CD Track | Start | Length | Start sector | End sector
--1 | 0:00.00 | 4:20.48 | 0 | 19547 2 | 4:20.48 | 4:48.12 | 19548 | 41159 3 | 9:08.60 | 4:55.59 | 41160 | 63343 4 | 14:04.44 | 5:46.25 | 63344 | 89318 5 | 19:50.69 | 5:10.36 | 89319 | 112604 6 | 25:01.30 | 7:31.12 | 112605 | 146441 7 | 32:32.42 | 5:51.32 | 146442 | 172798

Range status and errors

Selected range Filename C:\Users\Meijin\Desktop\ALLexxess\The Allman Brothers Band\1973 Brothers And Sisters (4 SHM-CD Box Set Universal Japan 2013)\CD1\The Allman Brothers Band - Brothers And Sisters CD1.wav Peak level 100.0 %
Extraction speed 3.0 X
Range quality 100.0 %
Test CRC 4897E9F2
Copy CRC 4897E9F2
Copy OK

No errors occurred


AccurateRip summary

Track 1 accurately ripped (confidence 9) [9F15D17A] (AR v2)
Track 2 accurately ripped (confidence 9) [18A9CFDC] (AR v2)
Track 3 accurately ripped (confidence 9) E08B03A (AR v2)
Track 4 accurately ripped (confidence 9) [F353771F] (AR v2)
Track 5 accurately ripped (confidence 9) [288EB552] (AR v2)
Track 6 accurately ripped (confidence 9) [5E315655] (AR v2)
Track 7 accurately ripped (confidence 9) [89DBDBFE] (AR v2)

All tracks accurately ripped

End of status report

==== Log checksum B06822CF4205F72DF1A2E6311DFC0BCC375DEE3FFDF009F299FF6578AE53BD0E ====

Disc Two: Rehearsals, Jams & Outtakes

01. Wasted Words (Rehearsal)
02. Trouble No More (Reheasal)
03. Southbound (Instrumental Outtake)
04. One Way Out (Rehearsal)
05. I'm Gonna Move To The Outskirts Of Town (Rehearsal)
06. Done Somebody Wrong (Rehearsal)
07. Double Cross (Outtake)
08. Early Morning Blues (Outtake)
09. A Minor Jam (Studio Jam)

Exact Audio Copy V1.0 beta 3 from 29. August 2011

EAC extraction logfile from 17. August 2013, 22:52

The Allman Brothers Band / Brothers And Sisters CD2

Used drive : PLEXTOR BD-R PX-B950SA Adapter: 6 ID: 0

Read mode : Secure
Utilize accurate stream : Yes
Defeat audio cache : Yes
Make use of C2 pointers : No

Read offset correction

: 6
Overread into Lead-In and Lead-Out : No
Fill up missing offset samples with silence : Yes
Delete leading and trailing silent blocks : No
Null samples used in CRC calculations : Yes
Used interface
: Native Win32 interface for Win NT & 2000

Used output format : Internal WAV Routines
Sample format : 44.100 Hz; 16 Bit; Stereo

TOC of the extracted CD Track | Start | Length | Start sector | End sector
--1 | 0:00.00 | 5:06.35 | 0 | 22984 2 | 5:06.35 | 3:58.07 | 22985 | 40841 3 | 9:04.42 | 5:56.60 | 40842 | 67601 4 | 15:01.27 | 5:38.10 | 67602 | 92961 5 | 20:39.37 | 11:14.32 | 92962 | 143543 6 | 31:53.69 | 3:50.40 | 143544 | 160833 7 | 35:44.34 | 4:35.47 | 160834 | 181505 8 | 40:20.06 | 9:27.25 | 181506 | 224055 9 | 49:47.31 | 16:29.28 | 224056 | 298258

Range status and errors

Selected range Filename C:\Users\Meijin\Desktop\ALLexxess\The Allman Brothers Band\1973 Brothers And Sisters (4 SHM-CD Box Set Universal Japan 2013)\CD2\The Allman Brothers Band - Brothers And Sisters CD2.wav Peak level 100.0 %
Extraction speed 3.8 X
Range quality 100.0 %
Test CRC 1CCDA778
Copy CRC 1CCDA778
Copy OK

No errors occurred


AccurateRip summary

Track 1 accurately ripped (confidence 10) [E514E4D5] (AR v2)
Track 2 accurately ripped (confidence 10) [8835CFE1] (AR v2)
Track 3 accurately ripped (confidence 10) [1B5EFA68] (AR v2)
Track 4 accurately ripped (confidence 10) [1BCABAA9] (AR v2)
Track 5 accurately ripped (confidence 10) [D36B8D1E] (AR v2)
Track 6 accurately ripped (confidence 10) [8727A1DF] (AR v2)
Track 7 accurately ripped (confidence 9) 1325000 (AR v2)
Track 8 accurately ripped (confidence 10) [1D2FFA20] (AR v2)
Track 9 accurately ripped (confidence 9) [7C464095] (AR v2)

All tracks accurately ripped

End of status report

==== Log checksum 537A673D57F3719ADFC5E90D582674714DEB7D413934B6677A182E9787D6C248 ====

Disc Three: Live At Winterland, September 26, 1973

01. Introduction By Bill Graham
02. Wasted Words
03. Done Somebody Wrong
04. One Way Out
05. Stormy Monday
06. Midnight Rider
07. Ramblin' Man
08. In Memory Of Elizabeth Reed
09. Statesboro Blues
10. Come And Go Blues

Exact Audio Copy V1.0 beta 3 from 29. August 2011

EAC extraction logfile from 18. August 2013, 10:11

The Allman Brothers Band / Brothers And Sisters CD3

Used drive : PLEXTOR BD-R PX-B950SA Adapter: 6 ID: 0

Read mode : Secure
Utilize accurate stream : Yes
Defeat audio cache : Yes
Make use of C2 pointers : No

Read offset correction

: 6
Overread into Lead-In and Lead-Out : No
Fill up missing offset samples with silence : Yes
Delete leading and trailing silent blocks : No
Null samples used in CRC calculations : Yes
Used interface
: Native Win32 interface for Win NT & 2000

Used output format : Internal WAV Routines
Sample format : 44.100 Hz; 16 Bit; Stereo

TOC of the extracted CD Track | Start | Length | Start sector | End sector
--1 | 0:00.00 | 1:23.62 | 0 | 6286 2 | 1:23.62 | 5:17.03 | 6287 | 30064 3 | 6:40.65 | 4:01.66 | 30065 | 48205 4 | 10:42.56 | 8:44.39 | 48206 | 87544 5 | 19:27.20 | 8:12.16 | 87545 | 124460 6 | 27:39.36 | 3:34.43 | 124461 | 140553 7 | 31:14.04 | 7:33.65 | 140554 | 174593 8 | 38:47.69 | 17:20.68 | 174594 | 252661 9 | 56:08.62 | 4:27.03 | 252662 | 272689
10 | 60:35.65 | 5:12.55 | 272690 | 296144

Range status and errors

Selected range Filename C:\Users\Meijin\Desktop\ALLexxess\The Allman Brothers Band\1973 Brothers And Sisters (4 SHM-CD Box Set Universal Japan 2013)\CD3\The Allman Brothers Band - Brothers And Sisters CD3.wav Peak level 96.3 %
Extraction speed 8.3 X
Range quality 100.0 %
Test CRC A08080BC
Copy CRC A08080BC
Copy OK

No errors occurred


AccurateRip summary

Track 1 accurately ripped (confidence 9) [E9690B7C] (AR v2)
Track 2 accurately ripped (confidence 9) [851DDA7D] (AR v2)
Track 3 accurately ripped (confidence 9) [CB90DA09] (AR v2)
Track 4 accurately ripped (confidence 9) [A686F52E] (AR v2)
Track 5 accurately ripped (confidence 9) [1C5640C5] (AR v2)
Track 6 accurately ripped (confidence 9) [DC7C64AB] (AR v2)
Track 7 accurately ripped (confidence 9) [92475371] (AR v2)
Track 8 accurately ripped (confidence 9) [C3B4E097] (AR v2)
Track 9 accurately ripped (confidence 9) [21DBE56D] (AR v2)
Track 10 accurately ripped (confidence 9) [885FB4FD] (AR v2)

All tracks accurately ripped

End of status report

==== Log checksum 4445E079982DE723D15CD4B940FDC4630715C7453B3B08A22522C11E05F57F4B ====

Disc Four: Live At Winterland, September 26, 1973

11. Southbound
12. Jessica
13. You Don't Love Me (Includes Amazing Grace)
14. Les Brers In A Minor (With Drum Solo)
15. Blue Sky
16. Trouble No More
17. Whipping Post

Exact Audio Copy V1.0 beta 3 from 29. August 2011

EAC extraction logfile from 17. August 2013, 21:34

The Allman Brothers Band / Brothers And Sisters CD4

Used drive : PLEXTOR BD-R PX-B950SA Adapter: 6 ID: 0

Read mode : Secure
Utilize accurate stream : Yes
Defeat audio cache : Yes
Make use of C2 pointers : No

Read offset correction

: 6
Overread into Lead-In and Lead-Out : No
Fill up missing offset samples with silence : Yes
Delete leading and trailing silent blocks : No
Null samples used in CRC calculations : Yes
Used interface
: Native Win32 interface for Win NT & 2000

Used output format : Internal WAV Routines
Sample format : 44.100 Hz; 16 Bit; Stereo

TOC of the extracted CD Track | Start | Length | Start sector | End sector
--1 | 0:00.00 | 6:01.28 | 0 | 27102 2 | 6:01.28 | 9:46.58 | 27103 | 71110 3 | 15:48.11 | 10:49.04 | 71111 | 119789 4 | 26:37.15 | 25:49.33 | 119790 | 235997 5 | 52:26.48 | 4:49.05 | 235998 | 257677 6 | 57:15.53 | 4:47.25 | 257678 | 279227 7 | 62:03.03 | 15:04.13 | 279228 | 347040

Range status and errors

Selected range Filename C:\Users\Meijin\Desktop\ALLexxess\The Allman Brothers Band\1973 Brothers And Sisters (4 SHM-CD Box Set Universal Japan 2013)\CD4\The Allman Brothers Band - Brothers And Sisters CD4.wav Peak level 100.0 %
Extraction speed 8.7 X
Range quality 100.0 %
Test CRC C6E30310
Copy CRC C6E30310
Copy OK

No errors occurred


AccurateRip summary

Track 1 accurately ripped (confidence 9) [182BB786] (AR v2)
Track 2 accurately ripped (confidence 9) [A544E89F] (AR v2)
Track 3 accurately ripped (confidence 9) [20260039] (AR v2)
Track 4 accurately ripped (confidence 9) EE656DB (AR v2)
Track 5 accurately ripped (confidence 9) [3F04F837] (AR v2)
Track 6 accurately ripped (confidence 9) [906C76B1] (AR v2)
Track 7 accurately ripped (confidence 9) [DB54D50E] (AR v2)

All tracks accurately ripped

End of status report

==== Log checksum 04825A6B9C8F81F2F47FE0E6666BFD775AD8A5718C41265D8918B4D01627C5BA ====

Super Deluxe Edition - Credits:
Compilation Produced by Bill Levenson.
Production Assistance: Eliot Kissileff.
Project Research and Editorial Assistance: John Lynskey.
Tape transfers by Eliot Kissileff at Sterling Sound, New York.
Tape Research: Andy Skurow at the Universal Tape Vaults.
Mastered by Seth Foster at Sterling Sound, New York.
Dynamic Range: 9 / 11 / 9 / 9.
All thanks goes to ALLexxess!
DOWNLOAD LINKS
Buy Premium From My Links To Get Resumable Support & Max Speed & To Support Me

Rapidgator.net:
http://rapidgator.net/file/11222f34e0d78b83b151f7c6be120320/tysj0.AllmBros7313SD01L.rar.html
http://rapidgator.net/file/57caf50e196a78b58755288b92b744c3/tysj0.AllmBros7313SD02L.rar.html
http://rapidgator.net/file/63e576cdcc7a2935b5af5b83e3347f43/tysj0.AllmBros7313SD03L.rar.html
http://rapidgator.net/file/9e71d0e6944377f42ce14f6f98d9cbfe/tysj0.AllmBros7313SD04L.rar.html
http://rapidgator.net/file/a92ad6f3d141b254972e45a93eb9ffaf/tysj0.AllmBros7313SD05CV.part1.rar.html
http://rapidgator.net/file/27a8386bbfa225b212197505401372ec/tysj0.AllmBros7313SD05CV.part2.rar.html
http://rapidgator.net/file/1a251fc0c4db09d6a27a8d266d092794/tysj0.AllmBros7313SD12M.rar.html
http://rapidgator.net/file/6d345db26dee938703474cc68c26b850/tysj0.AllmBros7313SD34M.rar.html

Uploaded.net:
http://uploaded.net/file/fcxchbv9/tysj0.AllmBros7313SD01L.rar
http://uploaded.net/file/ht7oklfo/tysj0.AllmBros7313SD02L.rar
http://uploaded.net/file/zxwyynno/tysj0.AllmBros7313SD03L.rar
http://uploaded.net/file/hue3per9/tysj0.AllmBros7313SD04L.rar
http://uploaded.net/file/atfrm7ff/tysj0.AllmBros7313SD05CV.part1.rar
http://uploaded.net/file/twgjqay6/tysj0.AllmBros7313SD05CV.part2.rar
http://uploaded.net/file/h68jw0jg/tysj0.AllmBros7313SD12M.rar
http://uploaded.net/file/2osbimvc/tysj0.AllmBros7313SD34M.rar

nitroflare_com:
http://nitroflare.com/view/5B781C4A316B487/tysj0.AllmBros7313SD01L.rar
http://nitroflare.com/view/36E7BDB0DF2482C/tysj0.AllmBros7313SD02L.rar
http://nitroflare.com/view/BB45BFC92F9EF0B/tysj0.AllmBros7313SD03L.rar
http://nitroflare.com/view/E443F12DC3E2B93/tysj0.AllmBros7313SD04L.rar
http://nitroflare.com/view/800129E8C4F5B08/tysj0.AllmBros7313SD05CV.part1.rar
http://nitroflare.com/view/C52BB113BAFE2D3/tysj0.AllmBros7313SD05CV.part2.rar
http://nitroflare.com/view/13B36E9218BC09E/tysj0.AllmBros7313SD12M.rar
http://nitroflare.com/view/754C06527188458/tysj0.AllmBros7313SD34M.rar

Uploadable.ch:
http://www.uploadable.ch/file/frNJfJNtamEQ/tysj0.AllmBros7313SD01L.rar
http://www.uploadable.ch/file/Eus9N4eTWqwH/tysj0.AllmBros7313SD02L.rar
http://www.uploadable.ch/file/5gyFqxq9yqjt/tysj0.AllmBros7313SD03L.rar
http://www.uploadable.ch/file/SzQ97Zch73vn/tysj0.AllmBros7313SD04L.rar
http://www.uploadable.ch/file/vKe6rGXBgf3j/tysj0.AllmBros7313SD05CV.part1.rar
http://www.uploadable.ch/file/Gq9ycWzWukNz/tysj0.AllmBros7313SD05CV.part2.rar
http://www.uploadable.ch/file/nNqPBtPHFs99/tysj0.AllmBros7313SD12M.rar
http://www.uploadable.ch/file/Qtfqz7XdP8aN/tysj0.AllmBros7313SD34M.rar

Links are Interchangeable - No Password - Single Extraction
Direct Download

Tags: Allman, Brothers, Brothers, Sisters, Deluxe

The Allman Brothers Band - Brothers And Sisters (1973) [4x SHM-CD Super Deluxe Edition 2013] RE-UPPED Download via Hotfile Rapidshare Fileserve Megaupload & FileSonic, The Allman Brothers Band - Brothers And Sisters (1973) [4x SHM-CD Super Deluxe Edition 2013] RE-UPPED free torrent downloads included crack, serial, keygen.The Allman Brothers Band - Brothers And Sisters (1973) [4x SHM-CD Super Deluxe Edition 2013] RE-UPPED Fast Download via Rapidshare Hotfile Fileserve Filesonic Megaupload, The Allman Brothers Band - Brothers And Sisters (1973) [4x SHM-CD Super Deluxe Edition 2013] RE-UPPED Torrents and Emule Download or anything related.
Leave a Comment
Your Name:
E-Mail:
Add Comments:

Enter Code: