Billy Joel - The Nylon Curtain (1982) (BSCD2)

Download Now

Billy Joel - The Nylon Curtain (1982) (BSCD2)

Billy Joel - The Nylon Curtain (1982) (BSCD2)
Rock | 1cd | EAC Rip | Flac + Cue + Log | covers
Sony, SICP 30175 | rel: 2013 | 445Mb

Billy Joel hit back as hard as he could with Glass Houses, his bid to prove that he could rock as hard as any of those new wave punks. He might not have proven himself a punk -- for all of his claims of being a hard rocker, his work inevitably is pop because of his fondness for melody -- but he proved to himself that he could still rock, even if the critics didn't give him any credit for it.
It was now time to mature, to move pop/rock into the middle age and, in the process, earn critical respect. In short, The Nylon Curtain is where Billy Joel went serious, consciously crafting a song cycle about Baby Boomers in the Reagan era. Since this was an album about Baby Boomers, he chose to base his music almost entirely on the Beatles, the pivotal rock band for his generation. Joel is naturally inclined to write big melodies like McCartney, but he idolizes Lennon, which makes The Nylon Curtain a fascinating cross between ear candy and social commentary. His desire to record a grand concept album is admirable, but his ever-present lyrical shortcomings mean that the songs paint a picture without arriving at any insights. He occasionally gets lost in his own ambition, as on the waterlogged second side, but the first half of the song suite -- "Allentown," "Laura," "Pressure," "Goodnight Saigon," "She's Right on Time" -- is layered, successful, mature pop that brings Joel tantalizingly close to his ultimate goal of sophisticated pop/rock for mature audiences. ~Allmusic

Track listing
01. Allentown (3:52)
02. Laura (5:06)
03. Pressure (4:41)
04. Goodnight Saigon (7:04)
05. She's Right On Time (4:14)
06. A Room Of Our Own (4:04)
07. Surprises (3:26)
08. Scandinavian Skies (6:01)
09. Where's The Orchestra? (3:17)
~ (41:46)

Personnel
- Billy Joel - vocals, acoustic & electric pianos, synthesizers, Hammond organ, melodica, Prophet-5 synthesizer, Synclavier II on "Pressure"
- Liberty DeVitto - drums, percussion
- Doug Stegmeyer - bass guitar
- David Brown - electric & acoustic guitars (lead)
- Russell Javors - electric & acoustic guitars (rhythm)

Exact Audio Copy V1.0 beta 3 from 29. August 2011

EAC extraction logfile from 31. August 2013, 13:57

Billy Joel / The Nylon Curtain BSCD2

Used drive : PLEXTOR BD-R PX-B950SA Adapter: 6 ID: 0

Read mode : Secure
Utilize accurate stream : Yes
Defeat audio cache : Yes
Make use of C2 pointers : No

Read offset correction

: 6
Overread into Lead-In and Lead-Out : No
Fill up missing offset samples with silence : Yes
Delete leading and trailing silent blocks : No
Null samples used in CRC calculations : Yes
Used interface
: Native Win32 interface for Win NT & 2000

Used output format : Internal WAV Routines
Sample format : 44.100 Hz; 16 Bit; Stereo

TOC of the extracted CD Track | Start | Length | Start sector | End sector
--1 | 0:00.00 | 3:51.65 | 0 | 17389 2 | 3:51.65 | 5:06.03 | 17390 | 40342 3 | 8:57.68 | 4:41.25 | 40343 | 61442 4 | 13:39.18 | 7:03.55 | 61443 | 93222 5 | 20:42.73 | 4:14.35 | 93223 | 112307 6 | 24:57.33 | 4:04.30 | 112308 | 130637 7 | 29:01.63 | 3:26.27 | 130638 | 146114 8 | 32:28.15 | 6:00.50 | 146115 | 173164 9 | 38:28.65 | 3:17.13 | 173165 | 187952

Range status and errors

Selected range Filename C:\Users\Meijin\Desktop\_ALLexxess\Billy Joel\1982 The Nylon Curtain (Sony Music Japan BSCD2 2013)\Billy Joel - The Nylon Curtain BSCD2.wav Peak level 99.8 %
Extraction speed 6.8 X
Range quality 100.0 %
Test CRC 5FD0F57A
Copy CRC 5FD0F57A
Copy OK

No errors occurred


AccurateRip summary

Track 1 not present in database
Track 2 not present in database
Track 3 not present in database
Track 4 not present in database
Track 5 not present in database
Track 6 not present in database
Track 7 not present in database
Track 8 not present in database
Track 9 not present in database

None of the tracks are present in the AccurateRip database

End of status report

==== Log checksum 2794D614482F5283764EAE4EBA68CE5438C860C8CE4D1C7AEAF81B9DA0A0E9A8 ====

[CUETools log; Date: 2015.09.21. 11:15:28; Version: 2.1.5]
[CTDB TOCID: 9lk8yx2t6fZQeYlpwOC.NBHTcyg-] found.
Track | CTDB Status
1 | (2/2) Accurately ripped
2 | (2/2) Accurately ripped
3 | (2/2) Accurately ripped
4 | (2/2) Accurately ripped
5 | (2/2) Accurately ripped
6 | (2/2) Accurately ripped
7 | (2/2) Accurately ripped
8 | (2/2) Accurately ripped
9 | (2/2) Accurately ripped
[AccurateRip ID: 000eb012-006bc5a2-6c09ca09] found.
Track [ CRC | V2 ] Status
01 [785854cd|7196bced] (0+5/5) Accurately ripped
02 [f3bf525a|2ac3cefd] (0+5/5) Accurately ripped
03 [18805fb4|871bb44a] (0+5/5) Accurately ripped
04 [351b1bb6|702e96f0] (0+5/5) Accurately ripped
05 [0c8fb6d2|e2cd9d54] (0+5/5) Accurately ripped
06 [d73ea409|119d5dde] (0+5/5) Accurately ripped
07 [845fc41d|a9be0af8] (0+5/5) Accurately ripped
08 [c21bcb5b|ba0612b3] (0+5/5) Accurately ripped
09 [9a846eee|8943c66c] (0+4/4) Accurately ripped

Track Peak [ CRC32 ] [W/O NULL] [ LOG ]
-- 99,8 [5FD0F57A] [47781FF8] CRC32
01 99,8 [C7684B0F] [E9CD45D9]
02 99,8 [7DDF5545] [CA938727]
03 99,8 [3A1D9436] [831F5489]
04 99,8 [DDBD3F13] [08634D85]
05 99,8 [85DC6542] [02557F17]
06 99,8 [13D80E63] [60E814A3]
07 99,8 [1FCCA801] [F23F9F52]
08 99,8 [EE842981] [FAB6E6A5]
09 80,5 [AEEF63BE] [4BF51886]

foobar2000 1.3.3 / Dynamic Range Meter 1.1.1
log date: 2015-09-21 11:07:56

Analyzed: Billy Joel / The Nylon Curtain BSCD2

DR Peak RMS Duration Track

DR11 -0.01 dB -12.59 dB 3:52 01-Allentown
DR12 -0.01 dB -13.76 dB 5:06 02-Laura
DR10 -0.01 dB -11.32 dB 4:41 03-Pressure
DR12 -0.01 dB -16.45 dB 7:04 04-Goodnight Saigon
DR10 -0.01 dB -12.10 dB 4:14 05-She's Right On Time
DR10 -0.01 dB -11.55 dB 4:04 06-A Room Of Our Own
DR9 -0.01 dB -11.71 dB 3:26 07-Surprises
DR12 -0.01 dB -16.22 dB 6:01 08-Scandinavian Skies
DR13 -1.87 dB -19.74 dB 3:17 09-Where's The Orchestra?

Number of tracks: 9
Official DR value: DR11

Samplerate: 44100 Hz
Channels: 2
Bits per sample: 16
Bitrate: 859 kbps
Codec: FLAC

Thx to ALLexxess
password: asd
DOWNLOAD LINKS
Buy Premium From My Links To Get Resumable Support & Max Speed & To Support Me


Links are Interchangeable - No Password - Single Extraction
Direct Download

Tags: Curtain

Billy Joel - The Nylon Curtain (1982) (BSCD2) Download via Hotfile Rapidshare Fileserve Megaupload & FileSonic, Billy Joel - The Nylon Curtain (1982) (BSCD2) free torrent downloads included crack, serial, keygen.Billy Joel - The Nylon Curtain (1982) (BSCD2) Fast Download via Rapidshare Hotfile Fileserve Filesonic Megaupload, Billy Joel - The Nylon Curtain (1982) (BSCD2) Torrents and Emule Download or anything related.
Leave a Comment
Your Name:
E-Mail:
Add Comments:

Enter Code: