Bob Dylan - Saved (1980)

Download Now

Bob Dylan - Saved (1980)

Bob Dylan - Saved (1980)
Rock | 1cd | EAC Rip | Flac + Cue + Log | covers
Columbia, 88691924312.27 | rem: 2013 | 295Mb

Dylan's "Christian" phase (Slow Train Coming, Saved, Shot of Love, Infidels) produced some of his very best music. "Saved" is the most "gospel-y" of the four, and redefines the gospel genre in the same way he had successively done for folk, rock, and country (and later did for blues). If in-your-face Christianity makes you uncomfortable, you won't like this album, but anyone who likes gospel music (or any sort of Christian music) must not miss it.
The only reason it doesn't get 5 stars is that it's not for everybody. Dylan is in a musical groove here that is as compelling as in his great trilogy from the mid-70's (Planet Waves, Blood on the Tracks, Desire). "Shot of Love" had greater individual songs (Property of Jesus, Lenny Bruce, The Groom's Still Waiting at the Altar, Every Grain of Sand), and "Infidels" was more varied and complex, and "Slow Train Coming" was more of a revelation, but "Saved" is the most consistent of the four and the one which works best as a coherent whole.
For this reason, I don't like to single out songs, because they're all excellent and have a cumulative impact. The lyrics are clear, powerful, and theologically both sound and deep ("What Can I Do For You?" and "Saving Grace" showing particular originality). Dylan's vocals are full of such unmistakable joy, thanksgiving, love of God, and concern for humanity that it's impossible for any Christian not to be deeply moved.
The backing band is terrific, with creative arrangements and notable piano playing from Spooner Oldham. Dylan's female background singers, led by Clydie King, have been criticized by some for their over-the-top enthusiasm on his other records from the period, but here their gospelly flair is perfect.
After 1983 Dylan moved away from overtly Christian music. His change in musical style has led some to conclude he's lost his faith, but it's clear from many songs on 1989's "Oh Mercy", 1993's "World Gone Wrong", and 1997's "Time Out of Mind", as well as the old gospel songs he sings in concerts sometimes, that God is still with him and he's still "Pressing On". ~Amazon

Track listing
01. A Satisfied Mind (1:59)
02. Saved (4:03)
03. Covenant Woman (6:06)
04. What Can I Do For You? (5:55)
05. Solid Rock (3:59)
06. Pressing On (5:14)
07. In The Garden (6:00)
08. Saving Grace (5:05)
09. Are You Ready (4:45)
~ (43:05)

Exact Audio Copy V1.0 beta 3 from 29. August 2011

EAC extraction logfile from 3. May 2014, 21:20

Bob Dylan / Saved

Used drive : PLEXTOR DVDR PX-L890SA Adapter: 1 ID: 0

Read mode : Secure
Utilize accurate stream : Yes
Defeat audio cache : Yes
Make use of C2 pointers : No

Read offset correction

: 6
Overread into Lead-In and Lead-Out : No
Fill up missing offset samples with silence : Yes
Delete leading and trailing silent blocks : No
Null samples used in CRC calculations : Yes
Used interface
: Native Win32 interface for Win NT & 2000

Used output format : User Defined Encoder
Selected bitrate : 768 kBit/s
Quality : High
Add ID3 tag : No
Command line compressor : G:\Program Files\Exact Audio Copy\FLAC\FLAC.EXE
Additional command line options : -V -8 -T "Date=%year%" -T "Genre=%genre%" %source%

TOC of the extracted CD Track | Start | Length | Start sector | End sector
--1 | 0:00.00 | 1:58.55 | 0 | 8904 2 | 1:58.55 | 4:02.72 | 8905 | 27126 3 | 6:01.52 | 6:05.63 | 27127 | 54564 4 | 12:07.40 | 5:55.28 | 54565 | 81217 5 | 18:02.68 | 3:58.51 | 81218 | 99118 6 | 22:01.44 | 5:14.19 | 99119 | 122687 7 | 27:15.63 | 5:59.39 | 122688 | 149651 8 | 33:15.27 | 5:04.48 | 149652 | 172499 9 | 38:20.00 | 4:45.37 | 172500 | 193911

Range status and errors

Selected range Filename H:\MUSIC\DYLAN\1980. Bob Dylan - Saved (Columbia 88691924312.27, EU)\Saved.wav Peak level 97.3 %
Extraction speed 5.5 X
Range quality 100.0 %
Test CRC 97E051B5
Copy CRC 97E051B5
Copy OK

No errors occurred


AccurateRip summary

Track 1 accurately ripped (confidence 15) [18293E74] (AR v2)
Track 2 accurately ripped (confidence 15) [13404A0B] (AR v2)
Track 3 accurately ripped (confidence 15) [44E7B0E3] (AR v2)
Track 4 accurately ripped (confidence 15) [EE8EBF9C] (AR v2)
Track 5 accurately ripped (confidence 15) [5D483890] (AR v2)
Track 6 accurately ripped (confidence 15) [3E787C1D] (AR v2)
Track 7 accurately ripped (confidence 15) [4E801EEE] (AR v2)
Track 8 accurately ripped (confidence 15) [D8801567] (AR v2)
Track 9 accurately ripped (confidence 15) [6257FBCC] (AR v2)

All tracks accurately ripped

End of status report

==== Log checksum BC7DE5123ED3BACA0E745AB9EE727FF98B2EF37B18C13D80DF1B1D49CF8B7510 ====

[CUETools log; Date: 2015.09.20. 21:48:50; Version: 2.1.5]
[CTDB TOCID: rOC9PmjsUJBEtxKhS6wzSYAWvhw-] found.
Track | CTDB Status
1 | (46/46) Accurately ripped
2 | (46/46) Accurately ripped
3 | (46/46) Accurately ripped
4 | (46/46) Accurately ripped
5 | (46/46) Accurately ripped
6 | (46/46) Accurately ripped
7 | (46/46) Accurately ripped
8 | (46/46) Accurately ripped
9 | (45/46) Accurately ripped
[AccurateRip ID: 000de176-0068c3f4-6b0a1909] found.
Track [ CRC | V2 ] Status
01 [ca6defe1|18293e74] (02+35/63) Accurately ripped
02 [d8d98c54|13404a0b] (02+35/63) Accurately ripped
03 [d9522449|44e7b0e3] (02+35/63) Accurately ripped
04 [8b8d01b4|ee8ebf9c] (02+35/63) Accurately ripped
05 158e600|5d483890 (02+35/63) Accurately ripped
06 [a8e0409c|3e787c1d] (02+35/63) Accurately ripped
07 [1a485528|4e801eee] (02+35/63) Accurately ripped
08 [1d4647d6|d8801567] (02+35/63) Accurately ripped
09 [693cbf56|6257fbcc] (02+34/62) Accurately ripped
Offsetted by -90:
01 [14c86527] (00/63) No match (V2 was not tested)
02 [f6ff6c10] (00/63) No match (V2 was not tested)
03 [cdb0d71b] (00/63) No match (V2 was not tested)
04 [06425c2d] (00/63) No match (V2 was not tested)
05 [c3c65c60] (00/63) No match (V2 was not tested)
06 [f457ee0d] (00/63) No match (V2 was not tested)
07 [442b6a8a] (00/63) No match (V2 was not tested)
08 fb9c2d7 (00/63) No match (V2 was not tested)
09 [a1966a17] (00/62) No match (V2 was not tested)
Offsetted by 12:
01 [dc37b7fe] (00/63) No match (V2 was not tested)
02 [5cde2ad2] (00/63) No match (V2 was not tested)
03 [9835255d] (00/63) No match (V2 was not tested)
04 [e1b6d840] (00/63) No match (V2 was not tested)
05 [02374805] (00/63) No match (V2 was not tested)
06 [373f3aa9] (00/63) No match (V2 was not tested)
07 [0799d02f] (00/63) No match (V2 was not tested)
08 [d5aa1e3d] (00/63) No match (V2 was not tested)
09 [2f9fd2e7] (00/62) No match (V2 was not tested)

Track Peak [ CRC32 ] [W/O NULL] [ LOG ]
-- 97,3 [97E051B5] [A5C94A5C] CRC32
01 95,6 [A8A8B28F] [7719D597]
02 97,0 [6DFC7BD4] [995468CC]
03 97,3 [3A9F5477] [C690DE94]
04 96,5 3D6C49B [162ABF26]
05 96,3 [508F3699] [D2A92708]
06 96,9 [3DA8880A] 905E444
07 96,1 [63D3B07D] [058028DF]
08 96,3 [AB79EFEB] [E7DA8C13]
09 96,3 [5DC22091] [8E2342AD]

Thx to snakesharmer
password: asd
DOWNLOAD LINKS
Buy Premium From My Links To Get Resumable Support & Max Speed & To Support Me


Links are Interchangeable - No Password - Single Extraction
Direct Download

Bob Dylan - Saved (1980) Download via Hotfile Rapidshare Fileserve Megaupload & FileSonic, Bob Dylan - Saved (1980) free torrent downloads included crack, serial, keygen.Bob Dylan - Saved (1980) Fast Download via Rapidshare Hotfile Fileserve Filesonic Megaupload, Bob Dylan - Saved (1980) Torrents and Emule Download or anything related.
Leave a Comment
Your Name:
E-Mail:
Add Comments:

Enter Code: