VA - Rock Classics Top 100 (2007) 6CD Box Set

Download Now

VA - Rock Classics Top 100 (2007) 6CD Box Set

VA - Rock Classics Top 100 (2007) 6CD Box Set
EAC | FLAC | Image (Cue&Log) ~ 2.83 Gb (incl 5%) | Scans included | Time: 06:53:19
Genre: Rock | Label: Universal Music | # 984 534-4

"100 tracks. Status Quo, Uriah Heep, Slade, The Allman Brothers Band, Thin Lizzy, The Guess Who, Lynyrd Skynyrd, Atomic Rooster, The Moody Blues, Steppenwolf, Blue Oyster Cult, Santana, Rainbow, Lou Reed, Kiss, Toto, Ted Nugent, Electric Light Orchestra, Iggy Pop, Rush, Motorhead, Cheap Trick, Judas Priest, REO Speedwagon, Yngwie Malmsteen, Soundgarden, Accept, Alice Cooper, Dio and more, and more..."

VA - Rock Classics Top 100 (2007) 6CD Box Set

Tracklist:

CD1:

01. Status Quo - Roll Over Lay Down (04:42)
02. Golden Earring - Radar Love (06:26)
03. Free - All Right Now (05:34)
04. The Moody Blues - I'm Just A Singer (04:16)
05. Uriah Heep - Easy Livin' (02:36)
06. Steppenwolf - Born To Be Wild (03:28)
07. Peter Frampton - Show Me The Way (04:37)
08. Slade - Mama Weer All Crazee Now (03:45)
09. The Allman Brothers Band - Jessica (07:29)
10. The Osmonds - Crazy Horses (02:29)
11. Thin Lizzy - Whisky In The Jarr (05:39)
12. The Guess Who - American Woman (05:08)
13. Blue Cheer - Summertime Blues (03:46)
14. Lynyrd Skynyrd - Sweet Home Alabama (04:44)
15. Humble Pie - Stone Cold Fever (04:12)
16. Atomic Rooster - Devil's Answer (03:27)
17. Geordie - All Because Of You (02:40)

CD2:

01. Bachman Turner Overdrive - You Ain't Seen Nothing Yet (03:54)
02. The Moody Blues - Question (05:41)
03. Golden Earring - Bombay (03:54)
04. Santana - She's Not There (04:09)
05. The Allman Brothers Band - Ramblin' Man (04:42)
06. Lynyrd Skynyrd - Free Bird (09:06)
07. Blue Oyster Cult - Don't Fear The Reaper (05:06)
08. Free - The Stealer (03:15)
09. Steppenwolf - Magic Carpet Ride (04:25)
10. Rainbow - All Night Long (03:47)
11. Rush - In The Mood (03:35)
12. Peter Frampton - White Sugar (03:34)
13. Boston - More Than A Feeling (04:46)
14. Phill Lynott - King's Call (03:39)
15. Lou Reed - Sweet Jane (04:31)
16. Kiss - Rock And Roll All Nite (02:45)

CD3:

01. Focus - Hocus Pocus (06:42)
02. Thin Lizzy - The Boys Are Back In Town (04:26)
03. Rainbow - Since You Been Gone (03:17)
04. Toto - Hold The Line (03:57)
05. Mother's Finest - Piece Of The Rock (03:26)
06. Robert Palmer - Bad Case Of Loving You (03:12)
07. Boston - Don't Look Back (03:56)
08. Rush - Tom Sawyer (04:35)
09. Heart - Barracuda (04:23)
10. Electric Light Orchestra - Don't Bring Me Down (04:05)
11. Status Quo - Whatever You Want (03:50)
12. Ram Jam - Black Betty (04:00)
13. Cheap Trick - I Want You To Want Me (03:34)
14. Ted Nugent - Cat Scratch Fever (03:40)
15. Slade - Lock Up Your Daughters (03:29)
16. Iggy Pop - Real Wild Child (Wild One) (03:33)
17. Motorhead - Ace Of Spades (02:44)

CD4:

01. Kiss - I Was Made For Lovin You (04:30)
02. REO Speedwagon - Don't Let Him Go (03:46)
03. Accept - Balls To The Wall (05:45)
04. Eddie Money - Take Me Home Tonight (03:31)
05. The Runaways - Cherry Bomb (02:20)
06. Y&T - Dirty Girl (05:05)
07. Asia - Heat Of The Moment (03:45)
08. DIO - Hungry For Heaven (04:08)
09. Alice Cooper - Freedom (04:07)
10. Europe - The Final Countdown (05:10)
11. Journey - Wheel In The Sky (04:12)
12. Judas Priest - Living After Midnight (03:30)
13. Survivor - Eye Of The Tiger (04:05)
14. The Outfield - Your Love (03:43)
15. Warlock - Fight For Rock (03:10)
16. Deep Purple - Black & White (03:40)
17. Spinal Tap - Tonight I'M Gonna Rock You Tonight (02:37)

CD5:

01. The Beastie Boys - (You Gotta) Fight For Your Right (To Party) (03:30)
02. Yngwie Malmsteen - Heaven Tonight (04:06)
03. Alice Cooper - Poison (04:13)
04. Europe - Rock The Night (04:08)
05. Cinderella - Shake Me (03:44)
06. Dio - Rock N Roll Children (04:31)
07. Kingdom Come - Get It On (04:23)
08. Y & T - Rescue Me (04:45)
09. Little Angels - She S A Little Angel (03:13)
10. Steelheart - Love Ain T Easy (03:41)
11. Tesla - Ez Come Ez Go (03:34)
12. Sleeze Beez - Stranger Than Paradise (04:05)
13. Bad English - Straight To Your Heart (04:07)
14. Scorpions - Tease Me Please Me (04:45)
15. Jackyl - The Lumberjack (03:34)
16. Motley Crue - Kickstart My Heart (04:43)

CD6:

01. Extreme - Get The Funk Out (04:25)
02. Giant - I M A Believer (05:44)
03. TNT - 10.000 Lovers (02:56)
04. Cinderella - Gypsy Road (04:01)
05. Tesla - Little Suzi (04:58)
06. Living Colour - Cult Of Personality (04:56)
07. Kingdome Come - Do You Like It (03:39)
08. Gun - Word Up (04:17)
09. Dilana Smith - Do You Know (03:58)
10. Ugly Kid Joe - Everything About You (04:08)
11. Soundgarden - Spoonman (04:08)
12. Motley Crue - Primal Scream (04:48)
13. White Zombie - Thunder Kiss 65 (03:56)
14. Nashville Pussy - High As Hell (02:35)
15. Weezer - Buddy Holly (02:41)
16. Live - I Alone (03:52)
17. Hole - Celebrity Skin (02:43)


Exact Audio Copy V1.1 from 23. June 2015

EAC extraction logfile from 17. September 2015, 22:50

VA / Rock classics top 100 CD 1

Used drive : ASUS SDRW-08D1S-U Adapter: 1 ID: 1

Read mode : Secure
Utilize accurate stream : Yes
Defeat audio cache : Yes
Make use of C2 pointers : No

Read offset correction

: 667
Overread into Lead-In and Lead-Out : No
Fill up missing offset samples with silence : Yes
Delete leading and trailing silent blocks : No
Null samples used in CRC calculations : Yes
Used interface
: Native Win32 interface for Win NT & 2000

Used output format : User Defined Encoder
Selected bitrate : 128 kBit/s
Quality : High
Add ID3 tag : No
Command line compressor : C:\Program Files (x86)\Exact Audio Copy\Flac\flac.exe
Additional command line options : -V -8 -T "Date=%year%" -T "Genre=%genre%" %source%

TOC of the extracted CD Track | Start | Length | Start sector | End sector
--1 | 0:00.00 | 4:42.26 | 0 | 21175 2 | 4:42.26 | 6:26.06 | 21176 | 50131 3 | 11:08.32 | 5:34.53 | 50132 | 75234 4 | 16:43.10 | 4:16.72 | 75235 | 94506 5 | 21:00.07 | 2:36.60 | 94507 | 106266 6 | 23:36.67 | 3:28.24 | 106267 | 121890 7 | 27:05.16 | 4:37.00 | 121891 | 142665 8 | 31:42.16 | 3:45.18 | 142666 | 159558 9 | 35:27.34 | 7:29.28 | 159559 | 193261
10 | 42:56.62 | 2:29.63 | 193262 | 204499
11 | 45:26.50 | 5:39.43 | 204500 | 229967
12 | 51:06.18 | 5:08.58 | 229968 | 253125
13 | 56:15.01 | 3:46.70 | 253126 | 270145
14 | 60:01.71 | 4:44.48 | 270146 | 291493
15 | 64:46.44 | 4:12.15 | 291494 | 310408
16 | 68:58.59 | 3:27.45 | 310409 | 325978
17 | 72:26.29 | 2:40.70 | 325979 | 338048

Range status and errors

Selected range Filename C:\Users\Олег\Desktop\CD 1\VA - Rock classics top 100 CD 1.wav Peak level 94.4 %
Extraction speed 4.1 X
Range quality 100.0 %
Test CRC 0051DEF6
Copy CRC 0051DEF6
Copy OK

No errors occurred


AccurateRip summary

Track 1 accurately ripped (confidence 2) [3E2D1757] (AR v1)
Track 2 accurately ripped (confidence 2) [92051CBC] (AR v1)
Track 3 accurately ripped (confidence 2) [548BA6A1] (AR v1)
Track 4 accurately ripped (confidence 2) [1496B290] (AR v1)
Track 5 accurately ripped (confidence 2) [58C15809] (AR v1)
Track 6 accurately ripped (confidence 2) [50362A4E] (AR v1)
Track 7 accurately ripped (confidence 2) [775125B5] (AR v1)
Track 8 accurately ripped (confidence 2) [6ED16069] (AR v2)
Track 9 accurately ripped (confidence 2) [ACDF9CC3] (AR v2)
Track 10 accurately ripped (confidence 2) [1F1BB3BA] (AR v2)
Track 11 accurately ripped (confidence 2) [D5F5B1CD] (AR v2)
Track 12 accurately ripped (confidence 2) [908C7B4E] (AR v2)
Track 13 accurately ripped (confidence 2) [3D99C8BA] (AR v2)
Track 14 accurately ripped (confidence 2) [1C223777] (AR v2)
Track 15 accurately ripped (confidence 2) [63163E4B] (AR v2)
Track 16 accurately ripped (confidence 2) [996F4582] (AR v2)
Track 17 accurately ripped (confidence 2) [6A507AE7] (AR v2)

All tracks accurately ripped

End of status report

- CUETools DB Plugin V2.1.6

[CTDB TOCID: jAnbC2Vgp448axtIv1aIphcjZ90-] found
Submit result: jAnbC2Vgp448axtIv1aIphcjZ90- has been confirmed
Track | CTDB Status
1 | (2/2) Accurately ripped
2 | (2/2) Accurately ripped
3 | (2/2) Accurately ripped
4 | (2/2) Accurately ripped
5 | (2/2) Accurately ripped
6 | (2/2) Accurately ripped
7 | (2/2) Accurately ripped
8 | (2/2) Accurately ripped
9 | (2/2) Accurately ripped
10 | (2/2) Accurately ripped
11 | (2/2) Accurately ripped
12 | (2/2) Accurately ripped
13 | (2/2) Accurately ripped
14 | (2/2) Accurately ripped
15 | (2/2) Accurately ripped
16 | (2/2) Accurately ripped
17 | (2/2) Accurately ripped

==== Log checksum F86D0D4136A8FF451035DACCAA726D581AFF2740F1ECA924298110115420670C ====

foobar2000 1.2 / Dynamic Range Meter 1.1.1
log date: 2015-09-20 17:41:31

Statistics for: 13-Summertime blues
Number of samples: 10007760
Duration: 3:47
Left Right

Peak Value: -0.50 dB -0.50 dB
Avg RMS: -11.50 dB -11.67 dB
DR channel: 9.44 dB 9.70 dB

Official DR Value: DR10

Samplerate: 44100 Hz
Channels: 2
Bits per sample: 16
Bitrate: 920 kbps
Codec: FLAC

Analyzed: Free / Rock classics top 100 CD 1 (1) Geordie / Rock classics top 100 CD 1 (2)

DR Peak RMS Duration Track

DR8 -0.50 dB -11.00 dB 5:35 03-All right now
DR9 -3.72 dB -13.61 dB 2:41 17-All because of you

Number of tracks: 2
Official DR value: DR8

Samplerate: 44100 Hz
Channels: 2
Bits per sample: 16
Bitrate: 920 kbps
Codec: FLAC

Analyzed: Golden Earring / Rock classics top 100 CD 1 (1) Humble pie / Rock classics top 100 CD 1 (2)

DR Peak RMS Duration Track

DR9 -0.50 dB -12.16 dB 6:26 02-Radar love
DR10 -0.50 dB -12.40 dB 4:12 15-Stone cold fever

Number of tracks: 2
Official DR value: DR9

Samplerate: 44100 Hz
Channels: 2
Bits per sample: 16
Bitrate: 920 kbps
Codec: FLAC

Statistics for: 14-Sweet home Alabama
Number of samples: 12552624
Duration: 4:45
Left Right

Peak Value: -0.50 dB -0.50 dB
Avg RMS: -12.23 dB -12.93 dB
DR channel: 10.63 dB 11.01 dB

Official DR Value: DR11

Samplerate: 44100 Hz
Channels: 2
Bits per sample: 16
Bitrate: 920 kbps
Codec: FLAC

Analyzed: Peter Frampton / Rock classics top 100 CD 1 (1) Slade / Rock classics top 100 CD 1 (2)

DR Peak RMS Duration Track

DR11 -0.50 dB -13.26 dB 4:37 07-Show me the way
DR8 -2.76 dB -12.27 dB 3:45 08-Mama weer all crazee now

Number of tracks: 2
Official DR value: DR10

Samplerate: 44100 Hz
Channels: 2
Bits per sample: 16
Bitrate: 920 kbps
Codec: FLAC

Analyzed: Status Quo / Rock classics top 100 CD 1 (1) Steppenwolf / Rock classics top 100 CD 1 (2) The Allman brothers band / Rock classics top 100 CD 1 (3) The guess who / Rock classics top 100 CD 1 (4)

DR Peak RMS Duration Track

DR9 -0.50 dB -11.29 dB 4:42 01-Roll over lay down
DR9 -0.50 dB -10.90 dB 3:28 06-Born to be wild
DR11 -0.50 dB -13.83 dB 7:29 09-Jessica
DR9 -0.50 dB -12.08 dB 5:09 12-American woman

Number of tracks: 4
Official DR value: DR10

Samplerate: 44100 Hz
Channels: 2
Bits per sample: 16
Bitrate: 920 kbps
Codec: FLAC

Analyzed: The moody blues / Rock classics top 100 CD 1 (1) The Osmonds / Rock classics top 100 CD 1 (2) Thin Lizzy / Rock classics top 100 CD 1 (3)

DR Peak RMS Duration Track

DR7 -2.68 dB -10.91 dB 4:17 04-I'm just a singer
DR8 -2.98 dB -12.59 dB 2:30 10-Crazy horses
DR10 -0.50 dB -11.24 dB 5:40 11-Whisky in the jarr

Number of tracks: 3
Official DR value: DR8

Samplerate: 44100 Hz
Channels: 2
Bits per sample: 16
Bitrate: 920 kbps
Codec: FLAC

Statistics for: 05-Easy livin'
Number of samples: 6914880
Duration: 2:37
Left Right

Peak Value: -0.50 dB -0.50 dB
Avg RMS: -10.45 dB -10.55 dB
DR channel: 9.22 dB 9.15 dB

Official DR Value: DR9

Samplerate: 44100 Hz
Channels: 2
Bits per sample: 16
Bitrate: 920 kbps
Codec: FLAC

foobar2000 1.2 / Dynamic Range Meter 1.1.1
log date: 2015-09-20 17:41:30

Statistics for: 16-Devil's answer
Number of samples: 9155160
Duration: 3:28
Left Right

Peak Value: -0.50 dB -0.50 dB
Avg RMS: -12.16 dB -12.32 dB
DR channel: 9.41 dB 8.92 dB

Official DR Value: DR9

Samplerate: 44100 Hz
Channels: 2
Bits per sample: 16
Bitrate: 920 kbps
Codec: FLAC

Exact Audio Copy V1.1 from 23. June 2015

EAC extraction logfile from 18. September 2015, 14:39

VA / Rock classics top 100 CD 2

Used drive : ASUS SDRW-08D1S-U Adapter: 1 ID: 1

Read mode : Secure
Utilize accurate stream : Yes
Defeat audio cache : Yes
Make use of C2 pointers : No

Read offset correction

: 667
Overread into Lead-In and Lead-Out : No
Fill up missing offset samples with silence : Yes
Delete leading and trailing silent blocks : No
Null samples used in CRC calculations : Yes
Used interface
: Native Win32 interface for Win NT & 2000

Used output format : User Defined Encoder
Selected bitrate : 128 kBit/s
Quality : High
Add ID3 tag : No
Command line compressor : C:\Program Files (x86)\Exact Audio Copy\Flac\flac.exe
Additional command line options : -V -8 -T "Date=%year%" -T "Genre=%genre%" %source%

TOC of the extracted CD Track | Start | Length | Start sector | End sector
--1 | 0:00.00 | 3:54.52 | 0 | 17601 2 | 3:54.52 | 5:41.27 | 17602 | 43203 3 | 9:36.04 | 3:54.62 | 43204 | 60815 4 | 13:30.66 | 4:09.56 | 60816 | 79546 5 | 17:40.47 | 4:42.54 | 79547 | 100750 6 | 22:23.26 | 9:06.14 | 100751 | 141714 7 | 31:29.40 | 5:06.73 | 141715 | 164737 8 | 36:36.38 | 3:15.03 | 164738 | 179365 9 | 39:51.41 | 4:25.54 | 179366 | 199294
10 | 44:17.20 | 3:47.60 | 199295 | 216379
11 | 48:05.05 | 3:35.58 | 216380 | 232562
12 | 51:40.63 | 3:34.73 | 232563 | 248685
13 | 55:15.61 | 4:46.46 | 248686 | 270181
14 | 60:02.32 | 3:39.29 | 270182 | 286635
15 | 63:41.61 | 4:31.50 | 286636 | 307010
16 | 68:13.36 | 2:45.49 | 307011 | 319434

Range status and errors

Selected range Filename C:\Users\Олег\Desktop\Rock Classics Top 100\CD 2\VA - Rock classics top 100 CD 2.wav Peak level 94.4 %
Extraction speed 4.0 X
Range quality 100.0 %
Test CRC 26864968
Copy CRC 26864968
Copy OK

No errors occurred


AccurateRip summary

Track 1 accurately ripped (confidence 2) [85DE7D6D] (AR v2)
Track 2 accurately ripped (confidence 2) [EFA3C833] (AR v2)
Track 3 accurately ripped (confidence 2) [3F96801D] (AR v2)
Track 4 accurately ripped (confidence 2) [5E34E7B8] (AR v2)
Track 5 accurately ripped (confidence 2) [93665959] (AR v2)
Track 6 accurately ripped (confidence 2) [8410F694] (AR v2)
Track 7 accurately ripped (confidence 2) [CF32F5E8] (AR v2)
Track 8 accurately ripped (confidence 2) [4C18173F] (AR v2)
Track 9 accurately ripped (confidence 2) [1D3D51CC] (AR v2)
Track 10 accurately ripped (confidence 2) [CFE3446B] (AR v2)
Track 11 accurately ripped (confidence 2) [C5102F27] (AR v2)
Track 12 accurately ripped (confidence 2) [7A9A761F] (AR v2)
Track 13 accurately ripped (confidence 2) [542799D7] (AR v2)
Track 14 accurately ripped (confidence 2) [4329E9CB] (AR v2)
Track 15 accurately ripped (confidence 2) [A0236F88] (AR v2)
Track 16 accurately ripped (confidence 2) [0FE8FA83] (AR v2)

All tracks accurately ripped

End of status report

- CUETools DB Plugin V2.1.6

[CTDB TOCID: UBH0dI_TKdF.rkNypeNq94Sdjdg-] found
Submit result: UBH0dI_TKdF.rkNypeNq94Sdjdg- has been confirmed
Track | CTDB Status
1 | (2/2) Accurately ripped
2 | (2/2) Accurately ripped
3 | (2/2) Accurately ripped
4 | (2/2) Accurately ripped
5 | (2/2) Accurately ripped
6 | (2/2) Accurately ripped
7 | (2/2) Accurately ripped
8 | (2/2) Accurately ripped
9 | (2/2) Accurately ripped
10 | (2/2) Accurately ripped
11 | (2/2) Accurately ripped
12 | (2/2) Accurately ripped
13 | (2/2) Accurately ripped
14 | (2/2) Accurately ripped
15 | (2/2) Accurately ripped
16 | (2/2) Accurately ripped

==== Log checksum DDFD7C0288DF590275937B5F577E13B97C46E43F5CABFFBA2653951C77A20CFB ====

foobar2000 1.2 / Dynamic Range Meter 1.1.1
log date: 2015-09-20 17:41:58

Analyzed: Bachman Turner Overdrive / Rock classics top 100 CD 2 (1) Blue Oyster Cult / Rock classics top 100 CD 2 (2) Boston / Rock classics top 100 CD 2 (3)

DR Peak RMS Duration Track

DR10 -0.50 dB -12.12 dB 3:55 01-You ain't seen nothing yet
DR12 -0.50 dB -14.41 dB 5:07 07-Don't fear the reaper
DR9 -0.50 dB -12.10 dB 4:47 13-More than a feeling

Number of tracks: 3
Official DR value: DR10

Samplerate: 44100 Hz
Channels: 2
Bits per sample: 16
Bitrate: 891 kbps
Codec: FLAC

Statistics for: 08-The Stealer
Number of samples: 8601264
Duration: 3:15
Left Right

Peak Value: -0.92 dB -1.13 dB
Avg RMS: -13.02 dB -13.10 dB
DR channel: 10.18 dB 10.09 dB

Official DR Value: DR10

Samplerate: 44100 Hz
Channels: 2
Bits per sample: 16
Bitrate: 891 kbps
Codec: FLAC

Analyzed: Golden Earring / Rock classics top 100 CD 2 (1) Kiss / Rock classics top 100 CD 2 (2)

DR Peak RMS Duration Track

DR12 -0.50 dB -14.18 dB 3:55 03-Bombay
DR9 -2.34 dB -13.16 dB 2:46 16-Rock and roll all nite

Number of tracks: 2
Official DR value: DR11

Samplerate: 44100 Hz
Channels: 2
Bits per sample: 16
Bitrate: 891 kbps
Codec: FLAC

Statistics for: 15-Sweet Jane
Number of samples: 11980500
Duration: 4:32
Left Right

Peak Value: -0.70 dB -0.50 dB
Avg RMS: -13.95 dB -15.87 dB
DR channel: 11.71 dB 12.80 dB

Official DR Value: DR12

Samplerate: 44100 Hz
Channels: 2
Bits per sample: 16
Bitrate: 891 kbps
Codec: FLAC

Statistics for: 06-Free Bird
Number of samples: 24086832
Duration: 9:06
Left Right

Peak Value: -0.50 dB -0.50 dB
Avg RMS: -13.52 dB -13.04 dB
DR channel: 11.70 dB 11.04 dB

Official DR Value: DR11

Samplerate: 44100 Hz
Channels: 2
Bits per sample: 16
Bitrate: 891 kbps
Codec: FLAC

Analyzed: Moody Blues / Rock classics top 100 CD 2 (1) Peter Frampton / Rock classics top 100 CD 2 (2) Phill Lynott / Rock classics top 100 CD 2 (3)

DR Peak RMS Duration Track

DR8 -1.11 dB -11.87 dB 5:41 02-Question
DR7 -3.28 dB -11.89 dB 3:35 12-White sugar
DR12 -0.50 dB -14.15 dB 3:39 14-King's Call

Number of tracks: 3
Official DR value: DR9

Samplerate: 44100 Hz
Channels: 2
Bits per sample: 16
Bitrate: 891 kbps
Codec: FLAC

Analyzed: Rainbow / Rock classics top 100 CD 2 (1) Rush / Rock classics top 100 CD 2 (2)

DR Peak RMS Duration Track

DR10 -0.50 dB -11.58 dB 3:48 10-All night long
DR11 -0.69 dB -13.74 dB 3:36 11-In the mood

Number of tracks: 2
Official DR value: DR10

Samplerate: 44100 Hz
Channels: 2
Bits per sample: 16
Bitrate: 891 kbps
Codec: FLAC

Analyzed: Santana / Rock classics top 100 CD 2 (1) Steppenwolf / Rock classics top 100 CD 2 (2)

DR Peak RMS Duration Track

DR11 -0.50 dB -14.66 dB 4:10 04-She's not there
DR8 -1.26 dB -12.40 dB 4:26 09-Magic carpet ride

Number of tracks: 2
Official DR value: DR10

Samplerate: 44100 Hz
Channels: 2
Bits per sample: 16
Bitrate: 891 kbps
Codec: FLAC

foobar2000 1.2 / Dynamic Range Meter 1.1.1
log date: 2015-09-20 17:41:54

Statistics for: 05-Ramblin' Man
Number of samples: 12467952
Duration: 4:43
Left Right

Peak Value: -0.50 dB -0.50 dB
Avg RMS: -12.80 dB -12.88 dB
DR channel: 10.54 dB 10.31 dB

Official DR Value: DR10

Samplerate: 44100 Hz
Channels: 2
Bits per sample: 16
Bitrate: 891 kbps
Codec: FLAC

Exact Audio Copy V1.1 from 23. June 2015

EAC extraction logfile from 18. September 2015, 20:05

VA / Rock classics top 100 CD 3

Used drive : ASUS SDRW-08D1S-U Adapter: 1 ID: 1

Read mode : Secure
Utilize accurate stream : Yes
Defeat audio cache : Yes
Make use of C2 pointers : No

Read offset correction

: 667
Overread into Lead-In and Lead-Out : No
Fill up missing offset samples with silence : Yes
Delete leading and trailing silent blocks : No
Null samples used in CRC calculations : Yes
Used interface
: Native Win32 interface for Win NT & 2000

Used output format : User Defined Encoder
Selected bitrate : 128 kBit/s
Quality : High
Add ID3 tag : No
Command line compressor : C:\Program Files (x86)\Exact Audio Copy\Flac\flac.exe
Additional command line options : -V -8 -T "Date=%year%" -T "Genre=%genre%" %source%

TOC of the extracted CD Track | Start | Length | Start sector | End sector
--1 | 0:00.00 | 6:42.45 | 0 | 30194 2 | 6:42.45 | 4:26.70 | 30195 | 50214 3 | 11:09.40 | 3:17.39 | 50215 | 65028 4 | 14:27.04 | 3:57.33 | 65029 | 82836 5 | 18:24.37 | 3:26.13 | 82837 | 98299 6 | 21:50.50 | 3:12.58 | 98300 | 112757 7 | 25:03.33 | 3:56.38 | 112758 | 130495 8 | 28:59.71 | 4:35.26 | 130496 | 151146 9 | 33:35.22 | 4:23.29 | 151147 | 170900
10 | 37:58.51 | 4:05.68 | 170901 | 189343
11 | 42:04.44 | 3:50.65 | 189344 | 206658
12 | 45:55.34 | 4:00.46 | 206659 | 224704
13 | 49:56.05 | 3:34.47 | 224705 | 240801
14 | 53:30.52 | 3:40.49 | 240802 | 257350
15 | 57:11.26 | 3:29.59 | 257351 | 273084
16 | 60:41.10 | 3:33.59 | 273085 | 289118
17 | 64:14.69 | 2:44.44 | 289119 | 301462

Range status and errors

Selected range Filename C:\Users\Олег\Desktop\Rock Classics Top 100\CD 3\VA - Rock classics top 100 CD 3.wav Peak level 94.4 %
Extraction speed 4.1 X
Range quality 99.9 %
Test CRC 74C1F59A
Copy CRC 74C1F59A
Copy OK

No errors occurred


AccurateRip summary

Track 1 accurately ripped (confidence 2) [CF4D91F0] (AR v2)
Track 2 accurately ripped (confidence 2) [4B700A77] (AR v2)
Track 3 accurately ripped (confidence 2) [21E97CAF] (AR v2)
Track 4 accurately ripped (confidence 2) [D3DBEAAE] (AR v2)
Track 5 accurately ripped (confidence 2) CBD0E42 (AR v2)
Track 6 accurately ripped (confidence 2) [0ADC7121] (AR v2)
Track 7 accurately ripped (confidence 2) [F78E20BA] (AR v2)
Track 8 accurately ripped (confidence 2) [53D5B2AC] (AR v2)
Track 9 accurately ripped (confidence 2) [D05208FC] (AR v2)
Track 10 accurately ripped (confidence 2) 7BB3400 (AR v2)
Track 11 accurately ripped (confidence 2) [CB0E4DD1] (AR v2)
Track 12 accurately ripped (confidence 2) [033F1B0E] (AR v2)
Track 13 accurately ripped (confidence 2) [E0D3766C] (AR v2)
Track 14 accurately ripped (confidence 2) [780F1303] (AR v2)
Track 15 accurately ripped (confidence 2) [84A5DD0B] (AR v2)
Track 16 accurately ripped (confidence 2) [06CCDA12] (AR v2)
Track 17 accurately ripped (confidence 2) [3D74B298] (AR v2)

All tracks accurately ripped

End of status report

- CUETools DB Plugin V2.1.6

[CTDB TOCID: byOidcKqOCif.EmHSPcA4PocE9o-] found
Submit result: already submitted
Track | CTDB Status
1 | (2/2) Accurately ripped
2 | (2/2) Accurately ripped
3 | (2/2) Accurately ripped
4 | (2/2) Accurately ripped
5 | (2/2) Accurately ripped
6 | (2/2) Accurately ripped
7 | (2/2) Accurately ripped
8 | (2/2) Accurately ripped
9 | (2/2) Accurately ripped
10 | (2/2) Accurately ripped
11 | (2/2) Accurately ripped
12 | (2/2) Accurately ripped
13 | (2/2) Accurately ripped
14 | (2/2) Accurately ripped
15 | (2/2) Accurately ripped
16 | (2/2) Accurately ripped
17 | (2/2) Accurately ripped

==== Log checksum 49F25CF711F7E59B3C1FF342ACE0F9798817BE2D2151D68811ED64B66D47BFCF ====

foobar2000 1.2 / Dynamic Range Meter 1.1.1
log date: 2015-09-20 17:42:18

Analyzed: Boston / Rock classics top 100 CD 3 (1) Cheap Trick / Rock classics top 100 CD 3 (2)

DR Peak RMS Duration Track

DR11 -0.93 dB -14.30 dB 3:57 07-Don't look back
DR10 -2.57 dB -13.61 dB 3:35 13-I want you to want me

Number of tracks: 2
Official DR value: DR10

Samplerate: 44100 Hz
Channels: 2
Bits per sample: 16
Bitrate: 928 kbps
Codec: FLAC

Statistics for: 10-Don't bring me down
Number of samples: 10844484
Duration: 4:06
Left Right

Peak Value: -2.63 dB -2.14 dB
Avg RMS: -12.47 dB -12.07 dB
DR channel: 9.02 dB 9.03 dB

Official DR Value: DR9

Samplerate: 44100 Hz
Channels: 2
Bits per sample: 16
Bitrate: 928 kbps
Codec: FLAC

Analyzed: Focus / Rock classics top 100 CD 3 (1) Heart / Rock classics top 100 CD 3 (2) Iggy Pop / Rock classics top 100 CD 3 (3)

DR Peak RMS Duration Track

DR8 -3.53 dB -13.27 dB 6:43 01-Hocus Pocus
DR10 -2.33 dB -13.34 dB 4:23 09-Barracuda
DR11 -0.50 dB -12.49 dB 3:34 16-Real wild child (wild one)

Number of tracks: 3
Official DR value: DR9

Samplerate: 44100 Hz
Channels: 2
Bits per sample: 16
Bitrate: 928 kbps
Codec: FLAC

Analyzed: Mother's Finest / Rock classics top 100 CD 3 (1) Motorhead / Rock classics top 100 CD 3 (2)

DR Peak RMS Duration Track

DR9 -2.01 dB -12.42 dB 3:26 05-Piece of the rock
DR10 -2.77 dB -13.60 dB 2:45 17-Ace of spades

Number of tracks: 2
Official DR value: DR10

Samplerate: 44100 Hz
Channels: 2
Bits per sample: 16
Bitrate: 928 kbps
Codec: FLAC

Analyzed: Rainbow / Rock classics top 100 CD 3 (1) Ram Jam / Rock classics top 100 CD 3 (2)

DR Peak RMS Duration Track

DR11 -0.50 dB -13.76 dB 3:18 03-Since you been gone
DR8 -3.73 dB -13.22 dB 4:01 12-Black Betty

Number of tracks: 2
Official DR value: DR9

Samplerate: 44100 Hz
Channels: 2
Bits per sample: 16
Bitrate: 928 kbps
Codec: FLAC

Analyzed: Robert Palmer / Rock classics top 100 CD 3 (1) Rush / Rock classics top 100 CD 3 (2) Slade / Rock classics top 100 CD 3 (3)

DR Peak RMS Duration Track

DR10 -1.96 dB -12.71 dB 3:13 06-Bad case of loving you
DR10 -2.05 dB -13.82 dB 4:35 08-Tom Sawyer
DR10 -0.50 dB -12.30 dB 3:30 15-Lock up your daughters

Number of tracks: 3
Official DR value: DR10

Samplerate: 44100 Hz
Channels: 2
Bits per sample: 16
Bitrate: 928 kbps
Codec: FLAC

Analyzed: Status Quo / Rock classics top 100 CD 3 (1) Ted Nugent / Rock classics top 100 CD 3 (2)

DR Peak RMS Duration Track

DR11 -0.50 dB -13.63 dB 3:51 11-Whatever you want
DR11 -0.50 dB -12.71 dB 3:41 14-Cat scratch fever

Number of tracks: 2
Official DR value: DR11

Samplerate: 44100 Hz
Channels: 2
Bits per sample: 16
Bitrate: 928 kbps
Codec: FLAC

Analyzed: Thin Lizzy / Rock classics top 100 CD 3 (1) Toto / Rock classics top 100 CD 3 (2)

DR Peak RMS Duration Track

DR10 -0.50 dB -11.93 dB 4:27 02-The boys are back in town
DR9 -1.04 dB -12.14 dB 3:57 04-Hold the line

Number of tracks: 2
Official DR value: DR10

Samplerate: 44100 Hz
Channels: 2
Bits per sample: 16
Bitrate: 928 kbps
Codec: FLAC

Exact Audio Copy V1.1 from 23. June 2015

EAC extraction logfile from 19. September 2015, 8:07

VA / Rock classics top 100 CD 4

Used drive : ASUS SDRW-08D1S-U Adapter: 1 ID: 1

Read mode : Secure
Utilize accurate stream : Yes
Defeat audio cache : Yes
Make use of C2 pointers : No

Read offset correction

: 667
Overread into Lead-In and Lead-Out : No
Fill up missing offset samples with silence : Yes
Delete leading and trailing silent blocks : No
Null samples used in CRC calculations : Yes
Used interface
: Native Win32 interface for Win NT & 2000

Used output format : User Defined Encoder
Selected bitrate : 128 kBit/s
Quality : High
Add ID3 tag : No
Command line compressor : C:\Program Files (x86)\Exact Audio Copy\Flac\flac.exe
Additional command line options : -V -8 -T "Date=%year%" -T "Genre=%genre%" %source%

TOC of the extracted CD Track | Start | Length | Start sector | End sector
--1 | 0:00.00 | 4:30.41 | 0 | 20290 2 | 4:30.41 | 3:46.36 | 20291 | 37276 3 | 8:17.02 | 5:45.04 | 37277 | 63155 4 | 14:02.06 | 3:31.07 | 63156 | 78987 5 | 17:33.13 | 2:20.04 | 78988 | 89491 6 | 19:53.17 | 5:05.04 | 89492 | 112370 7 | 24:58.21 | 3:45.64 | 112371 | 129309 8 | 28:44.10 | 4:08.42 | 129310 | 147951 9 | 32:52.52 | 4:07.14 | 147952 | 166490
10 | 36:59.66 | 5:10.36 | 166491 | 189776
11 | 42:10.27 | 4:12.00 | 189777 | 208676
12 | 46:22.27 | 3:30.25 | 208677 | 224451
13 | 49:52.52 | 4:05.36 | 224452 | 242862
14 | 53:58.13 | 3:43.01 | 242863 | 259588
15 | 57:41.14 | 3:10.40 | 259589 | 273878
16 | 60:51.54 | 3:40.48 | 273879 | 290426
17 | 64:32.27 | 2:37.01 | 290427 | 302202

Range status and errors

Selected range Filename C:\Users\Олег\Desktop\Rock Classics Top 100\CD 4\VA - Rock classics top 100 CD 4.wav Peak level 94.4 %
Extraction speed 4.0 X
Range quality 100.0 %
Test CRC E09BCC97
Copy CRC E09BCC97
Copy OK

No errors occurred


AccurateRip summary

Track 1 accurately ripped (confidence 2) [D6A52D45] (AR v2)
Track 2 accurately ripped (confidence 2) [895E702B] (AR v2)
Track 3 accurately ripped (confidence 2) [03855E8A] (AR v2)
Track 4 accurately ripped (confidence 2) [944FCA96] (AR v2)
Track 5 accurately ripped (confidence 2) [41423CBA] (AR v2)
Track 6 accurately ripped (confidence 2) [203B040D] (AR v2)
Track 7 accurately ripped (confidence 2) [873957FD] (AR v2)
Track 8 accurately ripped (confidence 2) [0132959A] (AR v2)
Track 9 accurately ripped (confidence 2) [16EB6F08] (AR v2)
Track 10 accurately ripped (confidence 2) [4F8BF025] (AR v2)
Track 11 accurately ripped (confidence 2) 8B45D53 (AR v2)
Track 12 accurately ripped (confidence 2) [F50116B4] (AR v2)
Track 13 accurately ripped (confidence 2) [F01D02B1] (AR v2)
Track 14 accurately ripped (confidence 2) [441FB74A] (AR v2)
Track 15 accurately ripped (confidence 2) [FE019EBD] (AR v2)
Track 16 accurately ripped (confidence 2) [D9571F3A] (AR v2)
Track 17 accurately ripped (confidence 2) [5719F86E] (AR v2)

All tracks accurately ripped

End of status report

- CUETools DB Plugin V2.1.6

[CTDB TOCID: hlZkq9GdN1rUGH68RlvP1WQF99k-] found
Submit result: hlZkq9GdN1rUGH68RlvP1WQF99k- has been confirmed
Track | CTDB Status
1 | (2/2) Accurately ripped
2 | (2/2) Accurately ripped
3 | (2/2) Accurately ripped
4 | (2/2) Accurately ripped
5 | (2/2) Accurately ripped
6 | (2/2) Accurately ripped
7 | (2/2) Accurately ripped
8 | (2/2) Accurately ripped
9 | (2/2) Accurately ripped
10 | (2/2) Accurately ripped
11 | (2/2) Accurately ripped
12 | (2/2) Accurately ripped
13 | (2/2) Accurately ripped
14 | (2/2) Accurately ripped
15 | (2/2) Accurately ripped
16 | (2/2) Accurately ripped
17 | (2/2) Accurately ripped

==== Log checksum 9963441FCA2C96014CECD183F298C2958F521EF5F0BCF7C3A470CAF4570A2EE5 ====

foobar2000 1.2 / Dynamic Range Meter 1.1.1
log date: 2015-09-20 17:42:40

Analyzed: Accept / Rock classics top 100 CD 4 (1) Alice Cooper / Rock classics top 100 CD 4 (2)

DR Peak RMS Duration Track

DR11 -1.96 dB -14.13 dB 5:45 03-Balls To The Wall
DR10 -2.46 dB -14.14 dB 4:07 09-Freedom

Number of tracks: 2
Official DR value: DR10

Samplerate: 44100 Hz
Channels: 2
Bits per sample: 16
Bitrate: 938 kbps
Codec: FLAC

Analyzed: Asia / Rock classics top 100 CD 4 (1) Deep Purple / Rock classics top 100 CD 4 (2)

DR Peak RMS Duration Track

DR9 -2.18 dB -12.94 dB 3:46 07-Heat Of The Moment
DR11 -0.80 dB -13.97 dB 3:41 16-Black&White

Number of tracks: 2
Official DR value: DR10

Samplerate: 44100 Hz
Channels: 2
Bits per sample: 16
Bitrate: 938 kbps
Codec: FLAC

Statistics for: 08-Hungry For Heaven
Number of samples: 10961496
Duration: 4:09
Left Right

Peak Value: -0.50 dB -0.50 dB
Avg RMS: -12.10 dB -12.14 dB
DR channel: 10.07 dB 10.14 dB

Official DR Value: DR10

Samplerate: 44100 Hz
Channels: 2
Bits per sample: 16
Bitrate: 938 kbps
Codec: FLAC

Analyzed: Eddie Money / Rock classics top 100 CD 4 (1) Europe / Rock classics top 100 CD 4 (2) Journey / Rock classics top 100 CD 4 (3) Judas Priest / Rock classics top 100 CD 4 (4)

DR Peak RMS Duration Track

DR9 -3.52 dB -13.55 dB 3:31 04-Take Me Home Tonight
DR9 -1.96 dB -13.47 dB 5:10 10-The Final Countdown
DR12 -0.50 dB -14.21 dB 4:12 11-Wheel In The Sky
DR12 -0.50 dB -13.76 dB 3:30 12-Living After Midnight

Number of tracks: 4
Official DR value: DR10

Samplerate: 44100 Hz
Channels: 2
Bits per sample: 16
Bitrate: 938 kbps
Codec: FLAC

Analyzed: Kiss / Rock classics top 100 CD 4 (1) REO Speedwagon / Rock classics top 100 CD 4 (2) Spinal Tap / Rock classics top 100 CD 4 (3)

DR Peak RMS Duration Track

DR8 -3.66 dB -13.76 dB 4:31 01-I Was Made For Lovin You
DR11 -0.50 dB -12.90 dB 3:46 02-Don't Let Him Go
DR11 -0.50 dB -13.48 dB 2:37 17-Tonight I'M Gonna Rock You Tonight

Number of tracks: 3
Official DR value: DR10

Samplerate: 44100 Hz
Channels: 2
Bits per sample: 16
Bitrate: 938 kbps
Codec: FLAC

Analyzed: Survivor / Rock classics top 100 CD 4 (1) The Outfield / Rock classics top 100 CD 4 (2)

DR Peak RMS Duration Track

DR13 -0.66 dB -15.28 dB 4:05 13-Eye Of The Tiger
DR8 -2.37 dB -12.73 dB 3:43 14-Your Love

Number of tracks: 2
Official DR value: DR11

Samplerate: 44100 Hz
Channels: 2
Bits per sample: 16
Bitrate: 938 kbps
Codec: FLAC

Analyzed: The Runaways / Rock classics top 100 CD 4 (1) Warlock / Rock classics top 100 CD 4 (2)

DR Peak RMS Duration Track

DR11 -0.88 dB -13.27 dB 2:20 05-Cherry Bomb
DR10 -0.50 dB -11.78 dB 3:11 15-Fight For Rock

Number of tracks: 2
Official DR value: DR10

Samplerate: 44100 Hz
Channels: 2
Bits per sample: 16
Bitrate: 938 kbps
Codec: FLAC

Statistics for: 06-Dirty Girl
Number of samples: 13452852
Duration: 5:05
Left Right

Peak Value: -0.50 dB -0.50 dB
Avg RMS: -15.00 dB -15.05 dB
DR channel: 13.62 dB 13.32 dB

Official DR Value: DR13

Samplerate: 44100 Hz
Channels: 2
Bits per sample: 16
Bitrate: 938 kbps
Codec: FLAC

Exact Audio Copy V1.1 from 23. June 2015

EAC extraction logfile from 19. September 2015, 9:04

VA / Rock classics top 100 CD 5

Used drive : ASUS SDRW-08D1S-U Adapter: 1 ID: 1

Read mode : Secure
Utilize accurate stream : Yes
Defeat audio cache : Yes
Make use of C2 pointers : No

Read offset correction

: 667
Overread into Lead-In and Lead-Out : No
Fill up missing offset samples with silence : Yes
Delete leading and trailing silent blocks : No
Null samples used in CRC calculations : Yes
Used interface
: Native Win32 interface for Win NT & 2000

Used output format : User Defined Encoder
Selected bitrate : 128 kBit/s
Quality : High
Add ID3 tag : No
Command line compressor : C:\Program Files (x86)\Exact Audio Copy\Flac\flac.exe
Additional command line options : -V -8 -T "Date=%year%" -T "Genre=%genre%" %source%

TOC of the extracted CD Track | Start | Length | Start sector | End sector
--1 | 0:00.00 | 3:30.24 | 0 | 15773 2 | 3:30.24 | 4:06.18 | 15774 | 34241 3 | 7:36.42 | 4:13.66 | 34242 | 53282 4 | 11:50.33 | 4:08.21 | 53283 | 71903 5 | 15:58.54 | 3:44.59 | 71904 | 88762 6 | 19:43.38 | 4:31.74 | 88763 | 109161 7 | 24:15.37 | 4:23.23 | 109162 | 128909 8 | 28:38.60 | 4:45.24 | 128910 | 150308 9 | 33:24.09 | 3:13.19 | 150309 | 164802
10 | 36:37.28 | 3:41.57 | 164803 | 181434
11 | 40:19.10 | 3:34.48 | 181435 | 197532
12 | 43:53.58 | 4:05.48 | 197533 | 215955
13 | 47:59.31 | 4:07.47 | 215956 | 234527
14 | 52:07.03 | 4:45.13 | 234528 | 255915
15 | 56:52.16 | 3:34.63 | 255916 | 272028
16 | 60:27.04 | 4:43.31 | 272029 | 293284

Range status and errors

Selected range Filename C:\Users\Олег\Desktop\Rock Classics Top 100\CD 5\VA - Rock classics top 100 CD 5.wav Peak level 94.4 %
Extraction speed 4.1 X
Range quality 100.0 %
Test CRC C4A8BAF0
Copy CRC C4A8BAF0
Copy OK

No errors occurred


AccurateRip summary

Track 1 accurately ripped (confidence 2) [87D58DA3] (AR v2)
Track 2 accurately ripped (confidence 2) [F60C2CE6] (AR v2)
Track 3 accurately ripped (confidence 2) [CF49778B] (AR v2)
Track 4 accurately ripped (confidence 2) [7E0FEF54] (AR v2)
Track 5 accurately ripped (confidence 2) [94B4E0C1] (AR v2)
Track 6 accurately ripped (confidence 2) [854F5BC2] (AR v2)
Track 7 accurately ripped (confidence 2) [AC5D2734] (AR v2)
Track 8 accurately ripped (confidence 2) [A4ED9A03] (AR v2)
Track 9 accurately ripped (confidence 2) [D4C80C15] (AR v2)
Track 10 accurately ripped (confidence 2) [61DE65D3] (AR v2)
Track 11 accurately ripped (confidence 2) [CA660DCA] (AR v2)
Track 12 accurately ripped (confidence 2) [40233539] (AR v2)
Track 13 accurately ripped (confidence 2) [FD63CE48] (AR v2)
Track 14 accurately ripped (confidence 2) [D861EFF9] (AR v2)
Track 15 accurately ripped (confidence 2) [100E9603] (AR v2)
Track 16 accurately ripped (confidence 2) [4A666284] (AR v2)

All tracks accurately ripped

End of status report

- CUETools DB Plugin V2.1.6

[CTDB TOCID: fQO9.RgqVJBEJrLhI4g2eIoGuU0-] found
Submit result: fQO9.RgqVJBEJrLhI4g2eIoGuU0- has been confirmed
Track | CTDB Status
1 | (1/1) Accurately ripped
2 | (1/1) Accurately ripped
3 | (1/1) Accurately ripped
4 | (1/1) Accurately ripped
5 | (1/1) Accurately ripped
6 | (1/1) Accurately ripped
7 | (1/1) Accurately ripped
8 | (1/1) Accurately ripped
9 | (1/1) Accurately ripped
10 | (1/1) Accurately ripped
11 | (1/1) Accurately ripped
12 | (1/1) Accurately ripped
13 | (1/1) Accurately ripped
14 | (1/1) Accurately ripped
15 | (1/1) Accurately ripped
16 | (1/1) Accurately ripped

==== Log checksum EDAA8C977D504059B3628C78A9B449573E54AC45AC66EB235729E06D21524F9D ====

foobar2000 1.2 / Dynamic Range Meter 1.1.1
log date: 2015-09-20 17:43:03

Analyzed: Europe / Rock classics top 100 CD 5 (1) Kingdom Come / Rock classics top 100 CD 5 (2) Y & T / Rock classics top 100 CD 5 (3)

DR Peak RMS Duration Track

DR9 -1.96 dB -12.59 dB 4:08 04-Rock The Night
DR13 -0.50 dB -14.58 dB 4:23 07- Get It On
DR12 -0.50 dB -13.20 dB 4:45 08-Rescue Me

Number of tracks: 3
Official DR value: DR11

Samplerate: 44100 Hz
Channels: 2
Bits per sample: 16
Bitrate: 944 kbps
Codec: FLAC

Analyzed: Alice Cooper / Rock classics top 100 CD 5 (1) Bad English / Rock classics top 100 CD 5 (2)

DR Peak RMS Duration Track

DR9 -2.05 dB -12.61 dB 4:14 03-Poison
DR11 -2.31 dB -14.42 dB 4:08 13-Straight To Your Heart

Number of tracks: 2
Official DR value: DR10

Samplerate: 44100 Hz
Channels: 2
Bits per sample: 16
Bitrate: 944 kbps
Codec: FLAC

Analyzed: Cinderella / Rock classics top 100 CD 5 (1) Dio / Rock classics top 100 CD 5 (2) Jackyl / Rock classics top 100 CD 5 (3)

DR Peak RMS Duration Track

DR7 -3.53 dB -12.12 dB 3:45 05-Shake Me
DR10 -0.50 dB -12.27 dB 4:32 06-Rock N Roll Children
DR11 -0.57 dB -13.23 dB 3:35 15-The Lumberjack

Number of tracks: 3
Official DR value: DR9

Samplerate: 44100 Hz
Channels: 2
Bits per sample: 16
Bitrate: 944 kbps
Codec: FLAC

Analyzed: Little Angels / Rock classics top 100 CD 5 (1) Motley Crue / Rock classics top 100 CD 5 (2)

DR Peak RMS Duration Track

DR10 -2.02 dB -13.39 dB 3:13 09-She s A Little Angel
DR7 -4.31 dB -12.71 dB 4:43 16-Kickstart My Heart

Number of tracks: 2
Official DR value: DR8

Samplerate: 44100 Hz
Channels: 2
Bits per sample: 16
Bitrate: 944 kbps
Codec: FLAC

Statistics for: 14-Tease Me Please Me
Number of samples: 12576144
Duration: 4:45
Left Right

Peak Value: -0.82 dB -1.10 dB
Avg RMS: -12.83 dB -13.48 dB
DR channel: 10.55 dB 10.90 dB

Official DR Value: DR11

Samplerate: 44100 Hz
Channels: 2
Bits per sample: 16
Bitrate: 944 kbps
Codec: FLAC

Statistics for: 12-Stranger Than Paradise
Number of samples: 10832724
Duration: 4:06
Left Right

Peak Value: -1.08 dB -0.50 dB
Avg RMS: -13.66 dB -13.40 dB
DR channel: 10.34 dB 11.12 dB

Official DR Value: DR11

Samplerate: 44100 Hz
Channels: 2
Bits per sample: 16
Bitrate: 944 kbps
Codec: FLAC

Analyzed: Steelheart / Rock classics top 100 CD 5 (1) Tesla / Rock classics top 100 CD 5 (2)

DR Peak RMS Duration Track

DR11 -0.50 dB -12.93 dB 3:42 10-Love Ain t Easy
DR9 -0.50 dB -12.20 dB 3:35 11-Ez Come Ez Go

Number of tracks: 2
Official DR value: DR10

Samplerate: 44100 Hz
Channels: 2
Bits per sample: 16
Bitrate: 944 kbps
Codec: FLAC

Analyzed: The Beastie Boys / Rock classics top 100 CD 5 (1) Yngwie Malmsteen / Rock classics top 100 CD 5 (2)

DR Peak RMS Duration Track

DR8 -2.61 dB -12.44 dB 3:30 01-(You Gotta) Fight For Your Right (To Party)
DR10 -0.50 dB -12.37 dB 4:06 02-Heaven Tonight

Number of tracks: 2
Official DR value: DR9

Samplerate: 44100 Hz
Channels: 2
Bits per sample: 16
Bitrate: 944 kbps
Codec: FLAC

Exact Audio Copy V1.1 from 23. June 2015

EAC extraction logfile from 19. September 2015, 12:17

VA / Rock classics top 100 CD 6

Used drive : ASUS SDRW-08D1S-U Adapter: 1 ID: 1

Read mode : Secure
Utilize accurate stream : Yes
Defeat audio cache : Yes
Make use of C2 pointers : No

Read offset correction

: 667
Overread into Lead-In and Lead-Out : No
Fill up missing offset samples with silence : Yes
Delete leading and trailing silent blocks : No
Null samples used in CRC calculations : Yes
Used interface
: Native Win32 interface for Win NT & 2000

Used output format : User Defined Encoder
Selected bitrate : 128 kBit/s
Quality : High
Add ID3 tag : No
Command line compressor : C:\Program Files (x86)\Exact Audio Copy\Flac\flac.exe
Additional command line options : -V -8 -T "Date=%year%" -T "Genre=%genre%" %source%

TOC of the extracted CD Track | Start | Length | Start sector | End sector
--1 | 0:00.00 | 4:25.36 | 0 | 19910 2 | 4:25.36 | 5:44.71 | 19911 | 45781 3 | 10:10.32 | 2:56.63 | 45782 | 59044 4 | 13:07.20 | 4:01.03 | 59045 | 77122 5 | 17:08.23 | 4:58.61 | 77123 | 99533 6 | 22:07.09 | 4:56.26 | 99534 | 121759 7 | 27:03.35 | 3:39.48 | 121760 | 138232 8 | 30:43.08 | 4:17.30 | 138233 | 157537 9 | 35:00.38 | 3:58.47 | 157538 | 175434
10 | 38:59.10 | 4:08.03 | 175435 | 194037
11 | 43:07.13 | 4:08.36 | 194038 | 212673
12 | 47:15.49 | 4:48.26 | 212674 | 234299
13 | 52:04.00 | 3:56.18 | 234300 | 252017
14 | 56:00.18 | 2:35.49 | 252018 | 263691
15 | 58:35.67 | 2:41.50 | 263692 | 275816
16 | 61:17.42 | 3:52.62 | 275817 | 293278
17 | 65:10.29 | 2:43.21 | 293279 | 305524

Range status and errors

Selected range Filename C:\Users\Олег\Desktop\Rock Classics Top 100\CD 6\VA - Rock classics top 100 CD 6.wav Peak level 94.4 %
Extraction speed 3.2 X
Range quality 99.9 %
Test CRC 7C8E4196
Copy CRC 7C8E4196
Copy OK

No errors occurred


AccurateRip summary

Track 1 accurately ripped (confidence 2) [502FAB4C] (AR v2)
Track 2 accurately ripped (confidence 2) [EB057AB5] (AR v2)
Track 3 accurately ripped (confidence 2) [C6186C08] (AR v2)
Track 4 accurately ripped (confidence 2) [61104B49] (AR v2)
Track 5 accurately ripped (confidence 2) [01158E6A] (AR v2)
Track 6 accurately ripped (confidence 2) [5EB8ADF6] (AR v2)
Track 7 accurately ripped (confidence 2) [7F3E5DC0] (AR v2)
Track 8 accurately ripped (confidence 2) [C300B12D] (AR v2)
Track 9 accurately ripped (confidence 2) [08E64D67] (AR v2)
Track 10 accurately ripped (confidence 2) A321331 (AR v2)
Track 11 accurately ripped (confidence 2) [9B6AB15F] (AR v2)
Track 12 accurately ripped (confidence 2) [79406073] (AR v2)
Track 13 accurately ripped (confidence 2) [60B56DB8] (AR v2)
Track 14 accurately ripped (confidence 2) A13EFF0 (AR v2)
Track 15 accurately ripped (confidence 2) [62946DA4] (AR v2)
Track 16 accurately ripped (confidence 2) [64D491EF] (AR v2)
Track 17 accurately ripped (confidence 2) [206893B2] (AR v2)

All tracks accurately ripped

End of status report

- CUETools DB Plugin V2.1.6

[CTDB TOCID: O6H_.9jZZYA2W6qqcik0IZBVDFo-] found
Submit result: O6H_.9jZZYA2W6qqcik0IZBVDFo- has been confirmed
Track | CTDB Status
1 | (1/1) Accurately ripped
2 | (1/1) Accurately ripped
3 | (1/1) Accurately ripped
4 | (1/1) Accurately ripped
5 | (1/1) Accurately ripped
6 | (1/1) Accurately ripped
7 | (1/1) Accurately ripped
8 | (1/1) Accurately ripped
9 | (1/1) Accurately ripped
10 | (1/1) Accurately ripped
11 | (1/1) Accurately ripped
12 | (1/1) Accurately ripped
13 | (1/1) Accurately ripped
14 | (1/1) Accurately ripped
15 | (1/1) Accurately ripped
16 | (1/1) Accurately ripped
17 | (1/1) Accurately ripped

==== Log checksum CD2FB4CB26CD7193F9F9EE1E05922B17F4CE378710738820DEF1E53882DAEBFC ====

foobar2000 1.2 / Dynamic Range Meter 1.1.1
log date: 2015-09-20 17:43:22

Analyzed: Cinderella / Rock classics top 100 CD 6 (1) Dilana Smith / Rock classics top 100 CD 6 (2)

DR Peak RMS Duration Track

DR7 -5.05 dB -13.31 dB 4:01 04-Gypsy Road
DR5 -6.63 dB -13.70 dB 3:59 09-Do You Know

Number of tracks: 2
Official DR value: DR6

Samplerate: 44100 Hz
Channels: 2
Bits per sample: 16
Bitrate: 958 kbps
Codec: FLAC

Analyzed: Extreme / Rock classics top 100 CD 6 (1) Giant / Rock classics top 100 CD 6 (2) Gun / Rock classics top 100 CD 6 (3) Hole / Rock classics top 100 CD 6 (4)

DR Peak RMS Duration Track

DR11 -0.50 dB -12.92 dB 4:25 01-Get The Funk Out
DR11 -0.50 dB -13.59 dB 5:45 02-I m A Believer
DR10 -4.23 dB -15.32 dB 4:17 08-Word Up
DR7 -3.53 dB -12.19 dB 2:43 17-Celebrity Skin

Number of tracks: 4
Official DR value: DR10

Samplerate: 44100 Hz
Channels: 2
Bits per sample: 16
Bitrate: 958 kbps
Codec: FLAC

Analyzed: Kingdome Come / Rock classics top 100 CD 6 (1) Live / Rock classics top 100 CD 6 (2)

DR Peak RMS Duration Track

DR13 -0.50 dB -14.53 dB 3:40 07-Do You Like It
DR8 -3.54 dB -13.87 dB 3:53 16-I Alone

Number of tracks: 2
Official DR value: DR10

Samplerate: 44100 Hz
Channels: 2
Bits per sample: 16
Bitrate: 958 kbps
Codec: FLAC

Analyzed: Living Colour / Rock classics top 100 CD 6 (1) Motley Crue / Rock classics top 100 CD 6 (2) Nashville Pussy / Rock classics top 100 CD 6 (3)

DR Peak RMS Duration Track

DR12 -0.50 dB -14.29 dB 4:56 06-Cult Of Personality
DR7 -3.62 dB -12.31 dB 4:48 12-Primal Scream
DR6 -5.30 dB -12.43 dB 2:36 14-High As Hell

Number of tracks: 3
Official DR value: DR9

Samplerate: 44100 Hz
Channels: 2
Bits per sample: 16
Bitrate: 958 kbps
Codec: FLAC

Statistics for: 11-Spoonman
Number of samples: 10957968
Duration: 4:08
Left Right

Peak Value: -0.89 dB -0.89 dB
Avg RMS: -12.40 dB -12.18 dB
DR channel: 10.38 dB 10.24 dB

Official DR Value: DR10

Samplerate: 44100 Hz
Channels: 2
Bits per sample: 16
Bitrate: 958 kbps
Codec: FLAC

Statistics for: 05-Little Suzi
Number of samples: 13177668
Duration: 4:59
Left Right

Peak Value: -0.50 dB -0.50 dB
Avg RMS: -13.15 dB -13.45 dB
DR channel: 10.49 dB 10.69 dB

Official DR Value: DR11

Samplerate: 44100 Hz
Channels: 2
Bits per sample: 16
Bitrate: 958 kbps
Codec: FLAC

Analyzed: TNT / Rock classics top 100 CD 6 (1) Ugly Kid Joe / Rock classics top 100 CD 6 (2) Weezer / Rock classics top 100 CD 6 (3)

DR Peak RMS Duration Track

DR10 -0.50 dB -12.05 dB 2:57 03-10.000 Lovers
DR12 -0.50 dB -13.88 dB 4:08 10-Everything About You
DR7 -3.52 dB -11.25 dB 2:42 15-Buddy Holly

Number of tracks: 3
Official DR value: DR10

Samplerate: 44100 Hz
Channels: 2
Bits per sample: 16
Bitrate: 958 kbps
Codec: FLAC

VA - Rock Classics Top 100 (2007) 6CD Box Set

All thanks to original releaser - Alex Fal
Password: designol

DOWNLOAD LINKS
Buy Premium From My Links To Get Resumable Support & Max Speed & To Support Me

Rapidgator.net:
http://rapidgator.net/file/1bbe27e97bad871353c285b1e0ebd0f3/gnk5q.VARockClassics100.CD1.rar.html
http://rapidgator.net/file/5e190c565511dd673c919f7e8c01b8dd/gnk5q.VARockClassics100.CD2.rar.html
http://rapidgator.net/file/10c11fd41c64436dc53bd15f3d6c5f3b/gnk5q.VARockClassics100.CD3.rar.html
http://rapidgator.net/file/6834a38ace624294736fe2f433797128/gnk5q.VARockClassics100.CD4.rar.html
http://rapidgator.net/file/5525de0fb29f568efed1add06f46c79c/gnk5q.VARockClassics100.CD5.rar.html
http://rapidgator.net/file/2ca2ff78d17357dff9bd4f46975cc356/gnk5q.VARockClassics100.CD6.rar.html

Uploaded.net:
http://uploaded.net/file/wfbx4wtn/gnk5q.VARockClassics100.CD1.rar
http://uploaded.net/file/2ojy6oim/gnk5q.VARockClassics100.CD2.rar
http://uploaded.net/file/t5guydcx/gnk5q.VARockClassics100.CD3.rar
http://uploaded.net/file/hk2ixgf5/gnk5q.VARockClassics100.CD4.rar
http://uploaded.net/file/2xibc58x/gnk5q.VARockClassics100.CD5.rar
http://uploaded.net/file/wqmrfild/gnk5q.VARockClassics100.CD6.rar

nitroflare_com:
http://nitroflare.com/view/30180A450410FB8/gnk5q.VARockClassics100.CD1.rar
http://nitroflare.com/view/E1E3F53E9FF6667/gnk5q.VARockClassics100.CD2.rar
http://nitroflare.com/view/669DDFE882D9548/gnk5q.VARockClassics100.CD3.rar
Direct Download

Tags: Classics

VA - Rock Classics Top 100 (2007) 6CD Box Set Download via Hotfile Rapidshare Fileserve Megaupload & FileSonic, VA - Rock Classics Top 100 (2007) 6CD Box Set free torrent downloads included crack, serial, keygen.VA - Rock Classics Top 100 (2007) 6CD Box Set Fast Download via Rapidshare Hotfile Fileserve Filesonic Megaupload, VA - Rock Classics Top 100 (2007) 6CD Box Set Torrents and Emule Download or anything related.
Leave a Comment
Your Name:
E-Mail:
Add Comments:

Enter Code: