The Grass Roots - Anthology 1965-1975 (1991)

Download Now

The Grass Roots - Anthology 1965-1975 (1991)

The Grass Roots - Anthology 1965-1975 (1991)
EAC | Flac(Image) + Cue + Log & MP3 CBR 320Kbps
2CD | Rhino, R2 70746 | ~ 692 or 246 Mb | Scans(jpg) -> 44 Mb
Classic Rock

"It may be expensive, and two CDs of their work may seem like overkill, but this double-disc set is the one to get. Not only does it contain every hit and each single, and every B-side, from 1965's "Where Were You When I Needed You" through 1975's glorious "Mamacita," but the sound is extraordinary, far better than on any of the other hits compilations, and provides several revelations about the quality of their work..."


Tracklist CD1:

01. Mr. Jones allad of Thin Man (Dylan) (2:57)
02. You're a Lonely Girl (Barri, Sloan) (2:25)
03. Where Were You When I Needed You (Grass Roots) (3:04)
04. Only When You're Lonely (Barri, Sloan) (3:11)
05. This Is What I Was Made For (Barri, Sloan) (2:24)
06. Lollipop Train [You Never Had It So Good] (Barri, Sloan) (3:14)
07. Tip of My Tongue (Barri, Sloan) (2:34)
08. Let's Live for Today (Julien, Mogull, Shapiro) (2:51)
09. Things I Should Have Said (Grass Roots) (2:34)
10. Out of Touch (Barri, Sloan) (2:55)
11. Is It Any Wonder (Barri, Sloan) (2:48)
12. Wake Up, Wake Up (Barri, Sloan) (3:04)
13. Melody for You (Sloan) (2:58)
14. Feelings (Coonce, Entner) (3:08)
15. Here's Where You Belong (Barri, Sloan) (3:28)
16. Midnight Confessions (Grass Roots) (2:47)
17. Bella Linda (Barri, Battisti, Gross, Mogul) (3:07)
18. Lady Pleasure (2:57)

Exact Audio Copy V1.0 beta 3 from 29. August 2011

EAC extraction logfile from 19. July 2014, 20:52

The Grass Roots / The Grass Roots Anthology: 1965-1975

Used drive : _NEC DVD_RW ND-3500AG Adapter: 1 ID: 0

Read mode : Secure
Utilize accurate stream : Yes
Defeat audio cache : Yes
Make use of C2 pointers : No

Read offset correction

: 48
Overread into Lead-In and Lead-Out : No
Fill up missing offset samples with silence : Yes
Delete leading and trailing silent blocks : No
Null samples used in CRC calculations : Yes
Used interface
: Native Win32 interface for Win NT & 2000
Gap handling
: Appended to previous track

Used output format : User Defined Encoder
Selected bitrate : 128 kBit/s
Quality : High
Add ID3 tag : No
Command line compressor : C:\Program Files\FLAC\flac.exe
Additional command line options : -8 -V -T "TITLE=%title%" -T "ARTIST=%artist%" -T "ALBUMARTIST=%albumartist%" -T "ALBUM=%albumtitle%" -T "DATE=%year%" -T "TRACKNUMBER=%tracknr%" -T "TRACKTOTAL=%numtracks%" -T "GENRE=%genre%" -T "COMMENT=%comment%" -T "PERFORMER=%albuminterpret%" -T "COMPOSER=%composer%" %source% -o %dest%

TOC of the extracted CD Track | Start | Length | Start sector | End sector
--1 | 0:00.00 | 2:57.02 | 0 | 13276 2 | 2:57.02 | 2:25.08 | 13277 | 24159 3 | 5:22.10 | 3:04.15 | 24160 | 37974 4 | 8:26.25 | 3:11.52 | 37975 | 52351 5 | 11:38.02 | 2:24.73 | 52352 | 63224 6 | 14:03.00 | 3:14.70 | 63225 | 77844 7 | 17:17.70 | 2:34.65 | 77845 | 89459 8 | 19:52.60 | 2:51.40 | 89460 | 102324 9 | 22:44.25 | 2:34.12 | 102325 | 113886
10 | 25:18.37 | 2:55.03 | 113887 | 127014
11 | 28:13.40 | 2:48.30 | 127015 | 139644
12 | 31:01.70 | 3:04.27 | 139645 | 153471
13 | 34:06.22 | 2:58.70 | 153472 | 166891
14 | 37:05.17 | 3:08.00 | 166892 | 180991
15 | 40:13.17 | 3:28.13 | 180992 | 196604
16 | 43:41.30 | 2:47.37 | 196605 | 209166
17 | 46:28.67 | 3:07.08 | 209167 | 223199
18 | 49:36.00 | 2:57.30 | 223200 | 236504

Track 1 Filename D:\rps\gr1\01 - Mr. Jones (Ballad of a Thin Man).wav Pre-gap length 0:00:02.00 Peak level 100.0 %
Extraction speed 3.3 X
Track quality 100.0 %
Test CRC ADC4D704
Copy CRC ADC4D704
Accurately ripped (confidence 2) [1F26B2A7] (AR v2)
Copy OK

Track 2 Filename D:\rps\gr1\02 - You're a Lonely Girl.wav Pre-gap length 0:00:02.35 Peak level 100.0 %
Extraction speed 2.6 X
Track quality 99.9 %
Test CRC 61B4A353
Copy CRC 61B4A353
Accurately ripped (confidence 2) [CCB6EE37] (AR v2)
Copy OK

Track 3 Filename D:\rps\gr1\03 - Where Were You When I Needed You.wav Pre-gap length 0:00:02.28 Peak level 99.9 %
Extraction speed 3.8 X
Track quality 100.0 %
Test CRC 921E255E
Copy CRC 921E255E
Accurately ripped (confidence 2) [525798F6] (AR v2)
Copy OK

Track 4 Filename D:\rps\gr1\04 - Only When You're Lonely.wav Pre-gap length 0:00:02.45 Peak level 100.0 %
Extraction speed 4.1 X
Track quality 100.0 %
Test CRC 44A215E0
Copy CRC 44A215E0
Accurately ripped (confidence 2) [6A2839E1] (AR v2)
Copy OK

Track 5 Filename D:\rps\gr1\05 - This Is What I Was Made For.wav Pre-gap length 0:00:02.02 Peak level 95.5 %
Extraction speed 4.1 X
Track quality 100.0 %
Test CRC 1DDA91C8
Copy CRC 1DDA91C8
Accurately ripped (confidence 2) [CFECC3DA] (AR v2)
Copy OK

Track 6 Filename D:\rps\gr1\06 - Lollipop Train.wav Pre-gap length 0:00:02.38 Peak level 100.0 %
Extraction speed 4.6 X
Track quality 100.0 %
Test CRC BA3D57AF
Copy CRC BA3D57AF
Accurately ripped (confidence 2) [D2D42130] (AR v2)
Copy OK

Track 7 Filename D:\rps\gr1\07 - Tip of My Tongue.wav Pre-gap length 0:00:01.68 Peak level 92.6 %
Extraction speed 4.5 X
Track quality 100.0 %
Test CRC 989C762C
Copy CRC 989C762C
Accurately ripped (confidence 2) [D5D7A1A3] (AR v2)
Copy OK

Track 8 Filename D:\rps\gr1\08 - Let's Live for Today.wav Pre-gap length 0:00:02.08 Peak level 100.0 %
Extraction speed 4.8 X
Track quality 100.0 %
Test CRC 894A84F8
Copy CRC 894A84F8
Accurately ripped (confidence 2) [E876B078] (AR v2)
Copy OK

Track 9 Filename D:\rps\gr1\09 - Things I Should Have Said.wav Pre-gap length 0:00:03.25 Peak level 100.0 %
Extraction speed 4.9 X
Track quality 100.0 %
Test CRC 53018BF6
Copy CRC 53018BF6
Accurately ripped (confidence 2) [87E5630F] (AR v2)
Copy OK

Track 10 Filename D:\rps\gr1\10 - Out of Touch.wav Pre-gap length 0:00:02.72 Peak level 100.0 %
Extraction speed 5.2 X
Track quality 100.0 %
Test CRC 194FDAB3
Copy CRC 194FDAB3
Accurately ripped (confidence 2) [42AC33F7] (AR v2)
Copy OK

Track 11 Filename D:\rps\gr1\11 - Is It Any Wonder.wav Pre-gap length 0:00:02.05 Peak level 100.0 %
Extraction speed 4.4 X
Track quality 100.0 %
Test CRC 8A8B6069
Copy CRC 8A8B6069
Accurately ripped (confidence 2) [E79E1459] (AR v2)
Copy OK

Track 12 Filename D:\rps\gr1\12 - Wake Up, Wake Up.wav Pre-gap length 0:00:02.15 Peak level 100.0 %
Extraction speed 4.3 X
Track quality 100.0 %
Test CRC A9FD92DC
Copy CRC A9FD92DC
Accurately ripped (confidence 2) [F86A8A98] (AR v2)
Copy OK

Track 13 Filename D:\rps\gr1\13 - Melody for You.wav Pre-gap length 0:00:02.47 Peak level 100.0 %
Extraction speed 4.4 X
Track quality 99.9 %
Test CRC 6685FC62
Copy CRC 6685FC62
Accurately ripped (confidence 2) [F0A67B42] (AR v2)
Copy OK

Track 14 Filename D:\rps\gr1\14 - Feelings.wav Pre-gap length 0:00:01.60 Peak level 100.0 %
Extraction speed 5.0 X
Track quality 100.0 %
Test CRC 3A039D9D
Copy CRC 3A039D9D
Accurately ripped (confidence 2) [ED71CBD9] (AR v2)
Copy OK

Track 15 Filename D:\rps\gr1\15 - Here's Where You Belong.wav Pre-gap length 0:00:01.60 Peak level 100.0 %
Extraction speed 4.6 X
Track quality 99.9 %
Test CRC 7B47CECE
Copy CRC 7B47CECE
Accurately ripped (confidence 2) [EB5FFF50] (AR v2)
Copy OK

Track 16 Filename D:\rps\gr1\16 - Midnight Confessions.wav Pre-gap length 0:00:01.43 Peak level 100.0 %
Extraction speed 5.9 X
Track quality 100.0 %
Test CRC B47044DE
Copy CRC B47044DE
Accurately ripped (confidence 2) [17DAB112] (AR v2)
Copy OK

Track 17 Filename D:\rps\gr1\17 - Bella Linda.wav Pre-gap length 0:00:02.60 Peak level 100.0 %
Extraction speed 6.0 X
Track quality 100.0 %
Test CRC 79ED56B3
Copy CRC 79ED56B3
Accurately ripped (confidence 2) [22878F55] (AR v2)
Copy OK

Track 18 Filename D:\rps\gr1\18 - Lady Pleasure.wav Pre-gap length 0:00:01.45 Peak level 100.0 %
Extraction speed 3.1 X
Track quality 99.9 %
Test CRC 753B45E8
Copy CRC 753B45E8
Accurately ripped (confidence 2) [AD022B17] (AR v2)
Copy OK

All tracks accurately ripped

No errors occurred

End of status report

- CUETools DB Plugin V2.1.4

[CTDB TOCID: 8XLDsYnRmt3qI_edHj7fzW_Vtf8-] disk not present in database
Submit result: 8XLDsYnRmt3qI_edHj7fzW_Vtf8- has been uploaded

==== Log checksum 1D0318510E028F0B17A13603B26E8D1A6B97D1FC785FC468745F57FBD0B8A773 ====

foobar2000 1.2.9 / Dynamic Range Meter 1.1.1
log date: 2015-09-20 13:41:43

Analyzed: The Grass Roots / The Grass Roots Anthology: 1965-1975

DR Peak RMS Duration Track

DR12 0.00 dB -14.41 dB 2:57 01-Mr. Jones (Ballad of a Thin Man)
DR11 0.00 dB -12.84 dB 2:25 02-You're a Lonely Girl
DR11 0.00 dB -13.22 dB 3:04 03-Where Were You When I Needed You
DR11 0.00 dB -12.92 dB 3:12 04-Only When You're Lonely
DR12 -0.39 dB -14.15 dB 2:25 05-This Is What I Was Made For
DR12 0.00 dB -14.11 dB 3:15 06-Lollipop Train
DR10 -0.66 dB -12.11 dB 2:35 07-Tip of My Tongue
DR10 0.00 dB -13.50 dB 2:52 08-Let's Live for Today
DR12 0.00 dB -14.56 dB 2:34 09-Things I Should Have Said
DR11 0.00 dB -13.49 dB 2:55 10-Out of Touch
DR10 0.00 dB -13.53 dB 2:48 11-Is It Any Wonder
DR10 0.00 dB -13.06 dB 3:04 12-Wake Up, Wake Up
DR11 0.00 dB -13.58 dB 2:59 13-Melody for You
DR13 0.00 dB -15.54 dB 3:08 14-Feelings
DR11 0.00 dB -14.05 dB 3:28 15-Here's Where You Belong
DR12 0.00 dB -14.20 dB 2:47 16-Midnight Confessions
DR12 0.00 dB -15.63 dB 3:07 17-Bella Linda
DR12 0.00 dB -15.11 dB 2:57 18-Lady Pleasure

Number of tracks: 18
Official DR value: DR11

Samplerate: 44100 Hz
Channels: 2
Bits per sample: 16
Bitrate: 909 kbps
Codec: FLAC

CUETools log; Date: 20.09.2015 13:41:59; Version: 2.1.4]
[CTDB TOCID: 8XLDsYnRmt3qI_edHj7fzW_Vtf8-] found.
Track | CTDB Status
1 | (2/2) Accurately ripped
2 | (2/2) Accurately ripped
3 | (2/2) Accurately ripped
4 | (2/2) Accurately ripped
5 | (2/2) Accurately ripped
6 | (2/2) Accurately ripped
7 | (2/2) Accurately ripped
8 | (2/2) Accurately ripped
9 | (2/2) Accurately ripped
10 | (2/2) Accurately ripped
11 | (2/2) Accurately ripped
12 | (2/2) Accurately ripped
13 | (2/2) Accurately ripped
14 | (2/2) Accurately ripped
15 | (2/2) Accurately ripped
16 | (2/2) Accurately ripped
17 | (2/2) Accurately ripped
18 | (2/2) Accurately ripped
[AccurateRip ID: 0021b0ff-01c2d06e-fc0c5112] found.
Track [ CRC | V2 ] Status
01 [f2032b7e|1f26b2a7] (4+3/7) Accurately ripped
02 [309e94f6|ccb6ee37] (4+3/7) Accurately ripped
03 [69979251|525798f6] (5+3/8) Accurately ripped
04 [6303d524|6a2839e1] (5+3/8) Accurately ripped
05 3466673|cfecc3da (4+3/7) Accurately ripped
06 [84f5a484|d2d42130] (4+3/7) Accurately ripped
07 [96f357dc|d5d7a1a3] (4+3/7) Accurately ripped
08 [5de29587|e876b078] (5+3/8) Accurately ripped
09 [c7cf497c|87e5630f] (5+3/8) Accurately ripped
10 [f2ebfda4|42ac33f7] (4+3/7) Accurately ripped
11 [5303c743|e79e1459] (4+3/7) Accurately ripped
12 [4feaa4c6|f86a8a98] (4+3/7) Accurately ripped
13 [90dea2b4|f0a67b42] (4+3/7) Accurately ripped
14 [1e8020ad|ed71cbd9] (4+3/7) Accurately ripped
15 [74dd2938|eb5fff50] (4+3/7) Accurately ripped
16 [f5a0be44|17dab112] (5+3/8) Accurately ripped
17 [c39acd12|22878f55] (5+3/8) Accurately ripped
18 [e1855a1c|ad022b17] (4+3/7) Accurately ripped

Track Peak [ CRC32 ] [W/O NULL] [ LOG ]
-- 100,0 [84628DB8] [66FFD781]
01 100,0 [ADC4D704] [976649AD] CRC32
02 100,0 [61B4A353] [37A0FA42] CRC32
03 99,9 [921E255E] [6205056B] CRC32
04 100,0 [44A215E0] [05249632] CRC32
05 95,5 [1DDA91C8] [0FF01223] CRC32
06 100,0 A3D57AF [D4DA21BD] CRC32
07 92,6 [989C762C] [9BB5ED8C] CRC32
08 100,0 [894A84F8] [4742332D] CRC32
09 100,0 [53018BF6] [FF9EA388] CRC32
10 100,0 [194FDAB3] [A5D59F6E] CRC32
11 100,0 [8A8B6069] [3A1692E6] CRC32
12 100,0 [A9FD92DC] [31AE6A1E] CRC32
13 100,0 [6685FC62] [9654A72F] CRC32
14 100,0 [3A039D9D] [1F7EF078] CRC32
15 100,0 [7B47CECE] [D854DC5B] CRC32
16 100,0 47044DE [8E8D74AD] CRC32
17 100,0 [79ED56B3] 01E796C CRC32
18 100,0 [753B45E8] [00E8B3A7] CRC32

The Grass Roots - Anthology 1965-1975 (1991)

Tracklist CD2:

01. Lovin' Things (Loring, Schroeck) (2:51)
02. The River Is Wide (Admire, Knight) (2:52)
03. City Women (Sloan) (2:57)
04. I Can't Help But Wonder, Elizabeth (Sloan) (4:08)
05. I'd Wait a Million Years (Bottler, Zekley) (2:46)
06. Heaven Knows (Price, Walsh) (2:29)
07. Out of This World (Lambert, Potter) (2:50)
08. Walking Through the Country (Provisor) (3:02)
09. Baby Hold On (Price, Walsh) (2:41)
10. Come on and Say It (Entner, Grill, Provisor) (2:31)
11. Temptation Eyes (Price, Walsh) (2:40)
12. Sooner of Latter (Bottler, McNamara, Paris, Zekley) (2:42)
13. Two Divided by Love (Lambert, Potter) (2:38)
14. Glory Bound (Barri, Price, Provisor, Walsh) (2:37)
15. The runaway (Lambert, Potter) (2:56)
16. Anyway the Wind Blows (2:56)
17. Love Is What You Make It (2:55)
18. Mamacita (Mann, Weil) (3:24)

Exact Audio Copy V1.0 beta 3 from 29. August 2011

EAC extraction logfile from 19. July 2014, 20:20

The Grass Roots / The Grass Roots Anthology: 1965-1975

Used drive : _NEC DVD_RW ND-3500AG Adapter: 1 ID: 0

Read mode : Secure
Utilize accurate stream : Yes
Defeat audio cache : Yes
Make use of C2 pointers : No

Read offset correction

: 48
Overread into Lead-In and Lead-Out : No
Fill up missing offset samples with silence : Yes
Delete leading and trailing silent blocks : No
Null samples used in CRC calculations : Yes
Used interface
: Native Win32 interface for Win NT & 2000
Gap handling
: Appended to previous track

Used output format : User Defined Encoder
Selected bitrate : 128 kBit/s
Quality : High
Add ID3 tag : No
Command line compressor : C:\Program Files\FLAC\flac.exe
Additional command line options : -8 -V -T "TITLE=%title%" -T "ARTIST=%artist%" -T "ALBUMARTIST=%albumartist%" -T "ALBUM=%albumtitle%" -T "DATE=%year%" -T "TRACKNUMBER=%tracknr%" -T "TRACKTOTAL=%numtracks%" -T "GENRE=%genre%" -T "COMMENT=%comment%" -T "PERFORMER=%albuminterpret%" -T "COMPOSER=%composer%" %source% -o %dest%

TOC of the extracted CD Track | Start | Length | Start sector | End sector
--1 | 0:00.00 | 2:51.12 | 0 | 12836 2 | 2:51.12 | 2:52.38 | 12837 | 25774 3 | 5:43.50 | 2:57.55 | 25775 | 39104 4 | 8:41.30 | 4:08.34 | 39105 | 57738 5 | 12:49.64 | 2:46.23 | 57739 | 70211 6 | 15:36.12 | 2:29.18 | 70212 | 81404 7 | 18:05.30 | 2:50.07 | 81405 | 94161 8 | 20:55.37 | 3:02.60 | 94162 | 107871 9 | 23:58.22 | 2:41.35 | 107872 | 119981
10 | 26:39.57 | 2:31.40 | 119982 | 131346
11 | 29:11.22 | 2:40.73 | 131347 | 143419
12 | 31:52.20 | 2:42.14 | 143420 | 155583
13 | 34:34.34 | 2:38.63 | 155584 | 167496
14 | 37:13.22 | 2:37.38 | 167497 | 179309
15 | 39:50.60 | 2:56.00 | 179310 | 192509
16 | 42:46.60 | 2:56.37 | 192510 | 205746
17 | 45:43.22 | 2:55.58 | 205747 | 218929
18 | 48:39.05 | 3:24.00 | 218930 | 234229

Track 1 Filename D:\rps\gr2\01 - Lovin Things.wav Pre-gap length 0:00:02.00 Peak level 100.0 %
Extraction speed 3.3 X
Track quality 100.0 %
Test CRC 67AB499F
Copy CRC 67AB499F
Accurately ripped (confidence 2) [4C1DA9CE] (AR v2)
Copy OK

Track 2 Filename D:\rps\gr2\02 - The River Is Wide.wav Pre-gap length 0:00:01.45 Peak level 100.0 %
Extraction speed 3.6 X
Track quality 100.0 %
Test CRC C9BC9C9F
Copy CRC C9BC9C9F
Accurately ripped (confidence 2) [F42FFE0B] (AR v2)
Copy OK

Track 3 Filename D:\rps\gr2\03 - City Women.wav Pre-gap length 0:00:01.38 Peak level 100.0 %
Extraction speed 3.8 X
Track quality 100.0 %
Test CRC C0052F1A
Copy CRC C0052F1A
Accurately ripped (confidence 2) [1681CE44] (AR v2)
Copy OK

Track 4 Filename D:\rps\gr2\04 - I Can't Help but Wonder, Elisabeth.wav Pre-gap length 0:00:02.03 Peak level 100.0 %
Extraction speed 4.3 X
Track quality 100.0 %
Test CRC B7DA73F2
Copy CRC B7DA73F2
Accurately ripped (confidence 2) [26398066] (AR v2)
Copy OK

Track 5 Filename D:\rps\gr2\05 - I'd Wait a Million Years.wav Pre-gap length 0:00:02.19 Peak level 100.0 %
Extraction speed 3.4 X
Track quality 99.9 %
Test CRC 0F2FD8D9
Copy CRC 0F2FD8D9
Accurately ripped (confidence 2) A80C09C (AR v2)
Copy OK

Track 6 Filename D:\rps\gr2\06 - Heaven Knows.wav Pre-gap length 0:00:01.15 Peak level 100.0 %
Extraction speed 4.0 X
Track quality 100.0 %
Test CRC FF07978D
Copy CRC FF07978D
Accurately ripped (confidence 2) [988AEAA8] (AR v2)
Copy OK

Track 7 Filename D:\rps\gr2\07 - Out of This World.wav Pre-gap length 0:00:02.60 Peak level 100.0 %
Extraction speed 4.6 X
Track quality 100.0 %
Test CRC 08FAE24F
Copy CRC 08FAE24F
Accurately ripped (confidence 2) [0D82451E] (AR v2)
Copy OK

Track 8 Filename D:\rps\gr2\08 - Walking Through the Country.wav Pre-gap length 0:00:01.55 Peak level 100.0 %
Extraction speed 4.9 X
Track quality 100.0 %
Test CRC 4B0C6553
Copy CRC 4B0C6553
Accurately ripped (confidence 2) [7DE0881C] (AR v2)
Copy OK

Track 9 Filename D:\rps\gr2\09 - Baby Hold On.wav Pre-gap length 0:00:02.15 Peak level 100.0 %
Extraction speed 5.0 X
Track quality 100.0 %
Test CRC 1F2D5D7B
Copy CRC 1F2D5D7B
Accurately ripped (confidence 2) EE2F8D0 (AR v2)
Copy OK

Track 10 Filename D:\rps\gr2\10 - Come on and Say It.wav Pre-gap length 0:00:02.40 Peak level 100.0 %
Extraction speed 5.1 X
Track quality 100.0 %
Test CRC 118E96F1
Copy CRC 118E96F1
Accurately ripped (confidence 2) 3A0D051 (AR v2)
Copy OK

Track 11 Filename D:\rps\gr2\11 - Temptation Eyes.wav Pre-gap length 0:00:01.45 Peak level 100.0 %
Extraction speed 4.1 X
Track quality 99.9 %
Test CRC 03353612
Copy CRC 03353612
Accurately ripped (confidence 2) [15AAD7EE] (AR v2)
Copy OK

Track 12 Filename D:\rps\gr2\12 - Sooner or Later.wav Pre-gap length 0:00:01.50 Peak level 100.0 %
Extraction speed 5.4 X
Track quality 100.0 %
Test CRC 27D5DAC2
Copy CRC 27D5DAC2
Accurately ripped (confidence 2) [CF4BEEF5] (AR v2)
Copy OK

Track 13 Filename D:\rps\gr2\13 - Two Divided by Love.wav Pre-gap length 0:00:01.54 Peak level 100.0 %
Extraction speed 5.5 X
Track quality 100.0 %
Test CRC 6D6E1C10
Copy CRC 6D6E1C10
Accurately ripped (confidence 2) BCE0B4D (AR v2)
Copy OK

Track 14 Filename D:\rps\gr2\14 - Glory Bound.wav Pre-gap length 0:00:02.17 Peak level 100.0 %
Extraction speed 5.7 X
Track quality 100.0 %
Test CRC 549E6D18
Copy CRC 549E6D18
Accurately ripped (confidence 2) [4F287348] (AR v2)
Copy OK

Track 15 Filename D:\rps\gr2\15 - The Runway.wav Pre-gap length 0:00:01.63 Peak level 100.0 %
Extraction speed 5.9 X
Track quality 100.0 %
Test CRC C8760DBC
Copy CRC C8760DBC
Accurately ripped (confidence 2) [EC4BFDCC] (AR v2)
Copy OK

Track 16 Filename D:\rps\gr2\16 - Anyway the Wind Blows.wav Pre-gap length 0:00:02.55 Peak level 100.0 %
Extraction speed 6.0 X
Track quality 100.0 %
Test CRC 79BE4996
Copy CRC 79BE4996
Accurately ripped (confidence 2) [847649FD] (AR v2)
Copy OK

Track 17 Filename D:\rps\gr2\17 - Love Is What You Make It.wav Pre-gap length 0:00:02.32 Peak level 100.0 %
Extraction speed 6.2 X
Track quality 100.0 %
Test CRC 84411070
Copy CRC 84411070
Accurately ripped (confidence 2) [723C1B05] (AR v2)
Copy OK

Track 18 Filename D:\rps\gr2\18 - Mamacita.wav Pre-gap length 0:00:02.43 Peak level 100.0 %
Extraction speed 6.5 X
Track quality 100.0 %
Test CRC DF92EDF3
Copy CRC DF92EDF3
Accurately ripped (confidence 2) [8DF7F774] (AR v2)
Copy OK

All tracks accurately ripped

No errors occurred

End of status report

- CUETools DB Plugin V2.1.4

[CTDB TOCID: 3pLW5Sbw3VuGmJloDaTCYiYkOu0-] disk not present in database
Submit result: 3pLW5Sbw3VuGmJloDaTCYiYkOu0- has been uploaded

==== Log checksum 80B02929D794635986AB9D8CF571C8077188E8443097849D9E917354BD46A461 ====

foobar2000 1.2.9 / Dynamic Range Meter 1.1.1
log date: 2015-09-20 13:41:22

Analyzed: The Grass Roots / The Grass Roots Anthology: 1965-1975

DR Peak RMS Duration Track

DR12 0.00 dB -14.23 dB 2:51 01-Lovin Things
DR11 0.00 dB -12.93 dB 2:53 02-The River Is Wide
DR11 0.00 dB -15.02 dB 2:58 03-City Women
DR11 0.00 dB -15.08 dB 4:08 04-I Can't Help but Wonder, Elisabeth
DR12 0.00 dB -13.49 dB 2:46 05-I'd Wait a Million Years
DR12 0.00 dB -13.87 dB 2:29 06-Heaven Knows
DR10 0.00 dB -12.83 dB 2:50 07-Out of This World
DR12 0.00 dB -15.13 dB 3:03 08-Walking Through the Country
DR11 0.00 dB -13.13 dB 2:41 09-Baby Hold On
DR13 0.00 dB -14.31 dB 2:32 10-Come on and Say It
DR12 0.00 dB -13.26 dB 2:41 11-Temptation Eyes
DR11 0.00 dB -12.71 dB 2:42 12-Sooner or Later
DR10 0.00 dB -12.12 dB 2:39 13-Two Divided by Love
DR9 0.00 dB -12.24 dB 2:38 14-Glory Bound
DR10 0.00 dB -12.40 dB 2:56 15-The Runway
DR10 0.00 dB -11.69 dB 2:56 16-Anyway the Wind Blows
DR11 0.00 dB -12.79 dB 2:56 17-Love Is What You Make It
DR12 0.00 dB -13.92 dB 3:24 18-Mamacita

Number of tracks: 18
Official DR value: DR11

Samplerate: 44100 Hz
Channels: 2
Bits per sample: 16
Bitrate: 889 kbps
Codec: FLAC

[CUETools log; Date: 20.09.2015 13:41:30; Version: 2.1.4]
[CTDB TOCID: 3pLW5Sbw3VuGmJloDaTCYiYkOu0-] found.
Track | CTDB Status
1 | (2/2) Accurately ripped
2 | (2/2) Accurately ripped
3 | (2/2) Accurately ripped
4 | (2/2) Accurately ripped
5 | (2/2) Accurately ripped
6 | (2/2) Accurately ripped
7 | (2/2) Accurately ripped
8 | (2/2) Accurately ripped
9 | (2/2) Accurately ripped
10 | (2/2) Accurately ripped
11 | (2/2) Accurately ripped
12 | (2/2) Accurately ripped
13 | (2/2) Accurately ripped
14 | (2/2) Accurately ripped
15 | (2/2) Accurately ripped
16 | (2/2) Accurately ripped
17 | (2/2) Accurately ripped
18 | (2/2) Accurately ripped
[AccurateRip ID: 002224e0-01c480ac-f50c3312] found.
Track [ CRC | V2 ] Status
01 [0da5e79e|4c1da9ce] (4+3/7) Accurately ripped
02 [776fa6d8|f42ffe0b] (4+3/7) Accurately ripped
03 [022f1216|1681ce44] (2+3/5) Accurately ripped
04 [edafad2f|26398066] (2+3/5) Accurately ripped
05 [73137ee2|ba80c09c] (4+3/7) Accurately ripped
06 [744ddb92|988aeaa8] (4+3/7) Accurately ripped
07 [2c12904c|0d82451e] (2+3/5) Accurately ripped
08 [27d717aa|7de0881c] (4+3/7) Accurately ripped
09 f725666|bee2f8d0 (4+3/7) Accurately ripped
10 [e0dfb978|b3a0d051] (2+3/5) Accurately ripped
11 [aaac367d|15aad7ee] (3+3/6) Accurately ripped
12 [9d4fd2ad|cf4beef5] (3+3/6) Accurately ripped
13 [745a6e7f|bbce0b4d] (3+3/6) Accurately ripped
14 [70e64a49|4f287348] (2+3/5) Accurately ripped
15 [0d562463|ec4bfdcc] (3+3/6) Accurately ripped
16 [e154ebf0|847649fd] (2+3/5) Accurately ripped
17 [02859864|723c1b05] (2+3/5) Accurately ripped
18 [15a55de4|8df7f774] (2+3/5) Accurately ripped

Track Peak [ CRC32 ] [W/O NULL] [ LOG ]
-- 100,0 [1ACBB286] [F7E41052]
01 100,0 [67AB499F] [C3280EB1] CRC32
02 100,0 [C9BC9C9F] [C3D5DD5A] CRC32
03 100,0 [C0052F1A] [F9FE73A4] CRC32
04 100,0 7DA73F2 [AB021CCB] CRC32
05 100,0 [0F2FD8D9] [25DAF6CA] CRC32
06 100,0 [FF07978D] B206FEA CRC32
07 100,0 [08FAE24F] [D73388A7] CRC32
08 100,0 [4B0C6553] [8C27C5E3] CRC32
09 100,0 [1F2D5D7B] 4698716 CRC32
10 100,0 [118E96F1] [F449DF31] CRC32
11 100,0 [03353612] [5E21FC04] CRC32
12 100,0 [27D5DAC2] [C3CF2EFB] CRC32
13 100,0 [6D6E1C10] [5E93A582] CRC32
14 100,0 [549E6D18] [43E491DC] CRC32
15 100,0 [C8760DBC] [7BE1CD73] CRC32
16 100,0 [79BE4996] [6CF4861B] CRC32
17 100,0 [84411070] [ECA1903D] CRC32
18 100,0 [DF92EDF3] [962E3451] CRC32

The Grass Roots - Anthology 1965-1975 (1991)

DOWNLOAD LINKS
Buy Premium From My Links To Get Resumable Support & Max Speed & To Support Me

Rapidgator.net:
http://rapidgator.net/file/9f32ade58b1a6bafe9b96dea9d5902fb/l1cg0.TGRoots91ACD1flac.rar.html
http://rapidgator.net/file/a5f040f6dc9d4feb98b45751b19632ea/l1cg0.TGRoots91ACD1mp3320.rar.html
http://rapidgator.net/file/02fb029272513c7e1409ba0a4a3a13a7/l1cg0.TGRoots91ACD2flac.rar.html
http://rapidgator.net/file/6c18516ed95f138bd8782e84aee45181/l1cg0.TGRoots91ACD2mp3320.rar.html
http://rapidgator.net/file/6b7c56bfc858464975832f00d8b9b884/l1cg0.TGRoots91AScans.rar.html

Uploaded.net:
http://uploaded.net/file/l8bayr5x/l1cg0.TGRoots91ACD1flac.rar
http://uploaded.net/file/imcxsez5/l1cg0.TGRoots91ACD1mp3320.rar
http://uploaded.net/file/t0ld7zyf/l1cg0.TGRoots91ACD2flac.rar
http://uploaded.net/file/546c5ot8/l1cg0.TGRoots91ACD2mp3320.rar
http://uploaded.net/file/v2q2vj68/l1cg0.TGRoots91AScans.rar

nitroflare_com:
http://nitroflare.com/view/234E80DE05431D0/l1cg0.TGRoots91ACD1flac.rar
http://nitroflare.com/view/D21DA8D8F937BBA/l1cg0.TGRoots91ACD1mp3320.rar
http://nitroflare.com/view/A4405FD7403CBBB/l1cg0.TGRoots91ACD2flac.rar
http://nitroflare.com/view/4B38F088D4E92DC/l1cg0.TGRoots91ACD2mp3320.rar
http://nitroflare.com/view/4A9173B5F4D5936/l1cg0.TGRoots91AScans.rar

Uploadable.ch:
http://www.uploadable.ch/file/HpvUAbXXNkzf/l1cg0.TGRoots91ACD1flac.rar
http://www.uploadable.ch/file/tJJk9SFJ7RpP/l1cg0.TGRoots91ACD1mp3320.rar
http://www.uploadable.ch/file/6gvrd2bAYp5W/l1cg0.TGRoots91ACD2flac.rar
http://www.uploadable.ch/file/fKUvH3E3R77W/l1cg0.TGRoots91ACD2mp3320.rar
http://www.uploadable.ch/file/JeQwVkTANs2v/l1cg0.TGRoots91AScans.rar

Links are Interchangeable - No Password - Single Extraction
Direct Download

Tags: Anthology

The Grass Roots - Anthology 1965-1975 (1991) Download via Hotfile Rapidshare Fileserve Megaupload & FileSonic, The Grass Roots - Anthology 1965-1975 (1991) free torrent downloads included crack, serial, keygen.The Grass Roots - Anthology 1965-1975 (1991) Fast Download via Rapidshare Hotfile Fileserve Filesonic Megaupload, The Grass Roots - Anthology 1965-1975 (1991) Torrents and Emule Download or anything related.
Leave a Comment
Your Name:
E-Mail:
Add Comments:

Enter Code: