Sao Paulo Underground - Beija Flores Velho E Sujo (2013) {Cuneiform}

Download Now

Sao Paulo Underground - Beija Flores Velho E Sujo (2013) {Cuneiform}

Sao Paulo Underground - Beija Flores Velho E Sujo (2013) {Cuneiform}
X Lossless Decoder | FLAC tracks | Cue+Log+M3U | Full Scans 300dpi | 249MB + 5% Recovery
Genre: Avant-Garde Jazz, Electronica, Experimenta

"São Paulo Underground's second Cuneiform release, 2013's Beija Flors Velho e Sujo, translates as Old and Dirty Hummingbirds -- a rather contradictory title but an appropriate one for an album melding the nimble with the lowdown (and the abstract and trippily disorienting). Now solidified into the trio of Rob Mazurek (cornet, Evolver, ring modulator, analog delay, harmonium), Mauricio Takara (percussion, cavaquinho, electronics), and Guilherme Granado (keyboards, synthesizer, sampler, voice), São Paulo Underground take listeners on a kaleidoscopic journey across the album's ten tracks, which were trotted out during a 2012 U.S.-Canadian tour before being recorded and mixed in Chicago -- with deep sonic manipulation -- for inclusion here."

Track List
01. Ol' Dirty Hummingbird
02. Into The Rising Sun
03. Arnus Nusar
04. Over The Rainbow
05. Evetch
06. Six-Handed Casio
07. The Love I Feel For You Is More Real Than Ever
08. Basilio's Crazy Wedding Song
09. A Arvore De Cereja E Ausente
10. Taking Back The Sea Is No Easy Task

musicians
Rob Mazurek - cornet, Evolver, ring modulator, analog delay, harmonium
Guilherme Granado - keyboards, synthesizers, sampler, voice
Mauricio Takara - percussion, cavaquinho, electronics

X Lossless Decoder version 20141129 (148.1)

XLD extraction logfile from 2015-09-12 17:30:51 +0200

Artisti vari / Beija flors velho e sujo

Used drive : HL-DT-ST DVDRW GX40N (revision RQ00)
Media type : Pressed CD

Ripper mode : XLD Secure Ripper
Disable audio cache : OK for the drive with a cache less than 1375KiB
Make use of C2 pointers : NO
Read offset correction : 6
Max retry count : 100
Gap status : Analyzed, Appended (except HTOA)

TOC of the extracted CD
Track | Start | Length | Start sector | End sector
--1 | 00:00:00 | 04:34:08 | 0 | 20557 2 | 04:34:08 | 02:34:53 | 20558 | 32160 3 | 07:08:61 | 07:46:72 | 32161 | 67182 4 | 14:55:58 | 03:05:09 | 67183 | 81066 5 | 18:00:67 | 02:31:34 | 81067 | 92425 6 | 20:32:26 | 04:04:17 | 92426 | 110742 7 | 24:36:43 | 03:15:70 | 110743 | 125437 8 | 27:52:38 | 03:00:27 | 125438 | 138964 9 | 30:52:65 | 03:00:71 | 138965 | 152535
10 | 33:53:61 | 04:34:18 | 152536 | 173103

AccurateRip Summary (DiscID: 000f2b85-007766dd-8709040a)
Track 01 : OK (v2, confidence 4/4)
Track 02 : OK (v2, confidence 4/4)
Track 03 : OK (v2, confidence 4/4)
Track 04 : OK (v2, confidence 4/4)
Track 05 : OK (v2, confidence 4/4)
Track 06 : OK (v2, confidence 4/4)
Track 07 : OK (v2, confidence 4/4)
Track 08 : OK (v2, confidence 4/4)
Track 09 : OK (v2, confidence 4/4)
Track 10 : OK (v2, confidence 4/4)->All tracks accurately ripped.

All Tracks
Album gain : -6.62 dB
Peak : 0.978485
StatisticsRead error : 0Jitter error (maybe fixed) : 0Retry sector count : 0Damaged sector count : 0

Track 01
Filename : /Users/XLD/01 - Ol' dirty hummingbird.flac
Pre-gap length : 00:02:00 Track gain : -5.81 dB
Peak : 0.968628
CRC32 hash (test run) : 66322E93
CRC32 hash : 66322E93
CRC32 hash (skip zero) : 2AA7E7A2
AccurateRip v1 signature : 0B8F1A08
AccurateRip v2 signature : 1F624607->Accurately ripped (v2, confidence 4/4)
StatisticsRead error : 0Jitter error (maybe fixed) : 0Retry sector count : 0Damaged sector count : 0

Track 02
Filename : /Users/XLD/02 - Into the rising sun.flac Track gain : -6.73 dB
Peak : 0.946777
CRC32 hash (test run) : E3BCED8E
CRC32 hash : E3BCED8E
CRC32 hash (skip zero) : 38132B0B
AccurateRip v1 signature : 4C79C833
AccurateRip v2 signature : C94383E4->Accurately ripped (v2, confidence 4/4)
StatisticsRead error : 0Jitter error (maybe fixed) : 0Retry sector count : 0Damaged sector count : 0

Track 03
Filename : /Users/XLD/03 - Arnus Nusar.flac Track gain : -6.00 dB
Peak : 0.955353
CRC32 hash (test run) : 90E19417
CRC32 hash : 90E19417
CRC32 hash (skip zero) : 481C2FC2
AccurateRip v1 signature : 26346950
AccurateRip v2 signature : A765108C->Accurately ripped (v2, confidence 4/4)
StatisticsRead error : 0Jitter error (maybe fixed) : 0Retry sector count : 0Damaged sector count : 0

Track 04
Filename : /Users/XLD/04 - Over the rainbow.flac Track gain : -5.20 dB
Peak : 0.943939
CRC32 hash (test run) : 7888C5FC
CRC32 hash : 7888C5FC
CRC32 hash (skip zero) : 76390CD2
AccurateRip v1 signature : C0DB6EBA
AccurateRip v2 signature : A25BE8A0->Accurately ripped (v2, confidence 4/4)
StatisticsRead error : 0Jitter error (maybe fixed) : 0Retry sector count : 0Damaged sector count : 0

Track 05
Filename : /Users/XLD/05 - Evetch.flac Track gain : -6.11 dB
Peak : 0.945770
CRC32 hash (test run) : A0B799AF
CRC32 hash : A0B799AF
CRC32 hash (skip zero) : CC33CAD0
AccurateRip v1 signature : 1DBD34E8
AccurateRip v2 signature : DA21ACF7->Accurately ripped (v2, confidence 4/4)
StatisticsRead error : 0Jitter error (maybe fixed) : 0Retry sector count : 0Damaged sector count : 0

Track 06
Filename : /Users/XLD/06 - Six-handed Casio.flac Track gain : -5.19 dB
Peak : 0.930725
CRC32 hash (test run) : E5B51D52
CRC32 hash : E5B51D52
CRC32 hash (skip zero) : 2385B2D7
AccurateRip v1 signature : 4C10B506
AccurateRip v2 signature : E9D36E7F->Accurately ripped (v2, confidence 4/4)
StatisticsRead error : 0Jitter error (maybe fixed) : 0Retry sector count : 0Damaged sector count : 0

Track 07
Filename : /Users/XLD/07 - The love I feel for you is more real than ever.flac Track gain : -6.94 dB
Peak : 0.971466
CRC32 hash (test run) : 6875F1A1
CRC32 hash : 6875F1A1
CRC32 hash (skip zero) : DBC9DFCA
AccurateRip v1 signature : 3CB7FADA
AccurateRip v2 signature : 090C1994->Accurately ripped (v2, confidence 4/4)
StatisticsRead error : 0Jitter error (maybe fixed) : 0Retry sector count : 0Damaged sector count : 0

Track 08
Filename : /Users/XLD/08 - Basilio's crazy wedding song.flac Track gain : -7.45 dB
Peak : 0.949707
CRC32 hash (test run) : 8F00E5D0
CRC32 hash : 8F00E5D0
CRC32 hash (skip zero) : A6967775
AccurateRip v1 signature : E0F29157
AccurateRip v2 signature : F95FC9C9->Accurately ripped (v2, confidence 4/4)
StatisticsRead error : 0Jitter error (maybe fixed) : 0Retry sector count : 0Damaged sector count : 0

Track 09
Filename : /Users/XLD/09 - A arvore de creja e' ausente.flac Track gain : -1.05 dB
Peak : 0.760040
CRC32 hash (test run) : C4E2F3AC
CRC32 hash : C4E2F3AC
CRC32 hash (skip zero) : 9E83665A
AccurateRip v1 signature : 20DC1E50
AccurateRip v2 signature : B3EF5DF4->Accurately ripped (v2, confidence 4/4)
StatisticsRead error : 0Jitter error (maybe fixed) : 0Retry sector count : 0Damaged sector count : 0

Track 10
Filename : /Users/XLD/10 - Taking back the sea is no easy task.flac Track gain : -7.26 dB
Peak : 0.978485
CRC32 hash (test run) : 8FDFFEC4
CRC32 hash : 8FDFFEC4
CRC32 hash (skip zero) : 5B06B856
AccurateRip v1 signature : 1F91125A
AccurateRip v2 signature : BCCBC929->Accurately ripped (v2, confidence 4/4)
StatisticsRead error : 0Jitter error (maybe fixed) : 0Retry sector count : 0Damaged sector count : 0

No errors occurred

End of status report

--BEGIN XLD SIGNATURE--
7BX1egRtgAUxT9F3E7jBZJYTzOfGmH14vt4hGPttgDl.ldteqM4G_DLrjoE7WEqNQokR8LHaHiyd1WiFZYg8Vp9YvBASNWcJggAdXMC
--END XLD SIGNATURE--

Analyzed: Af Sao Paulo Underground / Beija flors velho e sujo (1-8) Af São Paulo Underground / Beija flors velho e sujo (9) Af Sao Paulo Underground / Beija flors velho e sujo (10)

DR Peak RMS Duration Track

DR7 -0.28 dB -10.06 dB 4:34 01-Ol' dirty hummingbird
DR6 -0.48 dB -8.54 dB 2:35 02-Into the rising sun
DR7 -0.40 dB -9.12 dB 7:47 03-Arnus Nusar
DR11 -0.50 dB -15.16 dB 3:05 04-Over the rainbow
DR7 -0.48 dB -7.92 dB 2:31 05-Evetch
DR10 -0.62 dB -12.66 dB 4:04 06-Six-handed Casio
DR6 -0.25 dB -7.72 dB 3:16 07-The love I feel for you is more real than ever
DR6 -0.45 dB -7.87 dB 3:00 08-Basilio's crazy wedding song
DR12 -2.38 dB -17.24 dB 3:01 09-A arvore de creja e' ausente
DR6 -0.19 dB -9.29 dB 4:34 10-Taking back the sea is no easy task

Number of tracks: 10
Official DR value: DR8

Samplerate: 44100 Hz
Channels: 2
Bits per sample: 16
Bitrate: 898 kbps
Codec: FLAC

Sao Paulo Underground - Beija Flores Velho E Sujo (2013) {Cuneiform}

Sao Paulo Underground - Beija Flores Velho E Sujo (2013) {Cuneiform}

Rip by opeth


DOWNLOAD LINKS
Buy Premium From My Links To Get Resumable Support & Max Speed & To Support Me


Links are Interchangeable - No Password - Single Extraction
Direct Download

Tags: Underground, Flores, Cuneiform

Sao Paulo Underground - Beija Flores Velho E Sujo (2013) {Cuneiform} Download via Hotfile Rapidshare Fileserve Megaupload & FileSonic, Sao Paulo Underground - Beija Flores Velho E Sujo (2013) {Cuneiform} free torrent downloads included crack, serial, keygen.Sao Paulo Underground - Beija Flores Velho E Sujo (2013) {Cuneiform} Fast Download via Rapidshare Hotfile Fileserve Filesonic Megaupload, Sao Paulo Underground - Beija Flores Velho E Sujo (2013) {Cuneiform} Torrents and Emule Download or anything related.
Leave a Comment
Your Name:
E-Mail:
Add Comments:

Enter Code: