Peaches & Herb - 2 Hot (1978) [2004]

Download Now

Peaches & Herb - 2 Hot (1978) [2004]

Peaches & Herb - 2 Hot (1978) [2004]
EAC Rip | FLAC (Tracks) +CUE, LOG | 314 MB | Covers Included
Soul / Funk | Label: Universal Records | Catalog Number: B0003018-02

"Disco jams and sweet ballads are featured on Peaches & Herb's return to the charts after a long absence. "Reunited," a majestic ballad about lovers getting back together, pulverized the charts, it topped the pop and the R&B charts, it stayed at number one for four weeks running on Billboard's Pop 100 Chart. A new Peaches, Linda Greene, is featured. Francine Barker was the original Peaches who scored with Herb Fame (Feemster) in the '60s with "Close Your Eyes" and "Lets Fall in Love." This new Peaches oozed sexuality, and her voice could raise the dead. Producer Freddie Perren, well aware of the disco rage, balanced their slowies with rump shakers like "Shake Your Groove Thing," and "We've Got Love," two of their better uptempo numbers. "Groove Thing" went to number five in the country and was their biggest record ever until "Reunited." The duo's specialty were ballads, and "Fours a Traffic Jam" is a beauty, Fame's sweet falsetto and Greene's sexy phrasings are intoxicating."

Exact Audio Copy V1.0 beta 3 from 29. August 2011

EAC extraction logfile from 12. September 2015, 13:36

Peaches & Herb / 2 Hot

Used drive : GENERIC CDRCB05 Adapter: 4 ID: 0

Read mode : Secure
Utilize accurate stream : Yes
Defeat audio cache : Yes
Make use of C2 pointers : No

Read offset correction

: 102
Overread into Lead-In and Lead-Out : No
Fill up missing offset samples with silence : Yes
Delete leading and trailing silent blocks : No
Null samples used in CRC calculations : Yes
Used interface
: Native Win32 interface for Win NT & 2000
Gap handling
: Appended to previous track

Used output format : User Defined Encoder
Selected bitrate : 1024 kBit/s
Quality : High
Add ID3 tag : No
Command line compressor : C:\Program Files\FLAC\flac.exe
Additional command line options : -8 -V -T "ARTIST=%artist%" -T "TITLE=%title%" -T "ALBUM=%albumtitle%" -T "DATE=%year%" -T "TRACKNUMBER=%tracknr%" -T "GENRE=%genre%" -T "PERFORMER=%albuminterpret%" -T "COMPOSER=%composer%" %haslyrics%--tag-from-file=LYRICS="%lyricsfile%"%haslyrics% -T "ALBUMARTIST=%albumartist%" -T "DISCNUMBER=%cdnumber%" -T "TOTALDISCS=%totalcds%" -T "TOTALTRACKS=%numtracks%" -T "COMMENT=%comment%" %source% -o %dest%

TOC of the extracted CD Track | Start | Length | Start sector | End sector
--1 | 0:00.00 | 3:22.02 | 0 | 15151 2 | 3:22.02 | 5:46.10 | 15152 | 41111 3 | 9:08.12 | 5:45.18 | 41112 | 67004 4 | 14:53.30 | 4:23.67 | 67005 | 86796 5 | 19:17.22 | 4:55.50 | 86797 | 108971 6 | 24:12.72 | 5:09.20 | 108972 | 132166 7 | 29:22.17 | 4:06.68 | 132167 | 150684 8 | 33:29.10 | 4:34.21 | 150685 | 171255

Track 1 Filename G:\POSTS\Peaches & Herb - 2 Hot! (1978) [2004]\01 - We've Got The Love.wav Pre-gap length 0:00:02.00 Peak level 98.8 %
Extraction speed 2.3 X
Track quality 100.0 %
Test CRC D1778AD0
Copy CRC D1778AD0
Accurately ripped (confidence 2) [860C8AC2] (AR v2)
Copy OK

Track 2 Filename G:\POSTS\Peaches & Herb - 2 Hot! (1978) [2004]\02 - Shake Your Groove Thing.wav Peak level 98.9 %
Extraction speed 2.7 X
Track quality 100.0 %
Test CRC C4F3208F
Copy CRC C4F3208F
Accurately ripped (confidence 2) [DEDD3D49] (AR v2)
Copy OK

Track 3 Filename G:\POSTS\Peaches & Herb - 2 Hot! (1978) [2004]\03 - Reunited.wav Peak level 98.8 %
Extraction speed 3.1 X
Track quality 100.0 %
Test CRC 07E2FFD9
Copy CRC 07E2FFD9
Accurately ripped (confidence 2) [C13F2A37] (AR v2)
Copy OK

Track 4 Filename G:\POSTS\Peaches & Herb - 2 Hot! (1978) [2004]\04 - All Your Love (Give It Here).wav Peak level 98.8 %
Extraction speed 3.3 X
Track quality 100.0 %
Test CRC 3A2A9FC5
Copy CRC 3A2A9FC5
Accurately ripped (confidence 2) C605EED (AR v2)
Copy OK

Track 5 Filename G:\POSTS\Peaches & Herb - 2 Hot! (1978) [2004]\05 - Love It Up Tonight.wav Peak level 98.8 %
Extraction speed 3.5 X
Track quality 100.0 %
Test CRC ED610BB5
Copy CRC ED610BB5
Accurately ripped (confidence 2) [9F25A6F8] (AR v2)
Copy OK

Track 6 Filename G:\POSTS\Peaches & Herb - 2 Hot! (1978) [2004]\06 - Four's A Traffic Jam.wav Peak level 98.8 %
Extraction speed 3.6 X
Track quality 100.0 %
Test CRC D1627FBE
Copy CRC D1627FBE
Accurately ripped (confidence 2) [1C21C010] (AR v2)
Copy OK

Track 7 Filename G:\POSTS\Peaches & Herb - 2 Hot! (1978) [2004]\07 - The Star Of My Life.wav Peak level 98.8 %
Extraction speed 3.8 X
Track quality 100.0 %
Test CRC 99446A84
Copy CRC 99446A84
Accurately ripped (confidence 2) [424E24A7] (AR v2)
Copy OK

Track 8 Filename G:\POSTS\Peaches & Herb - 2 Hot! (1978) [2004]\08 - Easy As Pie.wav Peak level 98.9 %
Extraction speed 4.1 X
Track quality 100.0 %
Test CRC EA796885
Copy CRC EA796885
Accurately ripped (confidence 2) [16A26142] (AR v2)
Copy OK

All tracks accurately ripped

No errors occurred

End of status report

==== Log checksum 0B392EEEF1C040C1E1BA215EB75B57B20883B8488A25A4E7FE064939DBD9EE21 ====

Tracklist:
01 We've Got Love 3:21
02 Shake Your Groove Thing 5:45
03 Reunited 5:46
04 All Your Love (Give It Here) 4:22
05 Love It Up Tonight 4:58
06 Four's A Traffic Jam 5:11
07 The Star Of My Life 4:08
08 Easy As Pie 4:35

Credits:
Art Direction - Mike Doud
Contractor - Benjamin Barrett
Design - Mike Doud, Philip Chang
Drums - James Gadson
Engineer - Jack Rouben, Steve Pouliot
Engineer [Assistant] - Rick Clifford, Tyrone Williams
Engineer [Remix] - Jack Rouben
Guitar - Bob "Boogie" Bowles, David T. Walker, Melvin "Wah Wah" Ragin
Keyboards - Freddie Perren, John Barnes, Larry Farrow
Percussion - Bob Zimitti, Paulinho Da Costa
Photography - Jim McCrary
Producer, Arranged By [Rhythm Arrangements], Vibraphone - Freddie Perren
Synthesizer - Electric Ivory Experience, Pete Robinson
Written-By - Dino Fekaris, Freddie Perren
DOWNLOAD LINKS
Buy Premium From My Links To Get Resumable Support & Max Speed & To Support Me


Links are Interchangeable - No Password - Single Extraction
Direct Download

Tags: Peaches

Peaches & Herb - 2 Hot (1978) [2004] Download via Hotfile Rapidshare Fileserve Megaupload & FileSonic, Peaches & Herb - 2 Hot (1978) [2004] free torrent downloads included crack, serial, keygen.Peaches & Herb - 2 Hot (1978) [2004] Fast Download via Rapidshare Hotfile Fileserve Filesonic Megaupload, Peaches & Herb - 2 Hot (1978) [2004] Torrents and Emule Download or anything related.
Leave a Comment
Your Name:
E-Mail:
Add Comments:

Enter Code: