Harold Budd & Hector Zazou - Glyph (1995)

Download Now

Harold Budd & Hector Zazou - Glyph (1995)

Harold Budd & Hector Zazou - Glyph (1995)
EAC | FLAC | Tracks (Cue&Log) ~ 357 Mb (incl 5%) | Mp3 (CBR320) ~ 174 Mb (incl 5%) | Scans included
Genre: Ambient, Experimental, Downtempo, Trip-Hop | Label: Made To Measure | # MTM 37 | Time: 01:00:55

"Like drum 'n' bass, ambient is a genre which relies on making a little go a very long way; the resultant glut of weedy minimalist pastiches barely bears a cursory listen for the most part, but this collaboration between Harold Budd and Hector Zazou demonstrates better than any recent offering how the spaces between the sounds can be made pregnant with possibility. On "Pandas in Tandem", the ghost of Erik Satie treads lightly over a shuffle breakbeat; the result is fragile and crystalline, as tentatively pristine as snowflakes. Elsewhere, heavy rhythmic breathing carries "Around the Corner from Everywhere"; slivers of what sounds like hammered dulcimer undulate through "Johnny Cake", and clarinets collude conspiratorially on "As Fast as I Could Look Away She was Still There"."

"Budd, an early practitioner in the ambient school and frequent collaborator with Brian Eno, here teams up with musical nomad Hector Zazou, who had formed evocative partnerships with musicians from Africa to the Far North, from Bill Laswell to Björk. Glyph combines Budd's penchant for dreamy, shimmering electric keyboards with Zazou's rhythmic acumen, drawing from various world music sources as well as drum'n'bass and other dance club and urban sounds. Overall, it wavers between falling a bit too far on the fuzzy, new age-y side of the ambient divide (Budd's somewhat portentous vocalizations don't help) and achieving some constructions of real interest. Zazou always has a fine ear for instrumental textures, bringing in Renault Pion for some rich, sensual clarinet playing on several tracks and a couple of Finnish masters of the kantele, a kind of dulcimer, on the intriguing "Johnny Cake." The trumpet work of Christian Lechevretel, on the other hand, ventures a bit too close to a Miles Davis imitation for comfort. Fans of Zazou who have heard and enjoyed his work will find much to savor here but listeners who only know Budd from his more ethereal performances elsewhere may be slightly put off by the relatively aggressive and funky rhythms on a few pieces. Glyph is ambient music with a slightly surreal, just barely rough edge.

Review by Brian Olewnick, Allmusic.com
"




Tracklist:

01. Pandas In Tandem (05:46)
02. You And Me Against The Sky (04:12)
03. And Then She Stepped Aside (04:58)
04. Around The Corner From Everywhere (04:50)
05. Gorgon's Anxious Pansy (05:40)
06. Johnny Cake (03:48)
07. Reflected In The Eye Of A Dragon Fly (04:12)
08. As Fast As I Could Look Away She Was Still There (05:13)
09. Autre Django (04:49)
10. The Aperture (11:06)
11. The Light Gave Us Away (06:15)


Exact Audio Copy V1.0 beta 3 from 29. August 2011

EAC extraction logfile from 4. June 2012, 20:29

Harold Budd & Hector Zazou / Glyph

Used drive : PLEXTOR CD-ROM PX-12CS Adapter: 1 ID: 3

Read mode : Secure
Utilize accurate stream : Yes
Defeat audio cache : Yes
Make use of C2 pointers : No

Read offset correction

: 681
Overread into Lead-In and Lead-Out : Yes
Fill up missing offset samples with silence : Yes
Delete leading and trailing silent blocks : No
Null samples used in CRC calculations : Yes
Used interface
: Native Win32 interface for Win NT & 2000
Gap handling
: Appended to previous track

Used output format : User Defined Encoder
Selected bitrate : 320 kBit/s
Quality : High
Add ID3 tag : No
Command line compressor : C:\Program Files\Exact Audio Copy\FLAC\FLAC.EXE
Additional command line options : -V -8 -T "Genre=%genre%" -T "Artist=%artist%" -T "Title=%title%" -T "Album=%albumtitle%" -T "Date=%year%" -T "Tracknumber=%tracknr%" -T "Comment=%comment%" %source%

TOC of the extracted CD Track | Start | Length | Start sector | End sector
--1 | 0:00.30 | 5:46.29 | 30 | 26008 2 | 5:46.59 | 4:12.37 | 26009 | 44945 3 | 9:59.21 | 4:58.20 | 44946 | 67315 4 | 14:57.41 | 4:50.58 | 67316 | 89123 5 | 19:48.24 | 5:40.56 | 89124 | 114679 6 | 25:29.05 | 3:48.15 | 114680 | 131794 7 | 29:17.20 | 4:12.42 | 131795 | 150736 8 | 33:29.62 | 5:13.54 | 150737 | 174265 9 | 38:43.41 | 4:49.69 | 174266 | 196009
10 | 43:33.35 | 11:06.72 | 196010 | 246031
11 | 54:40.32 | 6:15.30 | 246032 | 274186

Track 1 Filename X:\EAC\Harold Budd - Glyph\01. Pandas In Tandem.wav Pre-gap length 0:00:02.30 Peak level 79.1 %
Extraction speed 0.2 X
Track quality 100.0 %
Test CRC C2599D43
Copy CRC C2599D43
Accurately ripped (confidence 4) [3ECC37C4] (AR v2)
Copy OK

Track 2 Filename X:\EAC\Harold Budd - Glyph\02. You And Me Against The Sky.wav Peak level 79.3 %
Extraction speed 0.2 X
Track quality 100.0 %
Test CRC 74CBF47A
Copy CRC 74CBF47A
Accurately ripped (confidence 4) [99596059] (AR v2)
Copy OK

Track 3 Filename X:\EAC\Harold Budd - Glyph\03. And Then She Stepped Aside.wav Peak level 51.1 %
Extraction speed 0.2 X
Track quality 100.0 %
Test CRC 5D9394C4
Copy CRC 5D9394C4
Accurately ripped (confidence 4) [E80BD303] (AR v2)
Copy OK

Track 4 Filename X:\EAC\Harold Budd - Glyph\04. Around The Corner From Everywhere.wav Peak level 83.7 %
Extraction speed 0.2 X
Track quality 100.0 %
Test CRC 3B0906B7
Copy CRC 3B0906B7
Accurately ripped (confidence 4) [4419F935] (AR v2)
Copy OK

Track 5 Filename X:\EAC\Harold Budd - Glyph\05. Gorgon's Anxious Pansy.wav Peak level 91.1 %
Extraction speed 0.2 X
Track quality 100.0 %
Test CRC 1CEA5082
Copy CRC 1CEA5082
Accurately ripped (confidence 4) [027066A2] (AR v2)
Copy OK

Track 6 Filename X:\EAC\Harold Budd - Glyph\06. Johnny Cake.wav Peak level 61.7 %
Extraction speed 0.2 X
Track quality 100.0 %
Test CRC 408C94C0
Copy CRC 408C94C0
Accurately ripped (confidence 3) [19F8F9AE] (AR v2)
Copy OK

Track 7 Filename X:\EAC\Harold Budd - Glyph\07. Reflected In The Eye Of A Dragon Fly.wav Peak level 70.8 %
Extraction speed 0.2 X
Track quality 100.0 %
Test CRC F32A3AB3
Copy CRC F32A3AB3
Accurately ripped (confidence 4) [26BC1CC3] (AR v2)
Copy OK

Track 8 Filename X:\EAC\Harold Budd - Glyph\08. As Fast As I Could Look Away She Was Still There.wav Peak level 91.5 %
Extraction speed 0.2 X
Track quality 99.9 %
Test CRC CE3146B6
Copy CRC CE3146B6
Accurately ripped (confidence 3) [E073AFA2] (AR v2)
Copy OK

Track 9 Filename X:\EAC\Harold Budd - Glyph\09. Autre Django.wav Peak level 47.0 %
Extraction speed 0.2 X
Track quality 100.0 %
Test CRC A533E223
Copy CRC A533E223
Accurately ripped (confidence 4) [14D03F9D] (AR v2)
Copy OK

Track 10 Filename X:\EAC\Harold Budd - Glyph\10. The Aperture.wav Peak level 85.7 %
Extraction speed 0.2 X
Track quality 99.9 %
Test CRC F19BC9DC
Copy CRC F19BC9DC
Accurately ripped (confidence 3) [9279C872] (AR v2)
Copy OK

Track 11 Filename X:\EAC\Harold Budd - Glyph\11. The Light Gave Us Away.wav Peak level 89.0 %
Extraction speed 0.3 X
Track quality 100.0 %
Test CRC 14099654
Copy CRC 14099654
Accurately ripped (confidence 4) [FC684BF8] (AR v2)
Copy OK

All tracks accurately ripped

No errors occurred

End of status report

==== Log checksum 0F90B8094CCF5FE592E41AB4902ED412BE87123AFC35F16B3CC78DC58B8837E4 ====

foobar2000 1.2 / Dynamic Range Meter 1.1.1
log date: 2015-09-21 16:22:09

Analyzed: Harold Budd & Hector Zazou / Glyph

DR Peak RMS Duration Track

DR13 -2.03 dB -17.76 dB 5:46 01-Pandas In Tandem
DR14 -2.01 dB -22.80 dB 4:12 02-You And Me Against The Sky
DR10 -5.83 dB -19.53 dB 4:58 03-And Then She Stepped Aside
DR17 -1.54 dB -24.28 dB 4:51 04-Around The Corner From Everywhere
DR14 -0.81 dB -16.07 dB 5:41 05-Gorgon's Anxious Pansy
DR13 -4.19 dB -22.44 dB 3:48 06-Johnny Cake
DR10 -3.00 dB -17.59 dB 4:13 07-Reflected In The Eye Of A Dragon Fly
DR16 -0.77 dB -18.65 dB 5:14 08-As Fast As I Could Look Away She Was Still There
DR13 -6.55 dB -22.79 dB 4:50 09-Autre Django
DR14 -1.34 dB -17.64 dB 11:07 10-The Aperture
DR15 -1.01 dB -19.41 dB 6:15 11-The Light Gave Us Away

Number of tracks: 11
Official DR value: DR14

Samplerate: 44100 Hz
Channels: 2
Bits per sample: 16
Bitrate: 715 kbps
Codec: FLAC

Harold Budd & Hector Zazou - Glyph (1995)

Harold Budd & Hector Zazou - Glyph (1995)

All thanks to original releaser - kvolik001
Password: designol

DOWNLOAD LINKS
Buy Premium From My Links To Get Resumable Support & Max Speed & To Support Me


Links are Interchangeable - No Password - Single Extraction
Direct Download

Tags: Harold, Hector

Harold Budd & Hector Zazou - Glyph (1995) Download via Hotfile Rapidshare Fileserve Megaupload & FileSonic, Harold Budd & Hector Zazou - Glyph (1995) free torrent downloads included crack, serial, keygen.Harold Budd & Hector Zazou - Glyph (1995) Fast Download via Rapidshare Hotfile Fileserve Filesonic Megaupload, Harold Budd & Hector Zazou - Glyph (1995) Torrents and Emule Download or anything related.
Leave a Comment
Your Name:
E-Mail:
Add Comments:

Enter Code: