Faces - You Can Make Me Dance, Sing Or Anything 1970-1975 (2015) [5CD Box Set]

Download Now

Faces - You Can Make Me Dance, Sing Or Anything 1970-1975 (2015) [5CD Box Set]

Faces - You Can Make Me Dance, Sing Or Anything 1970-1975 (2015)
EAC | Flac(Image) + Cue + Log & MP3 CBR 320Kbps
5CD | Warner Bros., R2 550009 | ~ 1722 or 643 Mb | Scans(png) -> 174 Mb
Classic Rock | Box Art(png) -> 112 Mb

"The Faces albums were scheduled for expanded reissues in 2008, roughly four years after the release of the definitive rarities-laden box set Five Guys Walk into a Bar..., but those plans were scrapped and the albums remained untouched for the next seven years. After that long wait came You Can Make Me Dance, Sing or Anything: 1970-1975, a five-disc box that contains expanded versions of the four Faces studio LPs -- 1970's First Step, the twin 1971 masterpieces Long Player and A Nod Is as Good as a Wink...to a Blind Horse, 1972's Ooh La La -- along with a disc of non-LP singles..."


CD01 - The First Step (1970):
Tracklist:

01 Wicked Messenger
02 Devotion
03 Shake, Shudder, Shiver
04 Stone
05 Around The Plynth
06 Flying
07 Pineapple And the Monkey
08 Nobody Knows
09 Looking Out The Window
10 Three Button Hand Me Down

Bonus Tracks (Previously Unissued):
11 Behind The Sun (Outtake)
12 Mona - The Blues (Outtake)
13 Shake, Shudder, Shiver (BBC Session)
14 Flying (Take 3)
15 Nobody Knows (Take 2)

Exact Audio Copy V1.1 from 23. June 2015

EAC extraction logfile from 13. September 2015, 17:29

Faces / The First Step

Used drive : PLEXTOR BD-R PX-B950SA Adapter: 1 ID: 1

Read mode : Secure
Utilize accurate stream : Yes
Defeat audio cache : Yes
Make use of C2 pointers : No

Read offset correction

: 6
Overread into Lead-In and Lead-Out : No
Fill up missing offset samples with silence : Yes
Delete leading and trailing silent blocks : No
Null samples used in CRC calculations : Yes
Used interface
: Native Win32 interface for Win NT & 2000

Used output format : Internal WAV Routines
Sample format : 44.100 Hz; 16 Bit; Stereo

TOC of the extracted CD Track | Start | Length | Start sector | End sector
--1 | 0:00.00 | 4:07.36 | 0 | 18560 2 | 4:07.36 | 4:56.13 | 18561 | 40773 3 | 9:03.49 | 3:14.36 | 40774 | 55359 4 | 12:18.10 | 5:38.05 | 55360 | 80714 5 | 17:56.15 | 5:51.63 | 80715 | 107102 6 | 23:48.03 | 4:17.24 | 107103 | 126401 7 | 28:05.27 | 4:24.34 | 126402 | 146235 8 | 32:29.61 | 4:05.65 | 146236 | 164675 9 | 36:35.51 | 5:01.64 | 164676 | 187314
10 | 41:37.40 | 5:48.21 | 187315 | 213435
11 | 47:25.61 | 5:29.45 | 213436 | 238155
12 | 52:55.31 | 5:05.66 | 238156 | 261096
13 | 58:01.22 | 2:46.41 | 261097 | 273587
14 | 60:47.63 | 4:41.17 | 273588 | 294679
15 | 65:29.05 | 4:42.02 | 294680 | 315831

Range status and errors

Selected range Filename C:\Users\Meijin\Desktop\ALLexxess\Faces\2015 You Can Make Me Dance (5CD Box Set Rhino Records)\1970 The First Step\Faces - The First Step.wav Peak level 98.8 %
Extraction speed 8.2 X
Range quality 99.9 %
Test CRC FFFAF1AD
Copy CRC FFFAF1AD
Copy OK

No errors occurred


AccurateRip summary

Track 1 not present in database
Track 2 not present in database
Track 3 not present in database
Track 4 not present in database
Track 5 not present in database
Track 6 not present in database
Track 7 not present in database
Track 8 not present in database
Track 9 not present in database
Track 10 not present in database
Track 11 not present in database
Track 12 not present in database
Track 13 not present in database
Track 14 not present in database
Track 15 not present in database

None of the tracks are present in the AccurateRip database

End of status report

- CUETools DB Plugin V2.1.6

[CTDB TOCID: FI9khUuMNfOsY4Hx7UdlUgFjpoo-] found
Submit result: FI9khUuMNfOsY4Hx7UdlUgFjpoo- has been confirmed
Track | CTDB Status
1 | (11/11) Accurately ripped
2 | (11/11) Accurately ripped
3 | (11/11) Accurately ripped
4 | (11/11) Accurately ripped
5 | (11/11) Accurately ripped
6 | (11/11) Accurately ripped
7 | (11/11) Accurately ripped
8 | (11/11) Accurately ripped
9 | (11/11) Accurately ripped
10 | (11/11) Accurately ripped
11 | (11/11) Accurately ripped
12 | (11/11) Accurately ripped
13 | (11/11) Accurately ripped
14 | (11/11) Accurately ripped
15 | (11/11) Accurately ripped

==== Log checksum E009168EBC24B36F549954B9A19D3569A488C3D8ED9EF42516DA0E055144C009 ====

foobar2000 1.2.9 / Dynamic Range Meter 1.1.1
log date: 2015-09-20 19:50:32

Analyzed: Faces / The First Step

DR Peak RMS Duration Track

DR9 -0.10 dB -11.04 dB 4:07 01-Wicked Messenger
DR9 -0.10 dB -12.81 dB 4:56 02-Devotion
DR7 -0.20 dB -9.10 dB 3:14 03-Shake, Shudder Shiver
DR10 -0.83 dB -13.68 dB 5:38 04-Stone
DR10 -0.10 dB -12.65 dB 5:52 05-Around The Plynth
DR9 -0.10 dB -11.28 dB 4:17 06-Flying
DR11 -0.32 dB -12.86 dB 4:24 07-Pineapple And The Monkey
DR11 -0.50 dB -14.22 dB 4:06 08-Nobody Knows
DR10 -0.10 dB -12.03 dB 5:02 09-Looking Out The Window
DR10 -0.22 dB -12.29 dB 5:48 10-Three Button Hand Me Down
DR9 -0.10 dB -12.06 dB 5:30 11-Behind The Sun (Outtake) / Bonus Track
DR11 -0.10 dB -12.10 dB 5:06 12-Mona - The Blues (Outtake) / Bonus Track
DR10 -0.74 dB -12.72 dB 2:47 13-Shake, Shudder, Shiver (BBC Session) / Bonus Track
DR10 -0.10 dB -12.96 dB 4:41 14-Flying (Take 3) / Bonus Track
DR11 -0.11 dB -14.28 dB 4:42 15-Nobody Knows (Take 2) / Bonus Track

Number of tracks: 15
Official DR value: DR10

Samplerate: 44100 Hz
Channels: 2
Bits per sample: 16
Bitrate: 847 kbps
Codec: FLAC

[CUETools log; Date: 20.09.2015 19:14:01; Version: 2.1.4]
[CTDB TOCID: FI9khUuMNfOsY4Hx7UdlUgFjpoo-] found.
Track | CTDB Status
1 | (12/12) Accurately ripped
2 | (12/12) Accurately ripped
3 | (12/12) Accurately ripped
4 | (12/12) Accurately ripped
5 | (12/12) Accurately ripped
6 | (12/12) Accurately ripped
7 | (12/12) Accurately ripped
8 | (12/12) Accurately ripped
9 | (12/12) Accurately ripped
10 | (12/12) Accurately ripped
11 | (12/12) Accurately ripped
12 | (12/12) Accurately ripped
13 | (12/12) Accurately ripped
14 | (12/12) Accurately ripped
15 | (12/12) Accurately ripped
[AccurateRip ID: 0026831b-01b68c4f-f210730f] disk not present in database.

Track Peak [ CRC32 ] [W/O NULL] [ LOG ]
-- 98,8 [FFFAF1AD] 9FEA810 CRC32
01 98,8 [68582D34] [EB63AB82]
02 98,8 [CD4CD6AB] [E4440911]
03 97,6 [8764E477] [CCE57DD3]
04 90,8 [930587AA] [46E72656]
05 98,8 2A9C6FC [366E4A70]
06 98,8 [E79A1A97] [FA159150]
07 96,3 [A6BBB083] [83738A8A]
08 94,4 [FD5D51FD] [F44142D9]
09 98,8 23204EE [234356F1]
10 97,4 [8007F5BF] [08EC407B]
11 98,8 [07675B80] [817D4910]
12 98,8 [C5E39091] [21086F5F]
13 91,8 [C9E8F5F8] [DF732EA9]
14 98,8 [D9FA34F8] BCF09B8
15 98,7 [A16B6A22] [44440127]

Faces - You Can Make Me Dance, Sing Or Anything 1970-1975 (2015) [5CD Box Set]

CD02 - Long Player (1971):
Tracklist:

01 Bad 'N' Ruin
02 Tell Everyone
03 Sweet Lady Mary
04 Richmond
05 Maybe I'm Amazed
06 Had Me A Real Good Time
07 On The Beach
08 I Feel So Good
09 Jerusalem

Bonus Tracks (Previously Unissued):
10 Whole Lotta Woman (Outtake)
11 Tell Everyone (Take 1)
12 Sham-Mozzal (Instrumental / Outtake)
13 Too Much Woman (For A Henpecked Man) (Live / Fillmore East, New York 11/10/70)
14 Love In Vain (Live / Fillmore East, New York 11/10/70)

Exact Audio Copy V1.1 from 23. June 2015

EAC extraction logfile from 13. September 2015, 16:57

Faces / Long Player

Used drive : PLEXTOR BD-R PX-B950SA Adapter: 1 ID: 1

Read mode : Secure
Utilize accurate stream : Yes
Defeat audio cache : Yes
Make use of C2 pointers : No

Read offset correction

: 6
Overread into Lead-In and Lead-Out : No
Fill up missing offset samples with silence : Yes
Delete leading and trailing silent blocks : No
Null samples used in CRC calculations : Yes
Used interface
: Native Win32 interface for Win NT & 2000

Used output format : Internal WAV Routines
Sample format : 44.100 Hz; 16 Bit; Stereo

TOC of the extracted CD Track | Start | Length | Start sector | End sector
--1 | 0:00.00 | 5:25.30 | 0 | 24404 2 | 5:25.30 | 4:19.11 | 24405 | 43840 3 | 9:44.41 | 5:47.06 | 43841 | 69871 4 | 15:31.47 | 3:03.57 | 69872 | 83653 5 | 18:35.29 | 5:34.05 | 83654 | 108708 6 | 24:09.34 | 5:49.56 | 108709 | 134939 7 | 29:59.15 | 4:14.72 | 134940 | 154061 8 | 34:14.12 | 8:44.70 | 154062 | 193431 9 | 42:59.07 | 1:56.68 | 193432 | 202199
10 | 44:56.00 | 3:14.60 | 202200 | 216809
11 | 48:10.60 | 4:02.49 | 216810 | 235008
12 | 52:13.34 | 3:15.16 | 235009 | 249649
13 | 55:28.50 | 5:28.43 | 249650 | 274292
14 | 60:57.18 | 6:21.52 | 274293 | 302919

Range status and errors

Selected range Filename C:\Users\Meijin\Desktop\ALLexxess\Faces\2015 You Can Make Me Dance (5CD Box Set Rhino Records)\1971 Long Player\Faces - Long Player.wav Peak level 100.0 %
Extraction speed 8.3 X
Range quality 100.0 %
Test CRC 661554F6
Copy CRC 661554F6
Copy OK

No errors occurred


AccurateRip summary

Track 1 not present in database
Track 2 not present in database
Track 3 not present in database
Track 4 not present in database
Track 5 not present in database
Track 6 not present in database
Track 7 not present in database
Track 8 not present in database
Track 9 not present in database
Track 10 not present in database
Track 11 not present in database
Track 12 not present in database
Track 13 not present in database
Track 14 not present in database

None of the tracks are present in the AccurateRip database

End of status report

- CUETools DB Plugin V2.1.6

[CTDB TOCID: mVHfthp5a4YSI4xrVwFMnU0cK08-] found
Submit result: mVHfthp5a4YSI4xrVwFMnU0cK08- has been confirmed
Track | CTDB Status
1 | (10/10) Accurately ripped
2 | (10/10) Accurately ripped
3 | (10/10) Accurately ripped
4 | (10/10) Accurately ripped
5 | (10/10) Accurately ripped
6 | (10/10) Accurately ripped
7 | (10/10) Accurately ripped
8 | (10/10) Accurately ripped
9 | (10/10) Accurately ripped
10 | (10/10) Accurately ripped
11 | (10/10) Accurately ripped
12 | (10/10) Accurately ripped
13 | (10/10) Accurately ripped
14 | (10/10) Accurately ripped

==== Log checksum F8853DD0693A1B8ED064826ABAD0A4D886D00167B99ABE8709BDF44529BB0D03 ====

foobar2000 1.2.9 / Dynamic Range Meter 1.1.1
log date: 2015-09-20 19:50:51

Analyzed: Faces / Long Player

DR Peak RMS Duration Track

DR8 -0.10 dB -9.95 dB 5:25 01-Bad 'N' Ruin
DR10 -0.11 dB -12.57 dB 4:19 02-Tell Everyone
DR9 -0.10 dB -10.90 dB 5:47 03-Sweet Lady Mary
DR12 -0.68 dB -16.79 dB 3:04 04-Richmond
DR8 -0.16 dB -11.45 dB 5:34 05-Maybe I'm Amazed
DR8 0.00 dB -9.67 dB 5:50 06-Had Me A Real Good Time
DR11 -1.10 dB -14.91 dB 4:15 07-On The Beach
DR9 -0.10 dB -12.18 dB 8:45 08-I Feel So Good
DR14 -0.65 dB -19.34 dB 1:57 09-Jerusalem
DR9 -0.10 dB -11.27 dB 3:15 10-Whole Lotta Woman (Outtake) / Bonus Track
DR13 -0.40 dB -16.12 dB 4:03 11-Tell Everyone (Take 1) / Bonus Track
DR10 -0.10 dB -12.50 dB 3:15 12-Sham-Mozzal (Instrumental / Outtake) / Bonus Track
DR9 -0.11 dB -11.64 dB 5:29 13-Too Much Woman (For A Henpecked Man) (Live) / Bonus Track
DR9 -1.26 dB -13.38 dB 6:22 14-Love In Vain (Live) / Bonus Track

Number of tracks: 14
Official DR value: DR10

Samplerate: 44100 Hz
Channels: 2
Bits per sample: 16
Bitrate: 827 kbps
Codec: FLAC

[CUETools log; Date: 20.09.2015 19:16:58; Version: 2.1.4]
[CTDB TOCID: mVHfthp5a4YSI4xrVwFMnU0cK08-] found.
Track | CTDB Status
1 | (11/11) Accurately ripped
2 | (11/11) Accurately ripped
3 | (11/11) Accurately ripped
4 | (11/11) Accurately ripped
5 | (11/11) Accurately ripped
6 | (11/11) Accurately ripped
7 | (11/11) Accurately ripped
8 | (11/11) Accurately ripped
9 | (11/11) Accurately ripped
10 | (11/11) Accurately ripped
11 | (11/11) Accurately ripped
12 | (11/11) Accurately ripped
13 | (11/11) Accurately ripped
14 | (11/11) Accurately ripped
[AccurateRip ID: 00230025-0172dc28-c60fc60e] disk not present in database.

Track Peak [ CRC32 ] [W/O NULL] [ LOG ]
-- 100,0 [661554F6] [F2EC0A5F] CRC32
01 98,8 [D9639ED4] [FB9B0ED7]
02 98,7 [12A55DE7] [3FD4BF85]
03 98,8 [6D81FF5C] [756B8DD4]
04 92,4 [2F10D1AD] [9E27BBD0]
05 98,2 [D2BA739E] [49AFDE08]
06 100,0 [16215C60] [05783C06]
07 88,0 [19CC1870] [11F614F5]
08 98,8 [FE87754C] [48ED5439]
09 92,8 [C6563BF5] [323CAA02]
10 98,8 [2E670729] [0602BC89]
11 95,5 [655191C0] [324E0D0F]
12 98,8 [7189D26B] [330814E3]
13 98,7 [C5B4CF59] [56EDE3A7]
14 86,4 [3CABF6ED] [F6229FEC]

Faces - You Can Make Me Dance, Sing Or Anything 1970-1975 (2015) [5CD Box Set]

CD03 - A Nod Is As Good As A Wink...To A Blind Horse (1971):
Tracklist:

01 Miss Judy's Farm
02 You're So Rude
03 Love Lives Here
04 Last Orders Please
05 Stay With Me
06 Debris
07 Memphis
08 Too Bad
09 That's All You Need

Bonus Tracks (Previously Unissued):
10 Miss Judy's Farm (BBC Session)
11 Stay With Me (BBC Session)

Exact Audio Copy V1.1 from 23. June 2015

EAC extraction logfile from 13. September 2015, 10:16

Faces / A Nod Is As Good As A Wink...

Used drive : PLEXTOR BD-R PX-B950SA Adapter: 1 ID: 1

Read mode : Secure
Utilize accurate stream : Yes
Defeat audio cache : Yes
Make use of C2 pointers : No

Read offset correction

: 6
Overread into Lead-In and Lead-Out : No
Fill up missing offset samples with silence : Yes
Delete leading and trailing silent blocks : No
Null samples used in CRC calculations : Yes
Used interface
: Native Win32 interface for Win NT & 2000

Used output format : Internal WAV Routines
Sample format : 44.100 Hz; 16 Bit; Stereo

TOC of the extracted CD Track | Start | Length | Start sector | End sector
--1 | 0:00.00 | 3:39.65 | 0 | 16489 2 | 3:39.65 | 3:44.16 | 16490 | 33305 3 | 7:24.06 | 3:06.33 | 33306 | 47288 4 | 10:30.39 | 2:36.22 | 47289 | 59010 5 | 13:06.61 | 4:41.13 | 59011 | 80098 6 | 17:47.74 | 4:36.32 | 80099 | 100830 7 | 22:24.31 | 5:28.17 | 100831 | 125447 8 | 27:52.48 | 3:13.49 | 125448 | 139971 9 | 31:06.22 | 5:11.52 | 139972 | 163348
10 | 36:17.74 | 3:31.21 | 163349 | 179194
11 | 39:49.20 | 5:18.23 | 179195 | 203067

Range status and errors

Selected range Filename C:\Users\Meijin\Desktop\ALLexxess\Faces\2015 You Can Make Me Dance (5CD Box Set Rhino Records)\1971 A Nod Is As Good As A Wink...\Faces - A Nod Is As Good As A Wink....wav Peak level 98.8 %
Extraction speed 6.8 X
Range quality 100.0 %
Test CRC A7288063
Copy CRC A7288063
Copy OK

No errors occurred


AccurateRip summary

Track 1 not present in database
Track 2 not present in database
Track 3 not present in database
Track 4 not present in database
Track 5 not present in database
Track 6 not present in database
Track 7 not present in database
Track 8 not present in database
Track 9 not present in database
Track 10 not present in database
Track 11 not present in database

None of the tracks are present in the AccurateRip database

End of status report

- CUETools DB Plugin V2.1.6

[CTDB TOCID: KOqB1w9Q5GG9ibFRaPkv7Gp_43M-] found
Submit result: KOqB1w9Q5GG9ibFRaPkv7Gp_43M- has been confirmed
Track | CTDB Status
1 | (10/10) Accurately ripped
2 | (10/10) Accurately ripped
3 | (10/10) Accurately ripped
4 | (10/10) Accurately ripped
5 | (10/10) Accurately ripped
6 | (10/10) Accurately ripped
7 | (10/10) Accurately ripped
8 | (10/10) Accurately ripped
9 | (10/10) Accurately ripped
10 | (10/10) Accurately ripped
11 | (10/10) Accurately ripped

==== Log checksum AC64EC6EC0F2E31BE5D539B85A6F088ECCF38220F208136A09F5B667148006C0 ====

foobar2000 1.2.9 / Dynamic Range Meter 1.1.1
log date: 2015-09-20 19:51:09

Analyzed: Faces / A Nod Is As Good As A Wink…

DR Peak RMS Duration Track

DR8 -0.41 dB -10.30 dB 3:40 01-Miss Judy's Farm
DR8 -0.15 dB -9.38 dB 3:44 02-You're So Rude
DR8 -0.38 dB -10.34 dB 3:06 03-Love Lives Here
DR9 -0.84 dB -11.29 dB 2:36 04-Last Orders Please
DR8 -0.30 dB -9.43 dB 4:41 05-Stay With Me
DR8 -0.33 dB -10.93 dB 4:36 06-Debris
DR7 -0.10 dB -8.70 dB 5:28 07-Memphis
DR6 -0.10 dB -7.70 dB 3:14 08-Too Bad
DR6 -0.10 dB -8.54 dB 5:12 09-That's All You Need
DR9 -0.10 dB -11.43 dB 3:31 10-Miss Judy's Farm (BBC Session) / Bonus Track
DR7 -0.10 dB -8.75 dB 5:18 11-Stay With Me (BBC Session) / Bonus Track

Number of tracks: 11
Official DR value: DR8

Samplerate: 44100 Hz
Channels: 2
Bits per sample: 16
Bitrate: 897 kbps
Codec: FLAC

[CUETools log; Date: 20.09.2015 19:21:02; Version: 2.1.4]
[CTDB TOCID: KOqB1w9Q5GG9ibFRaPkv7Gp_43M-] found.
Track | CTDB Status
1 | (11/11) Accurately ripped
2 | (11/11) Accurately ripped
3 | (11/11) Accurately ripped
4 | (11/11) Accurately ripped
5 | (11/11) Accurately ripped
6 | (11/11) Accurately ripped
7 | (11/11) Accurately ripped
8 | (11/11) Accurately ripped
9 | (11/11) Accurately ripped
10 | (11/11) Accurately ripped
11 | (11/11) Accurately ripped
[AccurateRip ID: 0011849a-009a3d90-a00a930b] disk not present in database.

Track Peak [ CRC32 ] [W/O NULL] [ LOG ]
-- 98,8 [A7288063] [DB90D525] CRC32
01 95,4 [5771A451] [8FCCF56D]
02 98,3 [CD7CE7BF] [22127D2D]
03 95,7 [734B3CB0] [7820DF72]
04 90,7 [3C3BE11E] [57EB9645]
05 96,6 [EE3E884A] [0C2A9D52]
06 96,2 [71E2E962] [4729BD24]
07 98,8 E7CC32C [2A77F972]
08 98,8 [4BF0F855] 3DFE247
09 98,8 [A1C8BBB0] [3A4F94AB]
10 98,8 F3A6FD9 [7CD14854]
11 98,8 [4C4DCB6B] [00440FEC]

Faces - You Can Make Me Dance, Sing Or Anything 1970-1975 (2015) [5CD Box Set]

CD04 - Ooh La La (1973):
Tracklist:

01 Silicone Grown
02 Cindy Incidentally
03 Flags And Banners
04 My Fault
05 Borstal Boys
06 Fly In The Ointment
07 If I'm On The Late Side
08 Glad And Sorry
09 Just Another Honky
10 Ooh La La

Bonus Tracks (Previously Unissued):
11 Cindy Incidently (BBC Session)
12 Borstal Boys (Rehearsal)
13 Silicone Grown (Rehearsal)
14 Glad And Sorry (Rehearsal)
15 Jealous Guy (Live / Reading Festival, Reading, UK 8/25/73)

Exact Audio Copy V1.1 from 23. June 2015

EAC extraction logfile from 13. September 2015, 9:49

Faces / Ooh La La

Used drive : PLEXTOR BD-R PX-B950SA Adapter: 1 ID: 1

Read mode : Secure
Utilize accurate stream : Yes
Defeat audio cache : Yes
Make use of C2 pointers : No

Read offset correction

: 6
Overread into Lead-In and Lead-Out : No
Fill up missing offset samples with silence : Yes
Delete leading and trailing silent blocks : No
Null samples used in CRC calculations : Yes
Used interface
: Native Win32 interface for Win NT & 2000

Used output format : Internal WAV Routines
Sample format : 44.100 Hz; 16 Bit; Stereo

TOC of the extracted CD Track | Start | Length | Start sector | End sector
--1 | 0:00.00 | 3:08.12 | 0 | 14111 2 | 3:08.12 | 2:38.67 | 14112 | 26028 3 | 5:47.04 | 2:02.09 | 26029 | 35187 4 | 7:49.13 | 3:07.14 | 35188 | 49226 5 | 10:56.27 | 2:55.01 | 49227 | 62352 6 | 13:51.28 | 3:50.55 | 62353 | 79657 7 | 17:42.08 | 2:39.04 | 79658 | 91586 8 | 20:21.12 | 3:06.62 | 91587 | 105598 9 | 23:27.74 | 3:34.67 | 105599 | 121715
10 | 27:02.66 | 3:38.57 | 121716 | 138122
11 | 30:41.48 | 2:29.01 | 138123 | 149298
12 | 33:10.49 | 2:48.42 | 149299 | 161940
13 | 35:59.16 | 3:07.57 | 161941 | 176022
14 | 39:06.73 | 2:44.03 | 176023 | 188325
15 | 41:51.01 | 4:45.16 | 188326 | 209716

Range status and errors

Selected range Filename C:\Users\Meijin\Desktop\ALLexxess\Faces\2015 You Can Make Me Dance (5CD Box Set Rhino Records)\1973 Ooh La La\Faces - Ooh La La.wav Peak level 98.8 %
Extraction speed 6.8 X
Range quality 100.0 %
Test CRC F7065605
Copy CRC F7065605
Copy OK

No errors occurred


AccurateRip summary

Track 1 not present in database
Track 2 not present in database
Track 3 not present in database
Track 4 not present in database
Track 5 not present in database
Track 6 not present in database
Track 7 not present in database
Track 8 not present in database
Track 9 not present in database
Track 10 not present in database
Track 11 not present in database
Track 12 not present in database
Track 13 not present in database
Track 14 not present in database
Track 15 not present in database

None of the tracks are present in the AccurateRip database

End of status report

- CUETools DB Plugin V2.1.6

[CTDB TOCID: wvvUAVGFswNOnIdME5KM47e4ztY-] found
Submit result: wvvUAVGFswNOnIdME5KM47e4ztY- has been confirmed
Track | CTDB Status
1 | (9/9) Accurately ripped
2 | (9/9) Accurately ripped
3 | (9/9) Accurately ripped
4 | (9/9) Accurately ripped
5 | (9/9) Accurately ripped
6 | (9/9) Accurately ripped
7 | (9/9) Accurately ripped
8 | (9/9) Accurately ripped
9 | (9/9) Accurately ripped
10 | (9/9) Accurately ripped
11 | (9/9) Accurately ripped
12 | (9/9) Accurately ripped
13 | (9/9) Accurately ripped
14 | (9/9) Accurately ripped
15 | (9/9) Accurately ripped

==== Log checksum 2C2122C0E2ACE1CCC99969E05FD344E52EAB531BE58F35702BC34DF00143C42E ====

foobar2000 1.2.9 / Dynamic Range Meter 1.1.1
log date: 2015-09-20 19:51:26

Analyzed: Faces / Ooh La La

DR Peak RMS Duration Track

DR7 -0.10 dB -8.29 dB 3:08 01-Silicone Grown
DR8 -0.10 dB -9.41 dB 2:39 02-Cindy Incidentally
DR8 -0.33 dB -10.92 dB 2:02 03-Flags And Banners
DR8 -0.10 dB -9.96 dB 3:07 04-My Fault
DR8 -0.18 dB -9.62 dB 2:55 05-Borstal Boys
DR8 -0.10 dB -10.48 dB 3:51 06-Fly In The Ointment
DR9 -0.54 dB -11.51 dB 2:39 07-If I'm On The Late Side
DR8 -0.10 dB -9.95 dB 3:07 08-Glad And Sorry
DR8 -0.10 dB -10.03 dB 3:35 09-Just Another Honky
DR9 -0.67 dB -12.19 dB 3:39 10-Ooh La La
DR9 -0.97 dB -11.63 dB 2:29 11-Cindy Incidently (BBC Session) / Bonus Track
DR7 -0.26 dB -9.36 dB 2:49 12-Borstal Boys (Rehearsal) / Bonus Track
DR6 -0.10 dB -7.96 dB 3:08 13-Silicone Grown (Rehearsal) / Bonus Track
DR8 -0.65 dB -10.30 dB 2:44 14-Glad And Sorry (Rehearsal) / Bonus Track
DR9 -0.10 dB -11.54 dB 4:45 15-Jealous Guy (Live) / Bonus Track

Number of tracks: 15
Official DR value: DR8

Samplerate: 44100 Hz
Channels: 2
Bits per sample: 16
Bitrate: 889 kbps
Codec: FLAC

[CUETools log; Date: 20.09.2015 19:23:12; Version: 2.1.4]
[CTDB TOCID: wvvUAVGFswNOnIdME5KM47e4ztY-] found.
Track | CTDB Status
1 | (10/10) Accurately ripped
2 | (10/10) Accurately ripped
3 | (10/10) Accurately ripped
4 | (10/10) Accurately ripped
5 | (10/10) Accurately ripped
6 | (10/10) Accurately ripped
7 | (10/10) Accurately ripped
8 | (10/10) Accurately ripped
9 | (10/10) Accurately ripped
10 | (10/10) Accurately ripped
11 | (10/10) Accurately ripped
12 | (10/10) Accurately ripped
13 | (10/10) Accurately ripped
14 | (10/10) Accurately ripped
15 | (10/10) Accurately ripped
[AccurateRip ID: 00188cc2-01188c6c-c20aec0f] disk not present in database.

Track Peak [ CRC32 ] [W/O NULL] [ LOG ]
-- 98,8 [F7065605] [74BC0BC8] CRC32
01 98,8 [CABCE70F] [513C2890]
02 98,8 [EF852198] [C71DE265]
03 96,3 [CDFD6070] [F2F95656]
04 98,8 [94045277] [E60D84A9]
05 97,9 [A2BE597C] [424982CB]
06 98,8 [20FB86FD] [5EF030E5]
07 93,9 [9EE773EC] [D0019974]
08 98,8 [17ACC5FD] [530C180B]
09 98,8 [25CCBDF0] [F248EA6D]
10 92,5 [AA999AEF] [66423375]
11 89,4 [1EBBB0BA] [93D7DA9C]
12 97,0 [2A2CB7E3] [9DCDF759]
13 98,8 [E36FD96F] [D04C2097]
14 92,7 [4E2EC429] [FF7E15DA]
15 98,8 [404B829C] [2A611FD7]

Faces - You Can Make Me Dance, Sing Or Anything 1970-1975 (2015) [5CD Box Set]

CD05 - Stray Singles & B-Sides (2015):
Tracklist:

01 Pool Hall Richard (2006 Remastered Single Version)
02 I Wish It Would Rain (With A Trumpet) (Live / Reading Festival, Reading, UK 8/25/73 / Remastered)
03 Rear Wheel Skid (Remastered Single Version)
04 Maybe I'm Amazed (Remastered Single Version)
05 Oh Lord I'm Browned Off (Remastered Single Version)
06 You Can Make Me Dance, Sing Or Anything
(Even Take The Dog For A Walk, Mend A Fuse, Fold Away The Ironing Board,
Or Any Other Domestic Short Comings)
(2006 Remastered Single Version)
07 As Long As You Tell Him (Single Version)
08 Skewiff (Mend The Fuse) (Remastered Single Version)
09 Dishevelment Blues (Remastered Single Version)

Exact Audio Copy V1.1 from 23. June 2015

EAC extraction logfile from 13. September 2015, 9:19

Faces / Stray Singles & B-Sides

Used drive : PLEXTOR BD-R PX-B950SA Adapter: 1 ID: 1

Read mode : Secure
Utilize accurate stream : Yes
Defeat audio cache : Yes
Make use of C2 pointers : No

Read offset correction

: 6
Overread into Lead-In and Lead-Out : No
Fill up missing offset samples with silence : Yes
Delete leading and trailing silent blocks : No
Null samples used in CRC calculations : Yes
Used interface
: Native Win32 interface for Win NT & 2000

Used output format : Internal WAV Routines
Sample format : 44.100 Hz; 16 Bit; Stereo

TOC of the extracted CD Track | Start | Length | Start sector | End sector
--1 | 0:00.00 | 4:26.15 | 0 | 19964 2 | 4:26.15 | 4:47.02 | 19965 | 41491 3 | 9:13.17 | 4:45.40 | 41492 | 62906 4 | 13:58.57 | 3:40.15 | 62907 | 79421 5 | 17:38.72 | 3:51.50 | 79422 | 96796 6 | 21:30.47 | 4:32.28 | 96797 | 117224 7 | 26:03.00 | 4:21.15 | 117225 | 136814 8 | 30:24.15 | 5:17.07 | 136815 | 160596 9 | 35:41.22 | 4:57.49 | 160597 | 182920

Range status and errors

Selected range Filename C:\Users\Meijin\Desktop\ALLexxess\Faces\2015 You Can Make Me Dance (5CD Box Set Rhino Records)\2015 Stray Singles & B-Sides\Faces - Stray Singles & B-Sides.wav Peak level 97.7 %
Extraction speed 6.5 X
Range quality 100.0 %
Test CRC FCA85307
Copy CRC FCA85307
Copy OK

No errors occurred


AccurateRip summary

Track 1 not present in database
Track 2 not present in database
Track 3 not present in database
Track 4 not present in database
Track 5 not present in database
Track 6 not present in database
Track 7 not present in database
Track 8 not present in database
Track 9 not present in database

None of the tracks are present in the AccurateRip database

End of status report

- CUETools DB Plugin V2.1.6

[CTDB TOCID: jy50m6IqnCbZUw_xHcAHMd9MQRE-] found
Submit result: jy50m6IqnCbZUw_xHcAHMd9MQRE- has been confirmed
Track | CTDB Status
1 | (10/10) Accurately ripped
2 | (10/10) Accurately ripped
3 | (10/10) Accurately ripped
4 | (10/10) Accurately ripped
5 | (10/10) Accurately ripped
6 | (10/10) Accurately ripped
7 | (10/10) Accurately ripped
8 | (10/10) Accurately ripped
9 | (10/10) Accurately ripped

==== Log checksum CBF3D38F1E32112110ACB66998AEFD7E7FC8D89E59C97A0505B623E5C9A3550F ====

foobar2000 1.2.9 / Dynamic Range Meter 1.1.1
log date: 2015-09-20 19:51:44

Analyzed: Faces / Stray Singles & B-Sides

DR Peak RMS Duration Track

DR7 -0.21 dB -8.02 dB 4:26 01-Pool Hall Richard (2006 Remastered Single Version)
DR7 -0.82 dB -9.70 dB 4:47 02-I Wish It Would Rain (With A Trumpet) (Live / Remastered)
DR9 -0.20 dB -10.85 dB 4:46 03-Rear Wheel Skid (Remastered Single Version)
DR9 -0.20 dB -11.35 dB 3:40 04-Maybe I'm Amazed (Remastered Single Version)
DR8 -0.20 dB -9.41 dB 3:52 05-Oh Lord I'm Browned Off (Remastered Single Version)
DR9 -0.63 dB -11.48 dB 4:32 06-You Can Make Me Dance, Sing Or Anything (2006 Remastered Single Version)
DR10 -0.26 dB -12.99 dB 4:21 07-As Long As You Tell Him (Single Version)
DR8 -0.49 dB -11.29 dB 5:17 08-Skewiff (Mend The Fuse) (Remastered Single Version)
DR10 -0.81 dB -14.12 dB 4:58 09-Dishevelment Blues (Remastered Single Version)

Number of tracks: 9
Official DR value: DR8

Samplerate: 44100 Hz
Channels: 2
Bits per sample: 16
Bitrate: 888 kbps
Codec: FLAC

[CUETools log; Date: 20.09.2015 19:25:22; Version: 2.1.4]
[CTDB TOCID: jy50m6IqnCbZUw_xHcAHMd9MQRE-] found.
Track | CTDB Status
1 | (11/11) Accurately ripped
2 | (11/11) Accurately ripped
3 | (11/11) Accurately ripped
4 | (11/11) Accurately ripped
5 | (11/11) Accurately ripped
6 | (11/11) Accurately ripped
7 | (11/11) Accurately ripped
8 | (11/11) Accurately ripped
9 | (11/11) Accurately ripped
[AccurateRip ID: 000db45d-00647535-6e098609] disk not present in database.

Track Peak [ CRC32 ] [W/O NULL] [ LOG ]
-- 97,7 [FCA85307] [9C9D075E] CRC32
01 97,6 [2BA64ADC] [4A6AEAB8]
02 90,9 [DA1E6DB0] [7555CF82]
03 97,7 [A6EC02F2] [4B3BF2FE]
04 97,7 [9CDAF6A8] 0329645
05 97,7 [C7BD0906] [8970A791]
06 93,0 [F03D439A] [FC4673F7]
07 97,0 [F7734FAB] [1E47A9AA]
08 94,5 C790C3C [CDB092C5]
09 91,0 [8BD2CF93] [ACF31427]

Faces - You Can Make Me Dance, Sing Or Anything 1970-1975 (2015) [5CD Box Set]

DOWNLOAD:
Buy Premium To Support Me & Get Resumable Support & Max Speed

Rapidgator.net:
nymlv.Faces15BoxBoxArt.rar.html
nymlv.Faces15BoxCD01flac.rar.html
nymlv.Faces15BoxCD01mp3320.rar.html
nymlv.Faces15BoxCD01Scans.rar.html
nymlv.Faces15BoxCD02flac.rar.html
nymlv.Faces15BoxCD02mp3320.rar.html
nymlv.Faces15BoxCD02Scans.rar.html
nymlv.Faces15BoxCD03flac.rar.html
nymlv.Faces15BoxCD03mp3320.rar.html
nymlv.Faces15BoxCD03Scans.rar.html
nymlv.Faces15BoxCD04flac.rar.html
nymlv.Faces15BoxCD04mp3320.rar.html
nymlv.Faces15BoxCD04Scans.rar.html
nymlv.Faces15BoxCD05flac.rar.html
nymlv.Faces15BoxCD05mp3320.rar.html
nymlv.Faces15BoxCD05Scans.rar.html

Uploaded.net:
nymlv.Faces15BoxBoxArt.rar
nymlv.Faces15BoxCD01flac.rar
nymlv.Faces15BoxCD01mp3320.rar
nymlv.Faces15BoxCD01Scans.rar
nymlv.Faces15BoxCD02flac.rar
nymlv.Faces15BoxCD02mp3320.rar
nymlv.Faces15BoxCD02Scans.rar
nymlv.Faces15BoxCD03flac.rar
nymlv.Faces15BoxCD03mp3320.rar
nymlv.Faces15BoxCD03Scans.rar
nymlv.Faces15BoxCD04flac.rar
nymlv.Faces15BoxCD04mp3320.rar
nymlv.Faces15BoxCD04Scans.rar
nymlv.Faces15BoxCD05flac.rar
nymlv.Faces15BoxCD05mp3320.rar
nymlv.Faces15BoxCD05Scans.rar

Nitroflare.com
nymlv.Faces15BoxBoxArt.rar
nymlv.Faces15BoxCD01flac.rar
nymlv.Faces15BoxCD01mp3320.rar
nymlv.Faces15BoxCD01Scans.rar
nymlv.Faces15BoxCD02flac.rar
nymlv.Faces15BoxCD02mp3320.rar
nymlv.Faces15BoxCD02Scans.rar
nymlv.Faces15BoxCD03flac.rar
nymlv.Faces15BoxCD03mp3320.rar
nymlv.Faces15BoxCD03Scans.rar
nymlv.Faces15BoxCD04flac.rar
nymlv.Faces15BoxCD04mp3320.rar
nymlv.Faces15BoxCD04Scans.rar
nymlv.Faces15BoxCD05flac.rar
nymlv.Faces15BoxCD05mp3320.rar
nymlv.Faces15BoxCD05Scans.rar

Uploadable.ch:
nymlv.Faces15BoxBoxArt.rar
nymlv.Faces15BoxCD01flac.rar
nymlv.Faces15BoxCD01mp3320.rar
nymlv.Faces15BoxCD01Scans.rar
nymlv.Faces15BoxCD02flac.rar
nymlv.Faces15BoxCD02mp3320.rar
nymlv.Faces15BoxCD02Scans.rar
nymlv.Faces15BoxCD03flac.rar
nymlv.Faces15BoxCD03mp3320.rar
nymlv.Faces15BoxCD03Scans.rar
nymlv.Faces15BoxCD04flac.rar
nymlv.Faces15BoxCD04mp3320.rar
nymlv.Faces15BoxCD04Scans.rar
nymlv.Faces15BoxCD05flac.rar
nymlv.Faces15BoxCD05mp3320.rar
nymlv.Faces15BoxCD05Scans.rar

Links are Interchangeable - No Password
Direct Download

Tags: Anything

Faces - You Can Make Me Dance, Sing Or Anything 1970-1975 (2015) [5CD Box Set] Download via Hotfile Rapidshare Fileserve Megaupload & FileSonic, Faces - You Can Make Me Dance, Sing Or Anything 1970-1975 (2015) [5CD Box Set] free torrent downloads included crack, serial, keygen.Faces - You Can Make Me Dance, Sing Or Anything 1970-1975 (2015) [5CD Box Set] Fast Download via Rapidshare Hotfile Fileserve Filesonic Megaupload, Faces - You Can Make Me Dance, Sing Or Anything 1970-1975 (2015) [5CD Box Set] Torrents and Emule Download or anything related.
Leave a Comment
Your Name:
E-Mail:
Add Comments:

Enter Code: