Big Sugar - Yardstyle (2014)

Download Now

Big Sugar - Yardstyle (2014)

Big Sugar - Yardstyle (2014)
EAC | Flac(Image) + Cue + Log & MP3 CBR 320Kbps
Bread & Butter Productions, BPI CD 0414 | ~ 443 or 171 Mb | Scans Included
Reggae Rock

"They've sold around half a million albums in Canada, mostly during their '90s heyday, but Big Sugar have never quite been given the credit they deserve for skilfully integrating reggae and dub elements into their rock-based sound. On Yard Style, they dial down the volume to concentrate on acoustic yet percussion-heavy reggae, to convincing effect..."


Tracklist:

01. Calling All The Youth (5:11)
02. Police Bway A Vampire (4:20)
03. Little Bit A All Right (5:54)
04. Messenger Man (5:29)
05. If I Were Heaven (Tonight) (3:59)
06. West Coast Hobo In A Boxcar Blues (5:21)
07. Eliminate Ya! (5:38)
08. Turn The Lights On (4:35)
09. A Revolution Per Minute (5:34)
10. Heart Refuse To Pound (4:45)
11. 100 Cigarettes (5:06)
12. I Want You Now (4:44)
13. Go Tell The World (4:49)

Musicians:

Gordie Johnson- vocal, guitar, banjo, steel guitar, percussion
Willi Williams- vocal, percussion
Kelly "Mr. Chill" Hoppe- harmonica, saxophone, guitar, vocal
Garry Lowe- bass, vocal
Christopher "Friendlyness" Hatton- melodica, percussion, vocal
Stephane "Bodean" Beaudin- percussion
"Bongo" Gene Campbell- percussion
Tony "Raffa" White- percussion, vocal
Safwan Javed- percussion, vocal
"Sun-Ray" Grennan- percussion, vocal
Meredith Shaw- vocal
John Angus MacDonald- guitar, bouzouki, vocal
Colin MacDonald- guitar, vocal


Exact Audio Copy V1.0 beta 3 from 29. August 2011

EAC extraction logfile from 16. April 2014, 20:04

Big Sugar / Yardstyle

Used drive : ATAPI iHBS212 2 Adapter: 3 ID: 0

Read mode : Secure
Utilize accurate stream : Yes
Defeat audio cache : Yes
Make use of C2 pointers : No

Read offset correction

: 6
Overread into Lead-In and Lead-Out : No
Fill up missing offset samples with silence : Yes
Delete leading and trailing silent blocks : No
Null samples used in CRC calculations : Yes
Used interface
: Native Win32 interface for Win NT & 2000
Gap handling
: Appended to previous track

Used output format : User Defined Encoder
Selected bitrate : 128 kBit/s
Quality : High
Add ID3 tag : No
Command line compressor : C:\Program Files (x86)\Exact Audio Copy\Flac\flac.exe
Additional command line options : -8 -V -T "ARTIST=%artist%" -T "TITLE=%title%" -T "ALBUM=%albumtitle%" -T "DATE=%year%" -T "TRACKNUMBER=%tracknr%" -T "TOTALTRACKS=%numtracks%" -T "GENRE=%genre%" -T "ALBUMARTIST=%albumartist%" -T "ALBUM ARTIST=%albumartist%" -T "COMMENT=EAC Secure Mode, Test & Copy, AccurateRip, FLAC -8" %source%

TOC of the extracted CD Track | Start | Length | Start sector | End sector
--1 | 0:00.00 | 5:11.22 | 0 | 23346 2 | 5:11.22 | 4:20.22 | 23347 | 42868 3 | 9:31.44 | 5:53.62 | 42869 | 69405 4 | 15:25.31 | 5:29.24 | 69406 | 94104 5 | 20:54.55 | 3:58.69 | 94105 | 112023 6 | 24:53.49 | 5:21.33 | 112024 | 136131 7 | 30:15.07 | 5:37.41 | 136132 | 161447 8 | 35:52.48 | 4:34.42 | 161448 | 182039 9 | 40:27.15 | 5:34.15 | 182040 | 207104
10 | 46:01.30 | 4:44.38 | 207105 | 228442
11 | 50:45.68 | 5:05.48 | 228443 | 251365
12 | 55:51.41 | 4:44.10 | 251366 | 272675
13 | 60:35.51 | 4:49.28 | 272676 | 294378

Track 1 Filename C:\Users\Rob\Desktop\Uploads\Big Sugar - Yard Style (2014) [FLAC]\01 - Calling All The Youth.wav Pre-gap length 0:00:02.00 Peak level 97.7 %
Extraction speed 6.2 X
Track quality 100.0 %
Test CRC 7BDAB8C9
Copy CRC 7BDAB8C9
Track not present in AccurateRip database
Copy OK

Track 2 Filename C:\Users\Rob\Desktop\Uploads\Big Sugar - Yard Style (2014) [FLAC]\02 - Police Bway A Vampire.wav Peak level 97.7 %
Extraction speed 5.6 X
Track quality 99.9 %
Test CRC 9AF9F0C9
Copy CRC 9AF9F0C9
Track not present in AccurateRip database
Copy OK

Track 3 Filename C:\Users\Rob\Desktop\Uploads\Big Sugar - Yard Style (2014) [FLAC]\03 - Little Bit A All Right.wav Peak level 97.7 %
Extraction speed 7.5 X
Track quality 100.0 %
Test CRC 0CE01D9C
Copy CRC 0CE01D9C
Track not present in AccurateRip database
Copy OK

Track 4 Filename C:\Users\Rob\Desktop\Uploads\Big Sugar - Yard Style (2014) [FLAC]\04 - Messenger Man.wav Peak level 97.7 %
Extraction speed 7.0 X
Track quality 99.9 %
Test CRC 8604C737
Copy CRC 8604C737
Track not present in AccurateRip database
Copy OK

Track 5 Filename C:\Users\Rob\Desktop\Uploads\Big Sugar - Yard Style (2014) [FLAC]\05 - If I Were Heaven (Tonight).wav Peak level 97.7 %
Extraction speed 8.3 X
Track quality 100.0 %
Test CRC 3876D063
Copy CRC 3876D063
Track not present in AccurateRip database
Copy OK

Track 6 Filename C:\Users\Rob\Desktop\Uploads\Big Sugar - Yard Style (2014) [FLAC]\06 - West Coast Hobo In A Boxcar Blues.wav Peak level 97.7 %
Extraction speed 9.0 X
Track quality 100.0 %
Test CRC 91C71601
Copy CRC 91C71601
Track not present in AccurateRip database
Copy OK

Track 7 Filename C:\Users\Rob\Desktop\Uploads\Big Sugar - Yard Style (2014) [FLAC]\07 - Eliminate Ya!.wav Peak level 97.7 %
Extraction speed 9.5 X
Track quality 100.0 %
Test CRC 700E5A9D
Copy CRC 700E5A9D
Track not present in AccurateRip database
Copy OK

Track 8 Filename C:\Users\Rob\Desktop\Uploads\Big Sugar - Yard Style (2014) [FLAC]\08 - Turn The Lights On.wav Peak level 97.7 %
Extraction speed 8.2 X
Track quality 99.9 %
Test CRC AF239765
Copy CRC AF239765
Track not present in AccurateRip database
Copy OK

Track 9 Filename C:\Users\Rob\Desktop\Uploads\Big Sugar - Yard Style (2014) [FLAC]\09 - A Revolution Per Minute.wav Peak level 97.7 %
Extraction speed 10.4 X
Track quality 100.0 %
Test CRC 7CC5D454
Copy CRC 7CC5D454
Track not present in AccurateRip database
Copy OK

Track 10 Filename C:\Users\Rob\Desktop\Uploads\Big Sugar - Yard Style (2014) [FLAC]\10 - Heart Refuse To Pound.wav Peak level 97.7 %
Extraction speed 9.0 X
Track quality 99.9 %
Test CRC 7A407ACC
Copy CRC 7A407ACC
Track not present in AccurateRip database
Copy OK

Track 11 Filename C:\Users\Rob\Desktop\Uploads\Big Sugar - Yard Style (2014) [FLAC]\11 - 100 Cigarettes.wav Peak level 97.7 %
Extraction speed 11.1 X
Track quality 100.0 %
Test CRC 3A453228
Copy CRC 3A453228
Track not present in AccurateRip database
Copy OK

Track 12 Filename C:\Users\Rob\Desktop\Uploads\Big Sugar - Yard Style (2014) [FLAC]\12 - I Want You Now.wav Peak level 97.8 %
Extraction speed 11.3 X
Track quality 100.0 %
Test CRC 2DA65B9E
Copy CRC 2DA65B9E
Track not present in AccurateRip database
Copy OK

Track 13 Filename C:\Users\Rob\Desktop\Uploads\Big Sugar - Yard Style (2014) [FLAC]\13 - Go Tell The World.wav Peak level 97.7 %
Extraction speed 11.6 X
Track quality 100.0 %
Test CRC C0F89277
Copy CRC C0F89277
Track not present in AccurateRip database
Copy OK

None of the tracks are present in the AccurateRip database

No errors occurred

End of status report

==== Log checksum C2DF41173FE0FC4450587605725A3DC8DB3BDBB2D564AA3E27B42976A2C0398F ====

foobar2000 1.2.9 / Dynamic Range Meter 1.1.1
log date: 2015-09-22 08:48:02

Analyzed: Big Sugar / Yardstyle

DR Peak RMS Duration Track

DR6 -0.20 dB -8.23 dB 5:11 01-Calling All The Youth
DR6 -0.20 dB -7.87 dB 4:20 02-Police Bway A Vampire
DR7 -0.20 dB -8.03 dB 5:54 03-Little Bit A All Right
DR7 -0.20 dB -7.97 dB 5:29 04-Messenger Man
DR8 -0.20 dB -9.60 dB 3:59 05-If I Were Heaven (Tonight)
DR7 -0.20 dB -9.02 dB 5:21 06-West Coast Hobo In A Boxcar Blues
DR7 -0.20 dB -8.84 dB 5:38 07-Eliminate Ya!
DR7 -0.20 dB -8.54 dB 4:35 08-Turn The Lights On
DR6 -0.20 dB -7.72 dB 5:34 09-A Revolution Per Minute
DR7 -0.20 dB -8.01 dB 4:45 10-Heart Refuse To Pound
DR7 -0.20 dB -8.55 dB 5:06 11-100 Cigarettes
DR8 -0.19 dB -9.58 dB 4:44 12-I Want You Now
DR7 -0.20 dB -8.25 dB 4:49 13-Go Tell The World

Number of tracks: 13
Official DR value: DR7

Samplerate: 44100 Hz
Channels: 2
Bits per sample: 16
Bitrate: 885 kbps
Codec: FLAC

[CUETools log; Date: 22.09.2015 8:47:51; Version: 2.1.4]
[CTDB TOCID: MSLeplXjuhStp6GBJxtwmtLhtgI-] found.
Track | CTDB Status
1 | (8/8) Accurately ripped
2 | (8/8) Accurately ripped
3 | (8/8) Accurately ripped
4 | (8/8) Accurately ripped
5 | (8/8) Accurately ripped
6 | (8/8) Accurately ripped
7 | (8/8) Accurately ripped
8 | (8/8) Accurately ripped
9 | (8/8) Accurately ripped
10 | (8/8) Accurately ripped
11 | (8/8) Accurately ripped
12 | (8/8) Accurately ripped
13 | (8/8) Accurately ripped
[AccurateRip ID: 001faacc-013c8aa8-ba0f550d] found.
Track [ CRC | V2 ] Status
01 [991de6ab|76a5d653] (0+3/3) Accurately ripped
02 [8c0ee707|3a12e326] (0+3/3) Accurately ripped
03 [5671a8e4|d1ec47df] (0+3/3) Accurately ripped
04 [48d735ad|ad82dc22] (0+3/3) Accurately ripped
05 [661221a4|dd3a9413] (0+3/3) Accurately ripped
06 [c34391c6|7869c042] (0+3/3) Accurately ripped
07 7ebacc0|211e9c21 (0+3/3) Accurately ripped
08 [84eb32b6|8f9c1230] (0+3/3) Accurately ripped
09 [4866e573|8c518fef] (0+3/3) Accurately ripped
10 [cd21e6e5|1b110b82] (0+3/3) Accurately ripped
11 [a8b46025|70f7ee88] (0+3/3) Accurately ripped
12 [7d60a807|b57667c4] (0+3/3) Accurately ripped
13 [9e11d99e|a3cfe2dc] (0+3/3) Accurately ripped

Track Peak [ CRC32 ] [W/O NULL] [ LOG ]
-- 97,8 [C35D465D] [95303FFD]
01 97,7 [7BDAB8C9] [16FFF07C] CRC32
02 97,7 [9AF9F0C9] [06F5D8CB] CRC32
03 97,7 [0CE01D9C] [FCFDD7CC] CRC32
04 97,7 [8604C737] [C483A484] CRC32
05 97,7 [3876D063] [50159059] CRC32
06 97,7 [91C71601] [3A0CABB8] CRC32
07 97,7 [700E5A9D] [6496D0FE] CRC32
08 97,7 [AF239765] [5A7DE90D] CRC32
09 97,7 [7CC5D454] [5F3507A9] CRC32
10 97,7 [7A407ACC] [9BAC5B38] CRC32
11 97,7 [3A453228] [63353F5E] CRC32
12 97,8 [2DA65B9E] [FCEC2C9B] CRC32
13 97,7 [C0F89277] [08453DE7] CRC32

Big Sugar - Yardstyle (2014)

DOWNLOAD LINKS
Buy Premium From My Links To Get Resumable Support & Max Speed & To Support Me


Links are Interchangeable - No Password - Single Extraction
Direct Download

Tags: Yardstyle

Big Sugar - Yardstyle (2014) Download via Hotfile Rapidshare Fileserve Megaupload & FileSonic, Big Sugar - Yardstyle (2014) free torrent downloads included crack, serial, keygen.Big Sugar - Yardstyle (2014) Fast Download via Rapidshare Hotfile Fileserve Filesonic Megaupload, Big Sugar - Yardstyle (2014) Torrents and Emule Download or anything related.
Leave a Comment
Your Name:
E-Mail:
Add Comments:

Enter Code: