Maat Lander - The Birth Of Maat's Galaxy (2015)

Download Now

Maat Lander - The Birth Of Maat's Galaxy (2015)

Maat Lander - The Birth Of Maat's Galaxy (2015)
EAC | Flac(Image) + Cue + Log & MP3 CBR 320Kbps
RAIG, R087 | ~ 465 or 176 Mb | Scans(png) -> 117 Mb
Progressive Rock / Psychedelic Rock / Krautrock / Experimental

"Maat Lander is a new instrumental Space Rock trio that brings together members of two of my favorite R.A.I.G. label bands: Ilya Lipkin of The Re-Stoned (guitar, mandola), and brothers Arkadiy (keys, synths, bass) and Ivan (drums, percussion) Fedotov of Vespero. This 10 track set is a winner from start to finish, with tracks in the 4-9 minute range..."


Tracklist:

1.The Comet Rider 05:37
2.Alnilam 07:55
3.Spiral Arms 06:05
4.To Johannes Kepler 09:24
5.Aquarius 07:09
6.Gliese 581 06:06
7.Lunar Rocket 06:36
8.Two Keys To The Sky 06:35
9.Coma Berenices 09:10
10.The Birth Of Maat's Galaxy 09:44

Musicians:

Arkady Fedotov - keys and synths, bass, fretless bass
Ilya Lipkin - guitars, mandola
Ivan Fedotov - drums, percussions, wave drum, school bell


Exact Audio Copy V1.0 beta 6 from 9. April 2015

EAC extraction logfile from 7. August 2015, 20:43

Maat Lander / The Birth Of Maat's Galaxy

Used drive : TSSTcorpCDDVDW SH-S223C Adapter: 1 ID: 0

Read mode : Secure
Utilize accurate stream : Yes
Defeat audio cache : Yes
Make use of C2 pointers : No

Read offset correction

: 697
Overread into Lead-In and Lead-Out : No
Fill up missing offset samples with silence : Yes
Delete leading and trailing silent blocks : No
Null samples used in CRC calculations : Yes
Used interface
: Native Win32 interface for Win NT & 2000

Used output format : User Defined Encoder
Selected bitrate : 128 kBit/s
Quality : High
Add ID3 tag : No
Command line compressor : C:\Program Files (x86)\Exact Audio Copy\wavpack\wavpack.exe
Additional command line options : -hm -w "Year=%year%" -w "Genre=%genre%" %source% %dest%

TOC of the extracted CD Track | Start | Length | Start sector | End sector
--1 | 0:00.00 | 5:37.59 | 0 | 25333 2 | 5:37.59 | 7:55.24 | 25334 | 60982 3 | 13:33.08 | 6:05.10 | 60983 | 88367 4 | 19:38.18 | 9:24.08 | 88368 | 130675 5 | 29:02.26 | 7:09.36 | 130676 | 162886 6 | 36:11.62 | 6:06.64 | 162887 | 190400 7 | 42:18.51 | 6:36.09 | 190401 | 220109 8 | 48:54.60 | 6:35.30 | 220110 | 249764 9 | 55:30.15 | 9:10.49 | 249765 | 291063
10 | 64:40.64 | 9:44.06 | 291064 | 334869

Range status and errors

Selected range Filename D:\_NL+_\_CD\Maat Lander - The Birth Of Maat's Galaxy.wav Peak level 98.9 %
Extraction speed 3.4 X
Range quality 100.0 %
Test CRC 2E00EFA8
Copy CRC 2E00EFA8
Copy OK

No errors occurred


AccurateRip summary

Track 1 accurately ripped (confidence 1) [30E888D6] (AR v2)
Track 2 accurately ripped (confidence 1) 987DBA6 (AR v2)
Track 3 accurately ripped (confidence 1) 0169CA1 (AR v2)
Track 4 accurately ripped (confidence 1) [8484C183] (AR v2)
Track 5 accurately ripped (confidence 1) 2C154BC (AR v2)
Track 6 accurately ripped (confidence 1) [793216A8] (AR v2)
Track 7 accurately ripped (confidence 1) [6D6D5933] (AR v2)
Track 8 accurately ripped (confidence 1) [1574FF57] (AR v2)
Track 9 accurately ripped (confidence 1) [33800CC6] (AR v2)
Track 10 accurately ripped (confidence 1) [35FEEDDD] (AR v2)

All tracks accurately ripped

End of status report

- CUETools DB Plugin V2.1.6

[CTDB TOCID: owGIL0zYM3LeBEnTdWbUw8R33u4-] disk not present in database
Submit result: owGIL0zYM3LeBEnTdWbUw8R33u4- has been uploaded

==== Log checksum A1CE73EF81B9E7E292BF60BFB4BFF2F636445359248143AEC67C8592C72469BA ====

foobar2000 1.2.9 / Dynamic Range Meter 1.1.1
log date: 2015-09-22 11:01:21

Analyzed: Maat Lander / The Birth Of Maat's Galaxy

DR Peak RMS Duration Track

DR8 -0.09 dB -10.28 dB 5:38 01-The Comet Rider
DR7 -0.09 dB -9.55 dB 7:55 02-Alnilam
DR8 -0.09 dB -9.53 dB 6:05 03-Spiral Arms
DR8 -0.09 dB -10.79 dB 9:24 04-To Johannes Kepler
DR8 -0.09 dB -11.14 dB 7:09 05-Aquarius
DR8 -0.09 dB -10.77 dB 6:07 06-Gliese 581
DR8 -0.09 dB -9.32 dB 6:36 07-Lunar Rocket
DR7 -0.09 dB -9.25 dB 6:35 08-Two Keys To The Sky
DR8 -0.09 dB -10.89 dB 9:11 09-Coma Berenices
DR7 -0.10 dB -9.59 dB 9:44 10-The Birth Of Maat's Galaxy

Number of tracks: 10
Official DR value: DR8

Samplerate: 44100 Hz
Channels: 2
Bits per sample: 16
Bitrate: 846 kbps
Codec: FLAC

[CUETools log; Date: 22.09.2015 11:01:14; Version: 2.1.4]
[CTDB TOCID: owGIL0zYM3LeBEnTdWbUw8R33u4-] found.
Track | CTDB Status
1 | (1/1) Accurately ripped
2 | (1/1) Accurately ripped
3 | (1/1) Accurately ripped
4 | (1/1) Accurately ripped
5 | (1/1) Accurately ripped
6 | (1/1) Accurately ripped
7 | (1/1) Accurately ripped
8 | (1/1) Accurately ripped
9 | (1/1) Accurately ripped
10 | (1/1) Accurately ripped
[AccurateRip ID: 001ac55a-00d7f766-8511700a] found.
Track [ CRC | V2 ] Status
01 [11f622e0|30e888d6] (0+1/1) Accurately ripped
02 [4bdf1d0e|b987dba6] (0+1/1) Accurately ripped
03 [8911a523|b0169ca1] (0+1/1) Accurately ripped
04 [a6b4989c|8484c183] (0+1/1) Accurately ripped
05 [56767e17|b2c154bc] (0+1/1) Accurately ripped
06 [d2459e32|793216a8] (0+1/1) Accurately ripped
07 [e880e627|6d6d5933] (0+1/1) Accurately ripped
08 [580a2706|1574ff57] (0+1/1) Accurately ripped
09 [08fac385|33800cc6] (0+1/1) Accurately ripped
10 [222a76b5|35feeddd] (0+1/1) Accurately ripped

Track Peak [ CRC32 ] [W/O NULL] [ LOG ]
-- 98,9 [2E00EFA8] [08DBAFB7] CRC32
01 98,9 [2B4931D4] 15899B4
02 98,9 [A01D8AA3] [6E11FE96]
03 98,9 [75D45137] [E0B7027C]
04 98,9 [51615943] [39100D2B]
05 98,9 [E07C3CE7] [0C425F11]
06 98,9 [33B0B99F] [EC12C97A]
07 98,9 [4B4AE8B2] [C6C1D7AA]
08 98,9 [ECE540BE] [A6DC82CF]
09 98,9 [052E8B2D] [42B2FEE7]
10 98,9 [9E52BB46] [A217D089]

Maat Lander - The Birth Of Maat's Galaxy (2015)

DOWNLOAD LINKS
Buy Premium From My Links To Get Resumable Support & Max Speed & To Support Me


Links are Interchangeable - No Password - Single Extraction
Direct Download

Tags: Lander, Galaxy

Maat Lander - The Birth Of Maat's Galaxy (2015) Download via Hotfile Rapidshare Fileserve Megaupload & FileSonic, Maat Lander - The Birth Of Maat's Galaxy (2015) free torrent downloads included crack, serial, keygen.Maat Lander - The Birth Of Maat's Galaxy (2015) Fast Download via Rapidshare Hotfile Fileserve Filesonic Megaupload, Maat Lander - The Birth Of Maat's Galaxy (2015) Torrents and Emule Download or anything related.
Leave a Comment
Your Name:
E-Mail:
Add Comments:

Enter Code: