The Mamas & The Papas - Complete Anthology (2004)

Download Now

The Mamas & The Papas - Complete Anthology (2004)

The Mamas & The Papas - Complete Anthology (2004)
EAC | Flac(Image) + Cue + Log & MP3 CBR 320Kbps
4CD | Universal Music, 982 168 0 | ~ 1979 or 729 Mb | Scans Included
Folk Rock / Pop Rock / Sunshine Pop

"What's in a name? If you love mid-'60s folk-rockers the Mamas & the Papas, this four-volume U.K. Complete Anthology (2004) speaks for itself. The 101 selections run in excess of five hours centering on the vintage long-players If You Can Believe Your Eyes and Ears (1966), The Mamas & the Papas (1966), The Mamas & the Papas Deliver (1967), The Papas & the Mamas (1968), People Like Us (1971), and The Monterey International Pop Festival (1971)..."


Tracklist CD1:

01. Monday, Monday (03:27)
02. Straight Shooter (02:58)
03. Got A Feelin' (02:52)
04. I Call Your Name (02:37)
05. Do You Wanna Dance (02:59)
06. Go Where You Wanna Go (02:29)
07. California Dreamin' (02:41)
08. Spanish Harlem (03:21)
09. Somebody Groovy (03:16)
10. Hey Girl (02:29)
11. You Baby (02:21)
12. In The Crowd (03:16)
13. No Salt On Her Tail (02:43)
14. Trip, Stumble & Fall (02:41)
15. Dancing Bear (04:11)
16. Words Of Love (02:16)
17. My Heart Stood Still (01:44)
18. Dancing In The Street (03:49)
19. I Saw Her Again (03:14)
20. Strange Young Girls (02:56)
21. I Can't Wait (02:44)
22. Even If I Could (02:44)
23. That Kind Of Girl (02:38)
24. Once Was A Time I Thought (01:02)
25. Glad To Be Unhappy (01:44)
26. Creeque Alley (mono) (03:45)
27. Words Of Love (mono single mix) (02:16)

Exact Audio Copy V0.99 prebeta 5 from 4. May 2009

EAC extraction logfile from 12. January 2010, 21:35

The Mamas & The Papas / Complete Anthology (CD 1)

Used drive : HL-DT-STDVD-ROM GDR8163B Adapter: 0 ID: 0

Read mode : Secure
Utilize accurate stream : Yes
Defeat audio cache : Yes
Make use of C2 pointers : No

Read offset correction

: 102
Overread into Lead-In and Lead-Out : No
Fill up missing offset samples with silence : Yes
Delete leading and trailing silent blocks : No
Null samples used in CRC calculations : Yes
Used interface
: Native Win32 interface for Win NT & 2000
Gap handling
: Appended to previous track

Used output format : User Defined Encoder
Selected bitrate : 128 kBit/s
Quality : High
Add ID3 tag : No
Command line compressor : C:\Program Files\Exact Audio Copy\Flac\flac.exe
Additional command line options : -V -8 -T "artist=%a" -T "title=%t" -T "album=%g" -T "date=%y" -T "tracknumber=%n" -T "genre=%m" %s

TOC of the extracted CD Track | Start | Length | Start sector | End sector
--1 | 0:00.00 | 3:27.13 | 0 | 15537 2 | 3:27.13 | 2:58.06 | 15538 | 28893 3 | 6:25.19 | 2:51.49 | 28894 | 41767 4 | 9:16.68 | 2:37.16 | 41768 | 53558 5 | 11:54.09 | 2:58.60 | 53559 | 66968 6 | 14:52.69 | 2:28.45 | 66969 | 78113 7 | 17:21.39 | 2:40.28 | 78114 | 90141 8 | 20:01.67 | 3:20.53 | 90142 | 105194 9 | 23:22.45 | 3:15.32 | 105195 | 119851
10 | 26:38.02 | 2:29.00 | 119852 | 131026
11 | 29:07.02 | 2:20.37 | 131027 | 141563
12 | 31:27.39 | 3:16.14 | 141564 | 156277
13 | 34:43.53 | 2:43.21 | 156278 | 168523
14 | 37:26.74 | 2:40.57 | 168524 | 180580
15 | 40:07.56 | 4:10.47 | 180581 | 199377
16 | 44:18.28 | 2:15.67 | 199378 | 209569
17 | 46:34.20 | 1:43.57 | 209570 | 217351
18 | 48:18.02 | 3:49.08 | 217352 | 234534
19 | 52:07.10 | 3:13.56 | 234535 | 249065
20 | 55:20.66 | 2:55.37 | 249066 | 262227
21 | 58:16.28 | 2:44.06 | 262228 | 274533
22 | 61:00.34 | 2:43.48 | 274534 | 286806
23 | 63:44.07 | 2:37.67 | 286807 | 298648
24 | 66:21.74 | 1:01.69 | 298649 | 303292
25 | 67:23.68 | 1:44.10 | 303293 | 311102
26 | 69:08.03 | 3:44.27 | 311103 | 327929
27 | 72:52.30 | 2:15.30 | 327930 | 338084

Track 1 Filename C:\EAC Rips\The Mamas & The Papas - 2004 - Complete Anthology (CD 1)\01 - Monday, Monday.wav Pre-gap length 0:00:02.00 Peak level 98.8 %
Track quality 100.0 %
Test CRC 47813877
Copy CRC 47813877
Accurately ripped (confidence 7) [F002C676]
Copy OK

Track 2 Filename C:\EAC Rips\The Mamas & The Papas - 2004 - Complete Anthology (CD 1)\02 - Straight Shooter.wav Peak level 98.8 %
Track quality 100.0 %
Test CRC 9DE20CE6
Copy CRC 9DE20CE6
Accurately ripped (confidence 8) [27AA65E6]
Copy OK

Track 3 Filename C:\EAC Rips\The Mamas & The Papas - 2004 - Complete Anthology (CD 1)\03 - Got a Feelin'.wav Peak level 98.8 %
Track quality 99.9 %
Test CRC 6B340492
Copy CRC 6B340492
Accurately ripped (confidence 7) [22AA76EA]
Copy OK

Track 4 Filename C:\EAC Rips\The Mamas & The Papas - 2004 - Complete Anthology (CD 1)\04 - I Call Your Name.wav Peak level 98.8 %
Track quality 100.0 %
Test CRC CE949CBC
Copy CRC CE949CBC
Accurately ripped (confidence 8) [E60EA595]
Copy OK

Track 5 Filename C:\EAC Rips\The Mamas & The Papas - 2004 - Complete Anthology (CD 1)\05 - Do You Wanna Dance.wav Peak level 98.8 %
Track quality 100.0 %
Test CRC 24B06453
Copy CRC 24B06453
Accurately ripped (confidence 7) 9E90129
Copy OK

Track 6 Filename C:\EAC Rips\The Mamas & The Papas - 2004 - Complete Anthology (CD 1)\06 - Go Where You Wanna Go.wav Peak level 98.8 %
Track quality 100.0 %
Test CRC EBE0AD89
Copy CRC EBE0AD89
Accurately ripped (confidence 8) [466F7935]
Copy OK

Track 7 Filename C:\EAC Rips\The Mamas & The Papas - 2004 - Complete Anthology (CD 1)\07 - California Dreamin'.wav Peak level 98.8 %
Track quality 99.9 %
Test CRC C38357CF
Copy CRC C38357CF
Accurately ripped (confidence 9) [ACD2BCA3]
Copy OK

Track 8 Filename C:\EAC Rips\The Mamas & The Papas - 2004 - Complete Anthology (CD 1)\08 - Spanish Harlem.wav Peak level 98.8 %
Track quality 100.0 %
Test CRC 4E21F808
Copy CRC 4E21F808
Accurately ripped (confidence 7) [E8825DC9]
Copy OK

Track 9 Filename C:\EAC Rips\The Mamas & The Papas - 2004 - Complete Anthology (CD 1)\09 - Somebody Groovy.wav Peak level 98.8 %
Track quality 100.0 %
Test CRC 79F63450
Copy CRC 79F63450
Accurately ripped (confidence 8) [F139E0DB]
Copy OK

Track 10 Filename C:\EAC Rips\The Mamas & The Papas - 2004 - Complete Anthology (CD 1)\10 - Hey Girl.wav Peak level 98.8 %
Track quality 100.0 %
Test CRC 98233EED
Copy CRC 98233EED
Accurately ripped (confidence 8) [5E415438]
Copy OK

Track 11 Filename C:\EAC Rips\The Mamas & The Papas - 2004 - Complete Anthology (CD 1)\11 - You Baby.wav Peak level 98.8 %
Track quality 100.0 %
Test CRC 16CE1210
Copy CRC 16CE1210
Accurately ripped (confidence 7) [83E98A40]
Copy OK

Track 12 Filename C:\EAC Rips\The Mamas & The Papas - 2004 - Complete Anthology (CD 1)\12 - The In Crowd.wav Peak level 98.8 %
Track quality 100.0 %
Test CRC 6515E2FD
Copy CRC 6515E2FD
Accurately ripped (confidence 7) [372C05F7]
Copy OK

Track 13 Filename C:\EAC Rips\The Mamas & The Papas - 2004 - Complete Anthology (CD 1)\13 - No Salt on Her Tail.wav Peak level 98.8 %
Track quality 100.0 %
Test CRC 8B9A9687
Copy CRC 8B9A9687
Accurately ripped (confidence 7) [D60AF967]
Copy OK

Track 14 Filename C:\EAC Rips\The Mamas & The Papas - 2004 - Complete Anthology (CD 1)\14 - Trip, Stumble & Fall.wav Peak level 98.8 %
Track quality 100.0 %
Test CRC 2977D425
Copy CRC 2977D425
Accurately ripped (confidence 7) [D60D04CF]
Copy OK

Track 15 Filename C:\EAC Rips\The Mamas & The Papas - 2004 - Complete Anthology (CD 1)\15 - Dancing Bear.wav Peak level 98.8 %
Track quality 100.0 %
Test CRC 90002C4C
Copy CRC 90002C4C
Accurately ripped (confidence 6) [4EEAA1EA]
Copy OK

Track 16 Filename C:\EAC Rips\The Mamas & The Papas - 2004 - Complete Anthology (CD 1)\16 - Words of Love.wav Peak level 98.8 %
Track quality 100.0 %
Test CRC 876D3A2A
Copy CRC 876D3A2A
Accurately ripped (confidence 7) [F304F92C]
Copy OK

Track 17 Filename C:\EAC Rips\The Mamas & The Papas - 2004 - Complete Anthology (CD 1)\17 - My Heart Stood Still.wav Peak level 98.8 %
Track quality 100.0 %
Test CRC A512D002
Copy CRC A512D002
Accurately ripped (confidence 6) [CD5DD30F]
Copy OK

Track 18 Filename C:\EAC Rips\The Mamas & The Papas - 2004 - Complete Anthology (CD 1)\18 - Dancing in the Street.wav Peak level 98.8 %
Track quality 99.9 %
Test CRC 9FA7FA7D
Copy CRC 9FA7FA7D
Accurately ripped (confidence 8) [45F6C5B7]
Copy OK

Track 19 Filename C:\EAC Rips\The Mamas & The Papas - 2004 - Complete Anthology (CD 1)\19 - I Saw Her Again.wav Peak level 98.8 %
Track quality 100.0 %
Test CRC 4B48F382
Copy CRC 4B48F382
Accurately ripped (confidence 8) [209CEA6E]
Copy OK

Track 20 Filename C:\EAC Rips\The Mamas & The Papas - 2004 - Complete Anthology (CD 1)\20 - Strange Young Girls.wav Peak level 98.8 %
Track quality 100.0 %
Test CRC 39700CBD
Copy CRC 39700CBD
Accurately ripped (confidence 6) [DF6EA312]
Copy OK

Track 21 Filename C:\EAC Rips\The Mamas & The Papas - 2004 - Complete Anthology (CD 1)\21 - I Can't Wait.wav Peak level 98.8 %
Track quality 100.0 %
Test CRC F6AF0B87
Copy CRC F6AF0B87
Accurately ripped (confidence 7) [AF9DE027]
Copy OK

Track 22 Filename C:\EAC Rips\The Mamas & The Papas - 2004 - Complete Anthology (CD 1)\22 - Even If I Could.wav Peak level 98.8 %
Track quality 100.0 %
Test CRC EB672929
Copy CRC EB672929
Accurately ripped (confidence 6) [AC546BF7]
Copy OK

Track 23 Filename C:\EAC Rips\The Mamas & The Papas - 2004 - Complete Anthology (CD 1)\23 - That Kind of Girl.wav Peak level 98.8 %
Track quality 100.0 %
Test CRC A88894E2
Copy CRC A88894E2
Accurately ripped (confidence 7) [767EA7DF]
Copy OK

Track 24 Filename C:\EAC Rips\The Mamas & The Papas - 2004 - Complete Anthology (CD 1)\24 - Once Was a Time I Thought.wav Peak level 98.8 %
Track quality 100.0 %
Test CRC 0A71E41F
Copy CRC 0A71E41F
Accurately ripped (confidence 6) [9CE8B242]
Copy OK

Track 25 Filename C:\EAC Rips\The Mamas & The Papas - 2004 - Complete Anthology (CD 1)\25 - Glad to Be Unhappy.wav Peak level 98.8 %
Track quality 100.0 %
Test CRC 78A91962
Copy CRC 78A91962
Accurately ripped (confidence 7) [7D7A6A30]
Copy OK

Track 26 Filename C:\EAC Rips\The Mamas & The Papas - 2004 - Complete Anthology (CD 1)\26 - Creeque Alley (Single Version).wav Peak level 98.8 %
Track quality 100.0 %
Test CRC 7559F980
Copy CRC 7559F980
Accurately ripped (confidence 7) [0FCC0CDC]
Copy OK

Track 27 Filename C:\EAC Rips\The Mamas & The Papas - 2004 - Complete Anthology (CD 1)\27 - Words of Love (Single Version).wav Peak level 98.8 %
Track quality 100.0 %
Test CRC B1EE42D1
Copy CRC B1EE42D1
Accurately ripped (confidence 5) [DCFD810C]
Copy OK

All tracks accurately ripped

No errors occurred

End of status report

foobar2000 1.2.9 / Dynamic Range Meter 1.1.1
log date: 2015-09-22 19:11:36

Analyzed: The Mamas & The Papas / Complete Anthology (CD 1)

DR Peak RMS Duration Track

DR7 -0.10 dB -9.37 dB 3:27 01-Monday, Monday
DR9 -0.10 dB -10.07 dB 2:58 02-Straight Shooter
DR9 -0.10 dB -10.93 dB 2:52 03-Got a Feelin'
DR8 -0.10 dB -10.22 dB 2:37 04-I Call Your Name
DR8 -0.10 dB -10.29 dB 2:59 05-Do You Wanna Dance
DR8 -0.10 dB -9.62 dB 2:29 06-Go Where You Wanna Go
DR8 -0.10 dB -9.91 dB 2:40 07-California Dreamin'
DR7 -0.10 dB -9.48 dB 3:21 08-Spanish Harlem
DR9 -0.10 dB -10.27 dB 3:15 09-Somebody Groovy
DR9 -0.10 dB -11.61 dB 2:29 10-Hey Girl
DR8 -0.10 dB -10.10 dB 2:20 11-You Baby
DR10 -0.10 dB -11.69 dB 3:16 12-The In Crowd
DR9 -0.10 dB -10.44 dB 2:43 13-No Salt on Her Tail
DR9 -0.10 dB -10.75 dB 2:41 14-Trip, Stumble & Fall
DR9 -0.10 dB -11.63 dB 4:11 15-Dancing Bear
DR9 -0.10 dB -10.79 dB 2:16 16-Words of Love
DR8 -0.10 dB -9.83 dB 1:44 17-My Heart Stood Still
DR8 -0.10 dB -10.28 dB 3:49 18-Dancing in the Street
DR8 -0.10 dB -9.36 dB 3:14 19-I Saw Her Again
DR9 -0.10 dB -11.44 dB 2:55 20-Strange Young Girls
DR9 -0.10 dB -10.34 dB 2:44 21-I Can't Wait
DR7 -0.10 dB -9.35 dB 2:44 22-Even If I Could
DR8 -0.10 dB -10.17 dB 2:38 23-That Kind of Girl
DR11 -0.10 dB -13.59 dB 1:02 24-Once Was a Time I Thought
DR9 -0.10 dB -10.35 dB 1:44 25-Glad to Be Unhappy
DR8 -0.10 dB -10.28 dB 3:44 26-Creeque Alley (Single Version)
DR7 -0.10 dB -8.62 dB 2:15 27-Words of Love (Single Version)

Number of tracks: 27
Official DR value: DR8

Samplerate: 44100 Hz
Channels: 2
Bits per sample: 16
Bitrate: 904 kbps
Codec: FLAC

[CUETools log; Date: 22.09.2015 19:11:29; Version: 2.1.4]
[CTDB TOCID: FQCaxtCveWnjvp7JkiyWcbyPCmU-] found.
Track | CTDB Status
1 | (18/18) Accurately ripped
2 | (18/18) Accurately ripped
3 | (18/18) Accurately ripped
4 | (18/18) Accurately ripped
5 | (18/18) Accurately ripped
6 | (18/18) Accurately ripped
7 | (18/18) Accurately ripped
8 | (18/18) Accurately ripped
9 | (18/18) Accurately ripped
10 | (18/18) Accurately ripped
11 | (18/18) Accurately ripped
12 | (18/18) Accurately ripped
13 | (18/18) Accurately ripped
14 | (18/18) Accurately ripped
15 | (18/18) Accurately ripped
16 | (18/18) Accurately ripped
17 | (18/18) Accurately ripped
18 | (18/18) Accurately ripped
19 | (18/18) Accurately ripped
20 | (18/18) Accurately ripped
21 | (18/18) Accurately ripped
22 | (18/18) Accurately ripped
23 | (18/18) Accurately ripped
24 | (18/18) Accurately ripped
25 | (18/18) Accurately ripped
26 | (17/18) Accurately ripped
27 | (18/18) Accurately ripped
[AccurateRip ID: 004a9fa7-059a82c8-96119b1b] found.
Track [ CRC | V2 ] Status
01 [f002c676|3c708b8e] (17+28/45) Accurately ripped
02 [27aa65e6|aa2d2421] (18+28/48) Accurately ripped
03 [22aa76ea|28998848] (17+28/47) Accurately ripped
04 [e60ea595|6816842a] (18+28/48) Accurately ripped
05 9e90129|f1e94811 (17+28/47) Accurately ripped
06 [466f7935|48adae7e] (18+28/48) Accurately ripped
07 [acd2bca3|75da2394] (19+28/49) Accurately ripped
08 [e8825dc9|854a0e82] (17+28/47) Accurately ripped
09 [f139e0db|fe7b5bdf] (18+28/48) Accurately ripped
10 [5e415438|d3851ae6] (18+28/48) Accurately ripped
11 [83e98a40|66ea3f54] (17+27/46) Accurately ripped
12 [372c05f7|e8056da6] (17+28/47) Accurately ripped
13 [d60af967|f7de09bb] (17+28/47) Accurately ripped
14 [d60d04cf|0c3147c1] (17+28/47) Accurately ripped
15 [4eeaa1ea|f71edd7e] (16+28/46) Accurately ripped
16 [f304f92c|d67e993f] (17+28/47) Accurately ripped
17 [cd5dd30f|1da54ecc] (16+28/46) Accurately ripped
18 [45f6c5b7|1292c8a2] (18+28/48) Accurately ripped
19 [209cea6e|9af85007] (18+27/47) Accurately ripped
20 [df6ea312|f0405856] (16+28/46) Accurately ripped
21 [af9de027|f3cbed8e] (17+28/47) Accurately ripped
22 [ac546bf7|abdcfb57] (16+28/46) Accurately ripped
23 [767ea7df|75ff4f74] (16+28/46) Accurately ripped
24 [9ce8b242|4a624d38] (16+28/46) Accurately ripped
25 [7d7a6a30|4d99cb7b] (17+28/47) Accurately ripped
26 [0fcc0cdc|144ad947] (16+28/46) Accurately ripped
27 [dcfd810c|d63da21e] (14+27/43) Accurately ripped
Offsetted by -30:
01 [026d6dba] (00/45) No match (V2 was not tested)
02 [11e5c713] (00/48) No match (V2 was not tested)
03 [2c602bda] (00/47) No match (V2 was not tested)
04 [10c34d4d] (00/48) No match (V2 was not tested)
05 [e17655dc] (00/47) No match (V2 was not tested)
06 [003ee7dc] (00/48) No match (V2 was not tested)
07 [a07a371b] (00/49) No match (V2 was not tested)
08 [574eb25c] (00/47) No match (V2 was not tested)
09 [26e6dbab] (00/48) No match (V2 was not tested)
10 [c56f2c64] (00/48) No match (V2 was not tested)
11 [f05fcb20] (00/46) No match (V2 was not tested)
12 [08b59a43] (00/47) No match (V2 was not tested)
13 [2e0ebfbc] (00/47) No match (V2 was not tested)
14 [03063c7c] (00/47) No match (V2 was not tested)
15 [3601d40d] (00/46) No match (V2 was not tested)
16 [d6806628] (00/47) No match (V2 was not tested)
17 a1fe27d (00/46) No match (V2 was not tested)
18 [a0af3a55] (00/48) No match (V2 was not tested)
19 [67705631] (00/47) No match (V2 was not tested)
20 [722044d2] (00/46) No match (V2 was not tested)
21 [714123aa] (00/47) No match (V2 was not tested)
22 [e0b9e901] (00/46) No match (V2 was not tested)
23 [cf330120] (00/46) No match (V2 was not tested)
24 [16cc1808] (00/46) No match (V2 was not tested)
25 [838a3c94] (00/47) No match (V2 was not tested)
26 [15357c27] (00/46) No match (V2 was not tested)
27 [e6b8e4cb] (00/43) No match (V2 was not tested)

Track Peak [ CRC32 ] [W/O NULL] [ LOG ]
-- 98,8 [0557D220] 05C1D62
01 98,8 [47813877] [C9182F35] CRC32
02 98,8 [9DE20CE6] [38ADCBEE] CRC32
03 98,8 [6B340492] 2B82EC1 CRC32
04 98,8 [CE949CBC] [6D670FB7] CRC32
05 98,8 [24B06453] [7A42DF10] CRC32
06 98,8 [EBE0AD89] [1B0120BF] CRC32
07 98,8 [C38357CF] [841177E2] CRC32
08 98,8 [4E21F808] [9B634B77] CRC32
09 98,8 [79F63450] [6FB91778] CRC32
10 98,8 [98233EED] [5C2EA672] CRC32
11 98,8 [16CE1210] [68D41989] CRC32
12 98,8 [6515E2FD] [487B197B] CRC32
13 98,8 [8B9A9687] [C9A2C271] CRC32
14 98,8 [2977D425] [368C128F] CRC32
15 98,8 [90002C4C] [392517EC] CRC32
16 98,8 [876D3A2A] [03B1812A] CRC32
17 98,8 [A512D002] [132D8154] CRC32
18 98,8 [9FA7FA7D] [60E31A80] CRC32
19 98,8 [4B48F382] [ADFD6FAD] CRC32
20 98,8 [39700CBD] [D00E9806] CRC32
21 98,8 [F6AF0B87] [6E56645C] CRC32
22 98,8 [EB672929] [DBFE0226] CRC32
23 98,8 [A88894E2] [E5991B95] CRC32
24 98,8 [0A71E41F] [82B7D259] CRC32
25 98,8 [78A91962] [D6B57788] CRC32
26 98,8 [7559F980] [25C87325] CRC32
27 98,8 1EE42D1 [85811DE4] CRC32

The Mamas & The Papas - Complete Anthology (2004)

Tracklist CD2:

01. Dedicated To The One I Love (02:59)
02. My Girl (03:33)
03. Creeque Alley (03:49)
04. Sing For Your Supper (02:49)
05. Twist And Shout (02:54)
06. Free Advice (03:20)
07. Look Through My Window (03:08)
08. Boys And Girls Together (03:16)
09. String Man (03:02)
10. Frustration (02:57)
11. Did You Ever Want To Cry (02:55)
12. John's Music Box (01:06)
13. The Right Somebody To Love (00:41)
14. Safe In My Garden (03:13)
15. Meditation Mama (Transcendental Woman Travels) (04:23)
16. For The Love Of Ivy (03:43)
17. Dream A Little Dream Of Me (03:16)
18. Mansions (03:47)
19. Gemini Childe (04:30)
20. Nothing's Too Good For My Little Girl (03:09)
21. Too Late (04:10)
22. Twelve Thirty (Young Girls Are Coming To The Canyon) (03:26)
23. Rooms (02:49)
24. Midnight Voyage (03:13)
25. Once Was A Time I Thought (rehearsal & studio chatter) (01:17)
26. Studio Chatter (00:42)
27. I Can't Wait (rehearsal & studio chatter) (01:16)

Exact Audio Copy V0.99 prebeta 5 from 4. May 2009

EAC extraction logfile from 12. January 2010, 22:06

The Mams & The Papas / Complete Anthology (CD 2)

Used drive : HL-DT-STDVD-ROM GDR8163B Adapter: 0 ID: 0

Read mode : Secure
Utilize accurate stream : Yes
Defeat audio cache : Yes
Make use of C2 pointers : No

Read offset correction

: 102
Overread into Lead-In and Lead-Out : No
Fill up missing offset samples with silence : Yes
Delete leading and trailing silent blocks : No
Null samples used in CRC calculations : Yes
Used interface
: Native Win32 interface for Win NT & 2000
Gap handling
: Appended to previous track

Used output format : User Defined Encoder
Selected bitrate : 128 kBit/s
Quality : High
Add ID3 tag : No
Command line compressor : C:\Program Files\Exact Audio Copy\Flac\flac.exe
Additional command line options : -V -8 -T "artist=%a" -T "title=%t" -T "album=%g" -T "date=%y" -T "tracknumber=%n" -T "genre=%m" %s

TOC of the extracted CD Track | Start | Length | Start sector | End sector
--1 | 0:00.00 | 2:58.55 | 0 | 13404 2 | 2:58.55 | 3:33.05 | 13405 | 29384 3 | 6:31.60 | 3:48.51 | 29385 | 46535 4 | 10:20.36 | 2:48.42 | 46536 | 59177 5 | 13:09.03 | 2:53.23 | 59178 | 72175 6 | 16:02.26 | 3:20.03 | 72176 | 87178 7 | 19:22.29 | 3:07.36 | 87179 | 101239 8 | 22:29.65 | 3:15.51 | 101240 | 115915 9 | 25:45.41 | 3:01.43 | 115916 | 129533
10 | 28:47.09 | 2:57.15 | 129534 | 142823
11 | 31:44.24 | 2:54.26 | 142824 | 155899
12 | 34:38.50 | 1:06.13 | 155900 | 160862
13 | 35:44.63 | 0:40.42 | 160863 | 163904
14 | 36:25.30 | 3:13.13 | 163905 | 178392
15 | 39:38.43 | 4:22.44 | 178393 | 198086
16 | 44:01.12 | 3:43.10 | 198087 | 214821
17 | 47:44.22 | 3:15.40 | 214822 | 229486
18 | 50:59.62 | 3:46.29 | 229487 | 246465
19 | 54:46.16 | 4:29.23 | 246466 | 266663
20 | 59:15.39 | 3:08.70 | 266664 | 280833
21 | 62:24.34 | 4:10.10 | 280834 | 299593
22 | 66:34.44 | 3:25.67 | 299594 | 315035
23 | 70:00.36 | 2:48.47 | 315036 | 327682
24 | 72:49.08 | 3:12.65 | 327683 | 342147
25 | 76:01.73 | 1:17.15 | 342148 | 347937
26 | 77:19.13 | 0:42.28 | 347938 | 351115
27 | 78:01.41 | 1:15.49 | 351116 | 356789

Track 1 Filename C:\EAC Rips\The Mamas & The Papas - 2004 - Complete Anthology (CD 2)\01 - Dedicated to the One I Love.wav Pre-gap length 0:00:02.00 Peak level 98.8 %
Track quality 100.0 %
Test CRC 51D1221C
Copy CRC 51D1221C
Accurately ripped (confidence 8) 4B8A79E
Copy OK

Track 2 Filename C:\EAC Rips\The Mamas & The Papas - 2004 - Complete Anthology (CD 2)\02 - My Girl.wav Peak level 98.8 %
Track quality 100.0 %
Test CRC 586FC5DF
Copy CRC 586FC5DF
Accurately ripped (confidence 8) [56718A5A]
Copy OK

Track 3 Filename C:\EAC Rips\The Mamas & The Papas - 2004 - Complete Anthology (CD 2)\03 - Creeque Alley.wav Peak level 98.8 %
Track quality 100.0 %
Test CRC 7CC5CB18
Copy CRC 7CC5CB18
Accurately ripped (confidence 8) [23C50F3F]
Copy OK

Track 4 Filename C:\EAC Rips\The Mamas & The Papas - 2004 - Complete Anthology (CD 2)\04 - Sing for Your Supper.wav Peak level 98.8 %
Track quality 100.0 %
Test CRC 1E616D83
Copy CRC 1E616D83
Accurately ripped (confidence 6) B0A793E
Copy OK

Track 5 Filename C:\EAC Rips\The Mamas & The Papas - 2004 - Complete Anthology (CD 2)\05 - Twist and Shout.wav Peak level 98.8 %
Track quality 100.0 %
Test CRC 02BEC055
Copy CRC 02BEC055
Accurately ripped (confidence 7) [1DAF7259]
Copy OK

Track 6 Filename C:\EAC Rips\The Mamas & The Papas - 2004 - Complete Anthology (CD 2)\06 - Free Advice.wav Peak level 98.8 %
Track quality 100.0 %
Test CRC 3C34C7E8
Copy CRC 3C34C7E8
Accurately ripped (confidence 7) [7F82C123]
Copy OK

Track 7 Filename C:\EAC Rips\The Mamas & The Papas - 2004 - Complete Anthology (CD 2)\07 - Look Through My Window.wav Peak level 98.8 %
Track quality 100.0 %
Test CRC 7CD41BD3
Copy CRC 7CD41BD3
Accurately ripped (confidence 7) [0285AFC9]
Copy OK

Track 8 Filename C:\EAC Rips\The Mamas & The Papas - 2004 - Complete Anthology (CD 2)\08 - Boys and Girls Together.wav Peak level 98.8 %
Track quality 100.0 %
Test CRC 669F2844
Copy CRC 669F2844
Accurately ripped (confidence 6) [3ED244E8]
Copy OK

Track 9 Filename C:\EAC Rips\The Mamas & The Papas - 2004 - Complete Anthology (CD 2)\09 - String Man.wav Peak level 98.8 %
Track quality 100.0 %
Test CRC F7E0A1EC
Copy CRC F7E0A1EC
Accurately ripped (confidence 6) 2120C87
Copy OK

Track 10 Filename C:\EAC Rips\The Mamas & The Papas - 2004 - Complete Anthology (CD 2)\10 - Frustration.wav Peak level 98.8 %
Track quality 100.0 %
Test CRC 3355259D
Copy CRC 3355259D
Accurately ripped (confidence 7) [11792776]
Copy OK

Track 11 Filename C:\EAC Rips\The Mamas & The Papas - 2004 - Complete Anthology (CD 2)\11 - Did You Ever Want to Cry.wav Peak level 98.8 %
Track quality 99.9 %
Test CRC F1FE5DF1
Copy CRC F1FE5DF1
Accurately ripped (confidence 6) [36F01AF6]
Copy OK

Track 12 Filename C:\EAC Rips\The Mamas & The Papas - 2004 - Complete Anthology (CD 2)\12 - ohn's Music Box.wav Peak level 45.0 %
Track quality 100.0 %
Test CRC FC330AE0
Copy CRC FC330AE0
Accurately ripped (confidence 6) [02645388]
Copy OK

Track 13 Filename C:\EAC Rips\The Mamas & The Papas - 2004 - Complete Anthology (CD 2)\13 - The Right Somebody to Love.wav Peak level 95.3 %
Track quality 100.0 %
Test CRC 35F3A93E
Copy CRC 35F3A93E
Accurately ripped (confidence 6) [CC9B5910]
Copy OK

Track 14 Filename C:\EAC Rips\The Mamas & The Papas - 2004 - Complete Anthology (CD 2)\14 - Safe in My Garden.wav Peak level 98.8 %
Track quality 100.0 %
Test CRC B13213A4
Copy CRC B13213A4
Accurately ripped (confidence 7) [9C9166D3]
Copy OK

Track 15 Filename C:\EAC Rips\The Mamas & The Papas - 2004 - Complete Anthology (CD 2)\15 - Meditation Mama (Transcendental Woman Travels).wav Peak level 98.8 %
Track quality 100.0 %
Test CRC 67D40B56
Copy CRC 67D40B56
Accurately ripped (confidence 7) [6BF4EEDA]
Copy OK

Track 16 Filename C:\EAC Rips\The Mamas & The Papas - 2004 - Complete Anthology (CD 2)\16 - For the Love of Ivy.wav Peak level 98.8 %
Track quality 99.9 %
Test CRC 0D27276A
Copy CRC 0D27276A
Accurately ripped (confidence 8) [62C39FE5]
Copy OK

Track 17 Filename C:\EAC Rips\The Mamas & The Papas - 2004 - Complete Anthology (CD 2)\17 - Dream a Little Dream of Me.wav Peak level 98.8 %
Track quality 100.0 %
Test CRC 33DA7765
Copy CRC 33DA7765
Accurately ripped (confidence 8) [862A35F1]
Copy OK

Track 18 Filename C:\EAC Rips\The Mamas & The Papas - 2004 - Complete Anthology (CD 2)\18 - Mansions.wav Peak level 98.8 %
Track quality 100.0 %
Test CRC E1B7DB85
Copy CRC E1B7DB85
Accurately ripped (confidence 6) [42DA22F1]
Copy OK

Track 19 Filename C:\EAC Rips\The Mamas & The Papas - 2004 - Complete Anthology (CD 2)\19 - Gemini Childe.wav Peak level 98.8 %
Track quality 99.9 %
Test CRC B53EF6D5
Copy CRC B53EF6D5
Accurately ripped (confidence 6) [36A23161]
Copy OK

Track 20 Filename C:\EAC Rips\The Mamas & The Papas - 2004 - Complete Anthology (CD 2)\20 - Nothing's Too Good for My Little Girl.wav Peak level 98.8 %
Track quality 99.9 %
Test CRC 4C7EBDB1
Copy CRC 4C7EBDB1
Accurately ripped (confidence 7) C5021A0
Copy OK

Track 21 Filename C:\EAC Rips\The Mamas & The Papas - 2004 - Complete Anthology (CD 2)\21 - Too Late.wav Peak level 98.8 %
Track quality 100.0 %
Test CRC 0A9F3E2C
Copy CRC 0A9F3E2C
Accurately ripped (confidence 6) [DC0A8794]
Copy OK

Track 22 Filename C:\EAC Rips\The Mamas & The Papas - 2004 - Complete Anthology (CD 2)\22 - Twelve Thirty (Young Girls Are Coming to the Canyon).wav Peak level 98.8 %
Track quality 99.9 %
Test CRC 2DFC550B
Copy CRC 2DFC550B
Accurately ripped (confidence 8) [737DEA9A]
Copy OK

Track 23 Filename C:\EAC Rips\The Mamas & The Papas - 2004 - Complete Anthology (CD 2)\23 - Rooms.wav Peak level 98.8 %
Track quality 100.0 %
Test CRC EA07DC08
Copy CRC EA07DC08
Accurately ripped (confidence 6) [197E1170]
Copy OK

Track 24 Filename C:\EAC Rips\The Mamas & The Papas - 2004 - Complete Anthology (CD 2)\24 - Midnight Voyage.wav Peak level 98.8 %
Track quality 100.0 %
Test CRC D2C7E395
Copy CRC D2C7E395
Accurately ripped (confidence 7) [5E5FD447]
Copy OK

Track 25 Filename C:\EAC Rips\The Mamas & The Papas - 2004 - Complete Anthology (CD 2)\25 - Once Was a Time I Thought (Rehearsal & Studio Chatter).wav Peak level 93.0 %
Track quality 100.0 %
Test CRC 9A01E925
Copy CRC 9A01E925
Accurately ripped (confidence 7) [45DC125E]
Copy OK

Track 26 Filename C:\EAC Rips\The Mamas & The Papas - 2004 - Complete Anthology (CD 2)\26 - Studio Chatter.wav Peak level 92.1 %
Track quality 100.0 %
Test CRC 835E5188
Copy CRC 835E5188
Accurately ripped (confidence 7) [FD9891BA]
Copy OK

Track 27 Filename C:\EAC Rips\The Mamas & The Papas - 2004 - Complete Anthology (CD 2)\27 - I Can't Wait (Studio Chatter & Rehearsal).wav Peak level 93.5 %
Track quality 100.0 %
Test CRC 5C11E05C
Copy CRC 5C11E05C
Accurately ripped (confidence 6) [EAA7DB31]
Copy OK

All tracks accurately ripped

No errors occurred

End of status report

foobar2000 1.2.9 / Dynamic Range Meter 1.1.1
log date: 2015-09-22 19:11:58

Analyzed: The Mams & The Papas / Complete Anthology (CD 2)

DR Peak RMS Duration Track

DR9 -0.10 dB -11.90 dB 2:59 01-Dedicated to the One I Love
DR8 -0.10 dB -9.88 dB 3:33 02-My Girl
DR10 -0.10 dB -11.17 dB 3:49 03-Creeque Alley
DR8 -0.10 dB -9.31 dB 2:49 04-Sing for Your Supper
DR8 -0.10 dB -10.04 dB 2:53 05-Twist and Shout
DR8 -0.10 dB -9.95 dB 3:20 06-Free Advice
DR8 -0.10 dB -10.27 dB 3:07 07-Look Through My Window
DR8 -0.10 dB -9.51 dB 3:16 08-Boys and Girls Together
DR8 -0.10 dB -9.30 dB 3:02 09-String Man
DR8 -0.10 dB -10.70 dB 2:57 10-Frustration
DR8 -0.10 dB -8.70 dB 2:54 11-Did You Ever Want to Cry
DR13 -6.92 dB -22.58 dB 1:06 12-ohn's Music Box
DR13 -0.41 dB -16.37 dB 0:41 13-The Right Somebody to Love
DR9 -0.10 dB -11.93 dB 3:13 14-Safe in My Garden
DR10 -0.10 dB -12.23 dB 4:23 15-Meditation Mama (Transcendental Woman Travels)
DR8 -0.10 dB -10.21 dB 3:43 16-For the Love of Ivy
DR9 -0.10 dB -11.49 dB 3:16 17-Dream a Little Dream of Me
DR10 -0.10 dB -12.21 dB 3:46 18-Mansions
DR9 -0.10 dB -11.70 dB 4:29 19-Gemini Childe
DR8 -0.10 dB -9.99 dB 3:09 20-Nothing's Too Good for My Little Girl
DR8 -0.10 dB -10.81 dB 4:10 21-Too Late
DR9 -0.10 dB -10.89 dB 3:26 22-Twelve Thirty (Young Girls Are Coming to the Canyon)
DR8 -0.10 dB -10.00 dB 2:49 23-Rooms
DR7 -0.10 dB -9.87 dB 3:13 24-Midnight Voyage
DR10 -0.63 dB -13.90 dB 1:17 25-Once Was a Time I Thought (Rehearsal & Studio Chatter)
DR11 -0.71 dB -15.66 dB 0:42 26-Studio Chatter
DR11 -0.58 dB -17.34 dB 1:16 27-I Can't Wait (Studio Chatter & Rehearsal)

Number of tracks: 27
Official DR value: DR9

Samplerate: 44100 Hz
Channels: 2
Bits per sample: 16
Bitrate: 894 kbps
Codec: FLAC

[CUETools log; Date: 22.09.2015 19:11:45; Version: 2.1.4]
[CTDB TOCID: Vscwlj2J5yDe_FDqkjuYVc78A2Y-] found.
Track | CTDB Status
1 | (17/17) Accurately ripped
2 | (17/17) Accurately ripped
3 | (17/17) Accurately ripped
4 | (17/17) Accurately ripped
5 | (17/17) Accurately ripped
6 | (17/17) Accurately ripped
7 | (17/17) Accurately ripped
8 | (17/17) Accurately ripped
9 | (17/17) Accurately ripped
10 | (17/17) Accurately ripped
11 | (17/17) Accurately ripped
12 | (17/17) Accurately ripped
13 | (17/17) Accurately ripped
14 | (17/17) Accurately ripped
15 | (17/17) Accurately ripped
16 | (17/17) Accurately ripped
17 | (17/17) Accurately ripped
18 | (17/17) Accurately ripped
19 | (17/17) Accurately ripped
20 | (17/17) Accurately ripped
21 | (17/17) Accurately ripped
22 | (17/17) Accurately ripped
23 | (16/17) Accurately ripped
24 | (17/17) Accurately ripped
25 | (15/17) Accurately ripped
26 | (17/17) Accurately ripped
27 | (17/17) Accurately ripped
[AccurateRip ID: 004fd9cb-0604114d-9d12951b] found.
Track [ CRC | V2 ] Status
01 4b8a79e|7a79bbc7 (14+24/45) Accurately ripped
02 [56718a5a|966d0de7] (14+24/45) Accurately ripped
03 [23c50f3f|992144ac] (14+24/45) Accurately ripped
04 b0a793e|dafb0e3a (12+24/43) Accurately ripped
05 [1daf7259|b7599a22] (13+24/44) Accurately ripped
06 [7f82c123|7596717f] (13+24/44) Accurately ripped
07 [0285afc9|18b9cf1e] (13+24/44) Accurately ripped
08 [3ed244e8|95fee464] (12+24/43) Accurately ripped
09 2120c87|c53e395f (12+24/43) Accurately ripped
10 [11792776|fe2f0da2] (13+24/44) Accurately ripped
11 [36f01af6|fd38eeb9] (12+24/43) Accurately ripped
12 [02645388|8b71760f] (12+24/43) Accurately ripped
13 [cc9b5910|dd390908] (12+24/43) Accurately ripped
14 [9c9166d3|c61d7f6b] (13+24/44) Accurately ripped
15 [6bf4eeda|53d9125a] (13+24/44) Accurately ripped
16 [62c39fe5|eb9b8c9e] (14+24/45) Accurately ripped
17 [862a35f1|3faed1f1] (14+24/45) Accurately ripped
18 [42da22f1|c9cc8c01] (12+24/43) Accurately ripped
19 [36a23161|d438a61d] (12+24/43) Accurately ripped
20 c5021a0|4d403bae (13+23/43) Accurately ripped
21 [dc0a8794|33ed27cf] (12+24/43) Accurately ripped
22 [737dea9a|e702a823] (14+24/45) Accurately ripped
23 [197e1170|f7447cf5] (12+24/43) Accurately ripped
24 [5e5fd447|52309f23] (13+24/44) Accurately ripped
25 [45dc125e|763c4ba0] (13+22/42) Accurately ripped
26 [fd9891ba|6393b80c] (13+22/42) Accurately ripped
27 [eaa7db31|4c9224c8] (12+22/41) Accurately ripped
Offsetted by -18:
01 [72c2368b] (04/45) Accurately ripped
02 [70e351be] (04/45) Accurately ripped
03 [61ec96a8] (04/45) Accurately ripped
04 [e59cbd1a] (04/43) Accurately ripped
05 [06f591a5] (04/44) Accurately ripped
06 [6304d586] (04/44) Accurately ripped
07 [21af5a28] (04/44) Accurately ripped
08 ad06281 (04/43) Accurately ripped
09 [dac555a4] (04/43) Accurately ripped
10 [a0fd7a35] (04/44) Accurately ripped
11 [d5d11b7c] (04/43) Accurately ripped
12 [570c6495] (04/43) Accurately ripped
13 1064c2c (04/43) Accurately ripped
14 [0fd60732] (04/44) Accurately ripped
15 [f032173f] (04/44) Accurately ripped
16 [df5b1311] (04/45) Accurately ripped
17 [09482ecb] (04/45) Accurately ripped
18 [7e90d050] (04/43) Accurately ripped
19 [8b2bedd9] (04/43) Accurately ripped
20 [1350db71] (04/43) Accurately ripped
21 [d829ef26] (04/43) Accurately ripped
22 [7f79e495] (04/45) Accurately ripped
23 [8b667981] (04/43) Accurately ripped
24 [6c8f0c50] (04/44) Accurately ripped
25 [2d4d4e5e] (04/42) Accurately ripped
26 [985e844d] (04/42) Accurately ripped
27 [1f57d80b] (04/41) Accurately ripped

Track Peak [ CRC32 ] [W/O NULL] [ LOG ]
-- 98,8 [FD402BC3] E661721
01 98,8 [51D1221C] [35E87809] CRC32
02 98,8 [586FC5DF] [CE9E8C36] CRC32
03 98,8 [7CC5CB18] [64EB8225] CRC32
04 98,8 [1E616D83] [5E10CA50] CRC32
05 98,8 [02BEC055] [96150E17] CRC32
06 98,8 [3C34C7E8] [88A01C8A] CRC32
07 98,8 [7CD41BD3] [201E5058] CRC32
08 98,8 [669F2844] [87C4C638] CRC32
09 98,8 [F7E0A1EC] [2E4CEED9] CRC32
10 98,8 [3355259D] [9B821C8E] CRC32
11 98,8 [F1FE5DF1] [4592CA23] CRC32
12 45,0 [FC330AE0] [20C22C02] CRC32
13 95,3 [35F3A93E] [3C09C53F] CRC32
14 98,8 13213A4 [123E1CF3] CRC32
15 98,8 [67D40B56] [982090CE] CRC32
16 98,8 [0D27276A] 0670A45 CRC32
17 98,8 [33DA7765] [7C379FAD] CRC32
18 98,8 [E1B7DB85] [79DDAD09] CRC32
19 98,8 53EF6D5 [F0AFB118] CRC32
20 98,8 [4C7EBDB1] [16EF8B5F] CRC32
21 98,8 [0A9F3E2C] [82AADF77] CRC32
22 98,8 [2DFC550B] [25863540] CRC32
23 98,8 [EA07DC08] [F9EE9716] CRC32
24 98,8 [D2C7E395] [C2FA2C2C] CRC32
25 93,0 [9A01E925] [49E62EE2] CRC32
26 92,1 [835E5188] [8CAE34B8] CRC32
27 93,5 [5C11E05C] [427322F2] CRC32

The Mamas & The Papas - Complete Anthology (2004)

Tracklist CD3:

01. People Like Us (03:27)
02. Pacific Coast Highway (03:04)
03. Snowqueen Of Texas (02:38)
04. Shooting Star (02:55)
05. Step Out (03:01)
06. Lady Genevieve (03:48)
07. No Dough (03:08)
08. European Blueboy (03:39)
09. Pearl (02:24)
10. I Wanna Be A Star (02:17)
11. Grasshopper (02:58)
12. Blueberries For Breakfast (03:01)
13. Straight Shooter (live at Monterey) (04:22)
14. Got A Feelin' (live at Monterey) (04:15)
15. Califonia Dreamin' (live at Monterey) (02:44)
16. Spanish Harlem (live at Monterey) (04:07)
17. Somebody Groovy (live at Monterey) (04:26)
18. I Call Your Name (live at Monterey) (06:16)
19. Monday, Monday (live at Monterey) (03:33)
20. Dancing In The Street (live at Monterey) (05:03)
21. John Phillips Dialogue (02:29)
22. Cass Elliot Dialogue (03:14)

Exact Audio Copy V0.99 prebeta 5 from 4. May 2009

EAC extraction logfile from 12. January 2010, 22:52

The Mamas & The Papas / Complete Anthology (CD 3)

Used drive : HL-DT-STDVD-ROM GDR8163B Adapter: 0 ID: 0

Read mode : Secure
Utilize accurate stream : Yes
Defeat audio cache : Yes
Make use of C2 pointers : No

Read offset correction

: 102
Overread into Lead-In and Lead-Out : No
Fill up missing offset samples with silence : Yes
Delete leading and trailing silent blocks : No
Null samples used in CRC calculations : Yes
Used interface
: Native Win32 interface for Win NT & 2000
Gap handling
: Appended to previous track

Used output format : User Defined Encoder
Selected bitrate : 128 kBit/s
Quality : High
Add ID3 tag : No
Command line compressor : C:\Program Files\Exact Audio Copy\Flac\flac.exe
Additional command line options : -V -8 -T "artist=%a" -T "title=%t" -T "album=%g" -T "date=%y" -T "tracknumber=%n" -T "genre=%m" %s

TOC of the extracted CD Track | Start | Length | Start sector | End sector
--1 | 0:00.00 | 3:26.35 | 0 | 15484 2 | 3:26.35 | 3:04.13 | 15485 | 29297 3 | 6:30.48 | 2:37.55 | 29298 | 41127 4 | 9:08.28 | 2:54.42 | 41128 | 54219 5 | 12:02.70 | 3:00.64 | 54220 | 67783 6 | 15:03.59 | 3:47.73 | 67784 | 84881 7 | 18:51.57 | 3:07.24 | 84882 | 98930 8 | 21:59.06 | 3:38.69 | 98931 | 115349 9 | 25:38.00 | 2:23.71 | 115350 | 126145
10 | 28:01.71 | 2:17.15 | 126146 | 136435
11 | 30:19.11 | 2:57.22 | 136436 | 149732
12 | 33:16.33 | 3:00.58 | 149733 | 163290
13 | 36:17.16 | 4:21.70 | 163291 | 182935
14 | 40:39.11 | 4:14.22 | 182936 | 202007
15 | 44:53.33 | 2:44.08 | 202008 | 214315
16 | 47:37.41 | 4:06.23 | 214316 | 232788
17 | 51:43.64 | 4:25.36 | 232789 | 252699
18 | 56:09.25 | 6:15.70 | 252700 | 280894
19 | 62:25.20 | 3:32.74 | 280895 | 296868
20 | 65:58.19 | 5:02.42 | 296869 | 319560
21 | 71:00.61 | 2:29.12 | 319561 | 330747
22 | 73:29.73 | 3:14.06 | 330748 | 345303

Track 1 Filename C:\EAC Rips\The Mamas & The Papas - 2004 - Complete Anthology (CD 3)\01 - People Like Us.wav Pre-gap length 0:00:02.00 Peak level 94.6 %
Track quality 100.0 %
Test CRC 4A35C3ED
Copy CRC 4A35C3ED
Accurately ripped (confidence 3) [F916AB63]
Copy OK

Track 2 Filename C:\EAC Rips\The Mamas & The Papas - 2004 - Complete Anthology (CD 3)\02 - Pacific Coast Highway.wav Pre-gap length 0:00:00.21 Peak level 94.7 %
Track quality 100.0 %
Test CRC 0A597507
Copy CRC 0A597507
Accurately ripped (confidence 3) [047BF8EF]
Copy OK

Track 3 Filename C:\EAC Rips\The Mamas & The Papas - 2004 - Complete Anthology (CD 3)\03 - Snowqueen of Texas.wav Pre-gap length 0:00:00.49 Peak level 94.2 %
Track quality 99.9 %
Test CRC 3DACDB73
Copy CRC 3DACDB73
Accurately ripped (confidence 3) [C421B25D]
Copy OK

Track 4 Filename C:\EAC Rips\The Mamas & The Papas - 2004 - Complete Anthology (CD 3)\04 - Shooting Star.wav Pre-gap length 0:00:00.58 Peak level 94.9 %
Track quality 100.0 %
Test CRC DF3651C6
Copy CRC DF3651C6
Accurately ripped (confidence 3) [1217AF93]
Copy OK

Track 5 Filename C:\EAC Rips\The Mamas & The Papas - 2004 - Complete Anthology (CD 3)\05 - Step Out.wav Pre-gap length 0:00:01.45 Peak level 93.7 %
Track quality 100.0 %
Test CRC C66BE758
Copy CRC C66BE758
Accurately ripped (confidence 3) [0F3F41F0]
Copy OK

Track 6 Filename C:\EAC Rips\The Mamas & The Papas - 2004 - Complete Anthology (CD 3)\06 - Lady Genevieve.wav Peak level 93.6 %
Track quality 100.0 %
Test CRC E8D58A1E
Copy CRC E8D58A1E
Accurately ripped (confidence 3) [2701A47E]
Copy OK

Track 7 Filename C:\EAC Rips\The Mamas & The Papas - 2004 - Complete Anthology (CD 3)\07 - No Dough.wav Pre-gap length 0:00:00.52 Peak level 94.2 %
Track quality 100.0 %
Test CRC BC2A30BB
Copy CRC BC2A30BB
Accurately ripped (confidence 3) [8207C85F]
Copy OK

Track 8 Filename C:\EAC Rips\The Mamas & The Papas - 2004 - Complete Anthology (CD 3)\08 - European Blueboy.wav Pre-gap length 0:00:01.64 Peak level 94.7 %
Track quality 100.0 %
Test CRC 39CF0F91
Copy CRC 39CF0F91
Accurately ripped (confidence 3) [8B0C304A]
Copy OK

Track 9 Filename C:\EAC Rips\The Mamas & The Papas - 2004 - Complete Anthology (CD 3)\09 - Pearl.wav Peak level 95.1 %
Track quality 100.0 %
Test CRC 8ED91752
Copy CRC 8ED91752
Accurately ripped (confidence 3) [0B385B3C]
Copy OK

Track 10 Filename C:\EAC Rips\The Mamas & The Papas - 2004 - Complete Anthology (CD 3)\10 - I Wanna Be a Star.wav Pre-gap length 0:00:00.02 Peak level 93.9 %
Track quality 100.0 %
Test CRC CF264D55
Copy CRC CF264D55
Accurately ripped (confidence 3) 090EF83
Copy OK

Track 11 Filename C:\EAC Rips\The Mamas & The Papas - 2004 - Complete Anthology (CD 3)\11 - Grasshopper.wav Pre-gap length 0:00:00.25 Peak level 95.0 %
Track quality 99.9 %
Test CRC 37084D52
Copy CRC 37084D52
Accurately ripped (confidence 3) [E61698BE]
Copy OK

Track 12 Filename C:\EAC Rips\The Mamas & The Papas - 2004 - Complete Anthology (CD 3)\12 - Blueberries for Breakfast.wav Pre-gap length 0:00:00.62 Peak level 96.3 %
Track quality 100.0 %
Test CRC BEB9667F
Copy CRC BEB9667F
Accurately ripped (confidence 3) [A9BFCE92]
Copy OK

Track 13 Filename C:\EAC Rips\The Mamas & The Papas - 2004 - Complete Anthology (CD 3)\13 - Straight Shooter (Live at Monterey).wav Pre-gap length 0:00:01.68 Peak level 100.0 %
Track quality 100.0 %
Test CRC 2DD899BD
Copy CRC 2DD899BD
Accurately ripped (confidence 3) [D404BFC8]
Copy OK

Track 14 Filename C:\EAC Rips\The Mamas & The Papas - 2004 - Complete Anthology (CD 3)\14 - Got a Feelin' (Live at Monterey).wav Peak level 95.5 %
Track quality 100.0 %
Test CRC C045E318
Copy CRC C045E318
Accurately ripped (confidence 3) [579F3EE7]
Copy OK

Track 15 Filename C:\EAC Rips\The Mamas & The Papas - 2004 - Complete Anthology (CD 3)\15 - California Dreamin' (Live at Monterey).wav Peak level 100.0 %
Track quality 100.0 %
Test CRC EEFE4421
Copy CRC EEFE4421
Accurately ripped (confidence 3) [0A342CEE]
Copy OK

Track 16 Filename C:\EAC Rips\The Mamas & The Papas - 2004 - Complete Anthology (CD 3)\16 - Spanish Harlem (Live at Monterey).wav Peak level 100.0 %
Track quality 100.0 %
Test CRC BF34282B
Copy CRC BF34282B
Accurately ripped (confidence 3) [6B0F3FF8]
Copy OK

Track 17 Filename C:\EAC Rips\The Mamas & The Papas - 2004 - Complete Anthology (CD 3)\17 - Somebody Groovy (Live at Monterey).wav Peak level 100.0 %
Track quality 100.0 %
Test CRC D33CE5C1
Copy CRC D33CE5C1
Accurately ripped (confidence 3) [AD622EF8]
Copy OK

Track 18 Filename C:\EAC Rips\The Mamas & The Papas - 2004 - Complete Anthology (CD 3)\18 - I Call Your Name (Live at Monterey).wav Peak level 95.6 %
Track quality 100.0 %
Test CRC 290C7520
Copy CRC 290C7520
Accurately ripped (confidence 3) [C8C5C3F9]
Copy OK

Track 19 Filename C:\EAC Rips\The Mamas & The Papas - 2004 - Complete Anthology (CD 3)\19 - Monday, Monday (Live at Monterey).wav Peak level 89.2 %
Track quality 100.0 %
Test CRC 9DC6CCEE
Copy CRC 9DC6CCEE
Accurately ripped (confidence 3) [F09D475E]
Copy OK

Track 20 Filename C:\EAC Rips\The Mamas & The Papas - 2004 - Complete Anthology (CD 3)\20 - Dancing in the Street (Live at Monterey).wav Peak level 98.2 %
Track quality 100.0 %
Test CRC EF50924B
Copy CRC EF50924B
Accurately ripped (confidence 3) [CA3D4605]
Copy OK

Track 21 Filename C:\EAC Rips\The Mamas & The Papas - 2004 - Complete Anthology (CD 3)\21 - John Phillips Dialogue.wav Pre-gap length 0:00:01.68 Peak level 91.7 %
Track quality 100.0 %
Test CRC 2A1EA992
Copy CRC 2A1EA992
Accurately ripped (confidence 3) [0804EA71]
Copy OK

Track 22 Filename C:\EAC Rips\The Mamas & The Papas - 2004 - Complete Anthology (CD 3)\22 - Cass Elliot Diologue.wav Pre-gap length 0:00:01.02 Peak level 91.4 %
Track quality 100.0 %
Test CRC A46E8A4B
Copy CRC A46E8A4B
Accurately ripped (confidence 2) 1CD3C9A
Copy OK

All tracks accurately ripped

No errors occurred

End of status report

foobar2000 1.2.9 / Dynamic Range Meter 1.1.1
log date: 2015-09-22 19:12:18

Analyzed: The Mamas & The Papas / Complete Anthology (CD 3)

DR Peak RMS Duration Track

DR9 -0.48 dB -11.51 dB 3:26 01-People Like Us
DR9 -0.47 dB -11.16 dB 3:04 02-Pacific Coast Highway
DR9 -0.51 dB -12.16 dB 2:38 03-Snowqueen of Texas
DR9 -0.45 dB -11.65 dB 2:55 04-Shooting Star
DR9 -0.56 dB -12.07 dB 3:01 05-Step Out
DR11 -0.57 dB -13.12 dB 3:48 06-Lady Genevieve
DR9 -0.52 dB -12.11 dB 3:07 07-No Dough
DR9 -0.47 dB -10.61 dB 3:39 08-European Blueboy
DR9 -0.43 dB -11.39 dB 2:24 09-Pearl
DR10 -0.54 dB -12.10 dB 2:17 10-I Wanna Be a Star
DR10 -0.44 dB -12.45 dB 2:57 11-Grasshopper
DR9 -0.33 dB -11.39 dB 3:01 12-Blueberries for Breakfast
DR9 0.00 dB -11.27 dB 4:22 13-Straight Shooter (Live at Monterey)
DR8 -0.40 dB -13.40 dB 4:14 14-Got a Feelin' (Live at Monterey)
DR10 0.00 dB -12.38 dB 2:44 15-California Dreamin' (Live at Monterey)
DR9 0.00 dB -13.93 dB 4:06 16-Spanish Harlem (Live at Monterey)
DR11 0.00 dB -14.81 dB 4:25 17-Somebody Groovy (Live at Monterey)
DR10 -0.39 dB -16.00 dB 6:16 18-I Call Your Name (Live at Monterey)
DR11 -0.99 dB -13.97 dB 3:33 19-Monday, Monday (Live at Monterey)
DR10 -0.16 dB -12.51 dB 5:03 20-Dancing in the Street (Live at Monterey)
DR15 -0.75 dB -18.05 dB 2:29 21-John Phillips Dialogue
DR12 -0.77 dB -15.31 dB 3:14 22-Cass Elliot Diologue

Number of tracks: 22
Official DR value: DR10

Samplerate: 44100 Hz
Channels: 2
Bits per sample: 16
Bitrate: 851 kbps
Codec: FLAC

[CUETools log; Date: 22.09.2015 19:12:04; Version: 2.1.4]
[CTDB TOCID: 33Xs83FdpFsPRF0N9T16QGTPV2A-] found.
Track | CTDB Status
1 | (19/19) Accurately ripped
2 | (19/19) Accurately ripped
3 | (19/19) Accurately ripped
4 | (19/19) Accurately ripped
5 | (19/19) Accurately ripped
6 | (19/19) Accurately ripped
7 | (19/19) Accurately ripped
8 | (19/19) Accurately ripped
9 | (19/19) Accurately ripped
10 | (19/19) Accurately ripped
11 | (19/19) Accurately ripped
12 | (19/19) Accurately ripped
13 | (19/19) Accurately ripped
14 | (19/19) Accurately ripped
15 | (19/19) Accurately ripped
16 | (19/19) Accurately ripped
17 | (19/19) Accurately ripped
18 | (19/19) Accurately ripped
19 | (19/19) Accurately ripped
20 | (19/19) Accurately ripped
21 | (19/19) Accurately ripped
22 | (19/19) Accurately ripped
[AccurateRip ID: 0039148a-039faf17-3411fc16] found.
Track [ CRC | V2 ] Status
01 [f916ab63|1d1d0aac] (06+21/41) Accurately ripped
02 [047bf8ef|6b91d502] (07+21/42) Accurately ripped
03 [c421b25d|22edc5f3] (07+21/42) Accurately ripped
04 [1217af93|cf4a73cd] (07+21/42) Accurately ripped
05 [0f3f41f0|365f02b7] (07+21/42) Accurately ripped
06 [2701a47e|6e079870] (07+21/42) Accurately ripped
07 [8207c85f|8972a5f6] (07+21/42) Accurately ripped
08 [8b0c304a|3c723cef] (07+21/42) Accurately ripped
09 [0b385b3c|3405aecd] (07+21/42) Accurately ripped
10 090ef83|dbb39362 (07+21/42) Accurately ripped
11 [e61698be|6ffa6250] (07+21/42) Accurately ripped
12 [a9bfce92|e7267c1f] (07+21/42) Accurately ripped
13 [d404bfc8|25f8e87f] (07+20/42) Accurately ripped
14 [579f3ee7|3e61d5bb] (07+20/41) Accurately ripped
15 [0a342cee|d47b522f] (07+20/42) Accurately ripped
16 [6b0f3ff8|a0af6bc6] (07+20/42) Accurately ripped
17 [ad622ef8|3d027fcb] (07+20/42) Accurately ripped
18 [c8c5c3f9|3b92c06d] (07+20/42) Accurately ripped
19 [f09d475e|792c0e28] (07+20/42) Accurately ripped
20 [ca3d4605|d0d45829] (07+20/42) Accurately ripped
21 [0804ea71|e562ca69] (07+20/42) Accurately ripped
22 1cd3c9a|df5b4e83 (06+20/41) Accurately ripped
Offsetted by -664:
01 [d302707b] (07/41) Accurately ripped
02 [2b53f27f] (07/42) Accurately ripped
03 [13713835] (07/42) Accurately ripped
04 [e482ffb3] (07/42) Accurately ripped
05 [36e4654c] (07/42) Accurately ripped
06 [a00098aa] (07/42) Accurately ripped
07 [efcf8b37] (07/42) Accurately ripped
08 [caf03a52] (07/42) Accurately ripped
09 [9e18fc64] (07/42) Accurately ripped
10 [97cf124b] (07/42) Accurately ripped
11 [791f5d6e] (07/42) Accurately ripped
12 [3ce3371a] (07/42) Accurately ripped
13 [92f4200e] (08/42) Accurately ripped
14 [77c24d03] (07/41) Accurately ripped
15 [1da4e894] (08/42) Accurately ripped
16 [567b96ef] (08/42) Accurately ripped
17 [d57d6282] (08/42) Accurately ripped
18 7b83a3d (08/42) Accurately ripped
19 [5a0baccd] (08/42) Accurately ripped
20 [4d1f4449] (08/42) Accurately ripped
21 a19e051 (08/42) Accurately ripped
22 [cd258792] (08/41) Accurately ripped

Track Peak [ CRC32 ] [W/O NULL] [ LOG ]
-- 100,0 [435F2A39] [C8580944]
01 94,6 [4A35C3ED] [AED12378] CRC32
02 94,7 [0A597507] 37930CC CRC32
03 94,2 [3DACDB73] [EF38A313] CRC32
04 94,9 [DF3651C6] [4876EDC8] CRC32
05 93,7 [C66BE758] [7E147DB1] CRC32
06 93,6 [E8D58A1E] [1E9A360F] CRC32
07 94,2 C2A30BB [5DB19C15] CRC32
08 94,7 [39CF0F91] [313B5E0A] CRC32
09 95,1 [8ED91752] [7872AF7A] CRC32
10 93,9 [CF264D55] [C0CD3299] CRC32
11 95,0 [37084D52] [F6B5BEF6] CRC32
12 96,3 EB9667F 75624C8 CRC32
13 100,0 [2DD899BD] [350D3942] CRC32
14 95,5 [C045E318] [4D42476B] CRC32
15 100,0 [EEFE4421] [479B88CA] CRC32
16 100,0 F34282B [212B7412] CRC32
17 100,0 [D33CE5C1] [AD6FC82C] CRC32
18 95,6 [290C7520] [71E2D2FF] CRC32
19 89,2 [9DC6CCEE] [AC6F9264] CRC32
20 98,2 [EF50924B] [0083E737] CRC32
21 91,7 [2A1EA992] [8E9142E7] CRC32
22 91,4 [A46E8A4B] [C4330A0B] CRC32

The Mamas & The Papas - Complete Anthology (2004)

Tracklist CD4:

01. Nowhere Man (01:22)
02. Here In My Arms (02:26)
03. It's Getting Better (Cass Elliot) (03:02)
04. Make Your Own Kind Of Music (Cass Elliot) (02:26)
05. New World Coming (Cass Elliot) (02:11)
06. The Costume Ball (Cass Elliot) (02:38)
07. Something To Make You Happy (Dave Mason & Cass Elliot) (02:19)
08. Mississippi (John Phillips) (03:38)
09. Revolution On Vacation (John Phillips) (02:39)
10. Cup Of Tea (John Phillips) (03:50)
11. Gathering The Words (Denny Doherty) (04:12)
12. To Claudia On Thursday (Denny Doherty) (03:10)
13. Indian Girl (Denny Doherty) (03:18)
14. Baby Catch The Moon (Denny Doherty) (02:50)
15. Aloha Louie (Michelle Phillips) (02:43)
16. There She Goes (Michelle Phillips) (03:55)
17. No Love Today (Michelle Phillips) (03:06)
18. The Aching Kind (Michelle Phillips) (03:19)
19. This Precious Time (Barry McGuire with The Mamas And The Papas) (02:47)
20. Do You Believe In Magic (Barry McGuire with The Mamas And The Papas) (02:17)
21. Yesterday (Barry McGuire with The Mamas And The Papas) (02:53)
22. You've Got To Hide Your Love Away (Barry McGuire with The Mamas And The Papas) (02:47)
23. Let Me Be (Barry McGuire with The Mamas And The Papas) (02:35)
24. Hang On Sloopy (Barry McGuire with The Mamas And The Papas) (04:02)
25. California Dreamin' (Barry McGuire with The Mamas And The Papas) (02:39)

Exact Audio Copy V0.99 prebeta 5 from 4. May 2009

EAC extraction logfile from 13. January 2010, 0:03

The Mamas & The Papas / Complete Anthology ( CD 4)

Used drive : HL-DT-STDVD-ROM GDR8163B Adapter: 0 ID: 0

Read mode : Secure
Utilize accurate stream : Yes
Defeat audio cache : Yes
Make use of C2 pointers : No

Read offset correction

: 102
Overread into Lead-In and Lead-Out : No
Fill up missing offset samples with silence : Yes
Delete leading and trailing silent blocks : No
Null samples used in CRC calculations : Yes
Used interface
: Native Win32 interface for Win NT & 2000
Gap handling
: Appended to previous track

Used output format
Direct Download

Tags: Complete, Anthology

The Mamas & The Papas - Complete Anthology (2004) Download via Hotfile Rapidshare Fileserve Megaupload & FileSonic, The Mamas & The Papas - Complete Anthology (2004) free torrent downloads included crack, serial, keygen.The Mamas & The Papas - Complete Anthology (2004) Fast Download via Rapidshare Hotfile Fileserve Filesonic Megaupload, The Mamas & The Papas - Complete Anthology (2004) Torrents and Emule Download or anything related.
Leave a Comment
Your Name:
E-Mail:
Add Comments:

Enter Code: