Various Artists: Mean Girls - Original Soundtrack, Music From The Motion Picture (2004) [Japanese Release] RESTORED

Download Now


Various Artists: Mean Girls - Original Soundtrack, Music From The Motion Picture (2004) [Japanese Release] RESTORED
Various Artists: Mean Girls - Music From The Motion Picture (2004)
FLAC+CUE+LOG or MP3 CBR 320 | Complete Scanwork | 424 or 138 MB
Soundtrack / Rock / Pop | Rykodisc/Videoarts Music, Japan # VACK-1291

Tracklist:

01. The Donnas -- Dancing With Myself
02. Pink -- God Is A DJ
03. Kelis -- Milkshake
04. All Too Much -- Sorry (Don't Ask Me)
05. Samantha Ronson -- Built This Way (Slow Remix)
06. Boomkat -- Rip Her To Shreds
07. Katy Rose -- Overdrive
08. Blondie -- One Way Or Another
09. Peaches -- Operate
10. Anjali -- Misty Canyon
11. Gina Rene & Gabriel Rene -- Mean Gurl
12. Nikki Cleary -- Hated
13. Pierre Henry -- Psyche Rock (Fatboy Slim Malpaso Mix)
14. Rajiv Surendra -- The Mathlete Rap

Exact Audio Copy V1.0 beta 1 from 15. November 2010

EAC extraction logfile from 8. March 2011, 1:05

Various / Mean Girls (Music From The Motion Picture)

Used drive : PIONEER DVD-RW DVR-116D Adapter: 1 ID: 0

Read mode : Secure
Utilize accurate stream : Yes
Defeat audio cache : Yes
Make use of C2 pointers : No

Read offset correction

: 96
Overread into Lead-In and Lead-Out : No
Fill up missing offset samples with silence : Yes
Delete leading and trailing silent blocks : No
Null samples used in CRC calculations : Yes
Used interface
: Installed external ASPI interface

Used output format : Internal WAV Routines
Sample format : 44.100 Hz; 16 Bit; Stereo

TOC of the extracted CD Track | Start | Length | Start sector | End sector
--1 | 0:00.00 | 3:29.65 | 0 | 15739 2 | 3:29.65 | 3:46.05 | 15740 | 32694 3 | 7:15.70 | 3:05.00 | 32695 | 46569 4 | 10:20.70 | 2:57.20 | 46570 | 59864 5 | 13:18.15 | 4:16.22 | 59865 | 79086 6 | 17:34.37 | 4:07.10 | 79087 | 97621 7 | 21:41.47 | 2:54.53 | 97622 | 110724 8 | 24:36.25 | 3:28.50 | 110725 | 126374 9 | 28:05.00 | 3:30.30 | 126375 | 142154
10 | 31:35.30 | 4:23.00 | 142155 | 161879
11 | 35:58.30 | 3:27.20 | 161880 | 177424
12 | 39:25.50 | 2:48.32 | 177425 | 190056
13 | 42:14.07 | 6:32.63 | 190057 | 219519
14 | 48:46.70 | 0:35.60 | 219520 | 222204

Range status and errors

Selected range Filename C:\AvaxHome.ru\VA - Mean Girls (OST 2004) [Japan, VACK-1291]\VA - Mean Girls (OST) [VACK-1291].wav Peak level 99.7 %
Extraction speed 0.0 X
Range quality 100.0 %
Test CRC FA870ABC
Copy CRC FA870ABC
Copy OK

No errors occurred


AccurateRip summary

Track 1 cannot be verified as accurate (confidence 9) [7B29EAD1], AccurateRip returned [9CE30C9A]
Track 2 cannot be verified as accurate (confidence 9) F62072B, AccurateRip returned [291A083E]
Track 3 cannot be verified as accurate (confidence 9) [C86AD917], AccurateRip returned [A32F5CF0]
Track 4 cannot be verified as accurate (confidence 9) [9FDBEE65], AccurateRip returned [CEBB5071]
Track 5 cannot be verified as accurate (confidence 9) [8DC23673], AccurateRip returned [549B950C]
Track 6 cannot be verified as accurate (confidence 9) 5BCAAAC, AccurateRip returned [5492EA4B]
Track 7 cannot be verified as accurate (confidence 9) [9BDA0D5F], AccurateRip returned [2D467BDE]
Track 8 cannot be verified as accurate (confidence 8) [0FE6F29C], AccurateRip returned [C241468B]
Track 9 cannot be verified as accurate (confidence 8) [88CE5333], AccurateRip returned [7A5FFBAB]
Track 10 cannot be verified as accurate (confidence 9) [7B809276], AccurateRip returned [DBA6AAC7]
Track 11 cannot be verified as accurate (confidence 8) [243F6FA6], AccurateRip returned [306833FF]
Track 12 cannot be verified as accurate (confidence 9) [313D29A9], AccurateRip returned [A950902A]
Track 13 cannot be verified as accurate (confidence 8) 08CB817, AccurateRip returned [A278FEDC]
Track 14 cannot be verified as accurate (confidence 9) [19E3EE8F], AccurateRip returned [3913DDFE]

No tracks could be verified as accurate
You may have a different pressing from the one(s) in the database

End of status report

==== Log checksum 29A50001894A886703A34480A0A79ADC94166910AF5F295D751C2520169791B4 ====

Soundtrack Album Produced by Lorne Michaels and Mark Waters.

Original Release Date: September 21, 2004
Japanese Release: April 20, 2005
Label: Rykodisc/Videoarts Music, Japan
Catalog No.: VACK-1291
DOWNLOAD LINKS
Buy Premium From My Links To Get Resumable Support & Max Speed & To Support Me


Links are Interchangeable - No Password - Single Extraction
Direct Download

Tags: Various, Artists, Original, Soundtrack, Motion, Picture, Japanese, Release, RESTORED

Various Artists: Mean Girls - Original Soundtrack, Music From The Motion Picture (2004) [Japanese Release] RESTORED Download via Hotfile Rapidshare Fileserve Megaupload & FileSonic, Various Artists: Mean Girls - Original Soundtrack, Music From The Motion Picture (2004) [Japanese Release] RESTORED free torrent downloads included crack, serial, keygen.Various Artists: Mean Girls - Original Soundtrack, Music From The Motion Picture (2004) [Japanese Release] RESTORED Fast Download via Rapidshare Hotfile Fileserve Filesonic Megaupload, Various Artists: Mean Girls - Original Soundtrack, Music From The Motion Picture (2004) [Japanese Release] RESTORED Torrents and Emule Download or anything related.
Leave a Comment
Your Name:
E-Mail:
Add Comments:

Enter Code: