Nickelback - The Long Road (2003) [2008, Reissue, Japan]

Download Now

Nickelback - The Long Road (2003) [2008, Reissue, Japan]

Nickelback - The Long Road (2003)
EAC Rip | FLAC (Img) + Cue + Log ~ 350 Mb | MP3 CBR320 ~ 114 Mb
Scans (JPG, 600 dpi) ~ 90 Mb | RAR 5% Recovery
Hard Rock, Grunge | Roadrunner Records #RRCY-29176

"The Long Road is the fourth studio album by Canadian rock band Nickelback, released on September 23, 2003. The album was certified 3x Platinum by the RIAA in March 2005 and it had sold 3,591,000 copies as of April 2011. It has sold over 5 million copies worldwide and in the year 2003, was only the album to have sold over 2 million copies worldwide. It debuted at #6 on the Billboard 200 and was ranked #157 on Billboard's 200 Albums of the Decade. It is the band's last album with Ryan Vikedal as drummer."

Wiki | Discogs | All Music
***************

Nickelback - The Long Road (2003) [2008, Reissue, Japan]

Track List:

01. Flat On The Floor [02:03]
02. Do This Anymore [04:04]
03. Someday [03:28]
04. Believe It Or Not [04:08]
05. Feelin' Way To Damn Good [04:17]
06. Because Of You [03:31]
07. Figured You Out [03:49]
08. Should've Listened [03:43]
09. Throw Yourself Away [03:56]
10. Another Hole In The Head [03:36]
11. See You At The Show [04:08]
12. Someday (Acoustic) [03:26]
13. Slow Motion [03:33]

Exact Audio Copy V1.0 beta 6 from 9. April 2015

Отчёт EAC об извлечении, выполненном 19. сентября 2015, 20:35

Nickelback / The Long Road

Дисковод: SlimtypeDVD A DS8A9SH Adapter: 1 ID: 0

Режим чтения : Достоверность
Использование точного потока : Да
Отключение кэша аудио : Да
Использование указателей C2 : Нет

Коррекция смещения при чтении : 6
Способность читать области Lead-in и Lead-out : Нет
Заполнение пропущенных сэмплов тишиной : Да
Удаление блоков с тишиной в начале и конце : Нет
При вычислениях CRC использовались нулевые сэмплы : Да
Интерфейс : Встроенный Win32-интерфейс для Win NT/2000

Выходной формат : Пользовательский кодировщик
Выбранный битрейт : 128 kBit/s
Качество : Высокий
Добавление ID3-тега : Нет
Утилита сжатия : D:\Programm Files\FLAC\FLAC.EXE
Дополнительные параметры : -V -8 -T "Date=%year%" -T "Genre=%genre%" %source%

TOC извлечённого CD Трек | Старт | Длительность | Начальный сектор | Конечный сектор

1 | 0:00.00 | 2:02.40 | 0 | 9189
2 | 2:02.40 | 4:03.74 | 9190 | 27488
3 | 6:06.39 | 3:27.34 | 27489 | 43047
4 | 9:33.73 | 4:07.73 | 43048 | 61645
5 | 13:41.71 | 4:16.40 | 61646 | 80885
6 | 17:58.36 | 3:30.09 | 80886 | 96644
7 | 21:28.45 | 3:48.49 | 96645 | 113793
8 | 25:17.19 | 3:42.56 | 113794 | 130499
9 | 29:00.00 | 3:55.20 | 130500 | 148144
10 | 32:55.20 | 3:35.50 | 148145 | 164319
11 | 36:30.70 | 4:07.50 | 164320 | 182894
12 | 40:38.45 | 3:25.59 | 182895 | 198328
13 | 44:04.29 | 3:32.12 | 198329 | 214240

Характеристики диапазона извлечения и сообщения об ошибках

Выбранный диапазон Имя файла D:\My Rips\Audio\Nickelback - 2003 - The Long Road (Roadrunner Records, RRCY-29176, Japan SHM-CD)\Nickelback - The Long Road.wav Пиковый уровень 100.0 %
Скорость извлечения 4.2 X
Качество диапазона 99.9 %
CRC теста 5BB14467
CRC копии 5BB14467
Копирование... OK

Ошибок не произошло


AccurateRip: сводка

Трек 1 точность не определена (достоверность 5) [818D9556], AccurateRip вернул [22BDF7A2] (AR v2)
Трек 2 точность не определена (достоверность 5) [F7531925], AccurateRip вернул [754E7564] (AR v2)
Трек 3 точность не определена (достоверность 5) [F1FAD6BB], AccurateRip вернул [5B04E6B8] (AR v2)
Трек 4 точность не определена (достоверность 5) [491A51F7], AccurateRip вернул [C00C7421] (AR v2)
Трек 5 точность не определена (достоверность 5) [067AA921], AccurateRip вернул [D413D3BA] (AR v2)
Трек 6 точность не определена (достоверность 5) [5A63E805], AccurateRip вернул [07970F6D] (AR v2)
Трек 7 точность не определена (достоверность 5) [0849ADE2], AccurateRip вернул [3F31944E] (AR v2)
Трек 8 точность не определена (достоверность 5) [5D736EA9], AccurateRip вернул [7FDFC562] (AR v2)
Трек 9 точность не определена (достоверность 5) [ADE8CE93], AccurateRip вернул [6148F3A1] (AR v2)
Трек 10 точность не определена (достоверность 5) 4CC6C95, AccurateRip вернул [ABD656C4] (AR v2)
Трек 11 точность не определена (достоверность 5) [41C1DEC5], AccurateRip вернул [179DD6D9] (AR v2)
Трек 12 точность не определена (достоверность 5) [9DD290CF], AccurateRip вернул [2546D745] (AR v2)
Трек 13 точность не определена (достоверность 5) [28FAA7A1], AccurateRip вернул [73350648] (AR v2)

Ни один трек не прошёл проверки на точность
В вашей базе может быть иной вариант штамповки диска

Конец отчёта

==== Контрольная сумма отчёта 566E455BA188E679B9F73E8887DA1128DFF0F9DF9681FC42E823C64A506B2743 ====

foobar2000 1.2.6 / Dynamic Range Meter 1.1.1
log date: 2015-09-22 18:37:23

Analyzed: Nickelback / The Long Road

DR Peak RMS Duration Track

DR7 0.00 dB -7.99 dB 2:03 01-Flat On The Floor
DR7 0.00 dB -8.03 dB 4:04 02-Do This Anymore
DR7 0.00 dB -8.82 dB 3:27 03-Someday
DR7 0.00 dB -8.27 dB 4:08 04-Believe It Or Not
DR7 0.00 dB -8.51 dB 4:17 05-Feelin' Way To Damn Good
DR7 0.00 dB -8.10 dB 3:30 06-Because Of You
DR6 0.00 dB -7.76 dB 3:49 07-Figured You Out
DR7 0.00 dB -9.08 dB 3:43 08-Should've Listened
DR7 0.00 dB -7.59 dB 3:55 09-Throw Yourself Away
DR6 0.00 dB -7.77 dB 3:36 10-Another Hole In The Head
DR7 0.00 dB -9.04 dB 4:08 11-See You At The Show
DR7 0.00 dB -8.12 dB 3:26 12-Someday (Acoustic)
DR7 0.00 dB -7.79 dB 3:32 13-Slow Motion

Number of tracks: 13
Official DR value: DR7

Samplerate: 44100 Hz
Channels: 2
Bits per sample: 16
Bitrate: 979 kbps
Codec: FLAC

[CUETools log; Date: 22.09.2015 23:26:12; Version: 2.1.5]
[CTDB TOCID: wge8a_Tu1G6BeTm1d6wX0iJv0PI-] found.
Track | CTDB Status
1 | (18/18) Accurately ripped
2 | (17/18) Accurately ripped
3 | (18/18) Accurately ripped
4 | (17/18) Accurately ripped
5 | (16/18) Accurately ripped
6 | (18/18) Accurately ripped
7 | (18/18) Accurately ripped
8 | (18/18) Accurately ripped
9 | (18/18) Accurately ripped
10 | (18/18) Accurately ripped
11 | (18/18) Accurately ripped
12 | (18/18) Accurately ripped
13 | (18/18) Accurately ripped
[AccurateRip ID: 00167298-00e33162-ad0b280d] found.
Track [ CRC | V2 ] Status
01 c7e56b6|818d9556 (00+00/10) No match
02 19e6e7e|f7531925 (00+00/10) No match
03 [aadf14e2|f1fad6bb] (00+00/10) No match
04 [04c22c57|491a51f7] (00+00/10) No match
05 [221d776a|067aa921] (00+00/10) No match
06 [89049142|5a63e805] (00+00/10) No match
07 [d02e17cd|0849ade2] (00+00/10) No match
08 [dd1c21d8|5d736ea9] (00+00/10) No match
09 [1f67237f|ade8ce93] (00+00/10) No match
10 [1b2e337c|b4cc6c95] (00+00/10) No match
11 [7167ca62|41c1dec5] (00+00/10) No match
12 [ada38998|9dd290cf] (00+00/10) No match
13 [6bae52f0|28faa7a1] (00+00/10) No match
Offsetted by 678:
01 [22bdf7a2] (05/10) Accurately ripped
02 [754e7564] (05/10) Accurately ripped
03 [5b04e6b8] (05/10) Accurately ripped
04 [c00c7421] (05/10) Accurately ripped
05 [d413d3ba] (05/10) Accurately ripped
06 [07970f6d] (05/10) Accurately ripped
07 [3f31944e] (05/10) Accurately ripped
08 [7fdfc562] (05/10) Accurately ripped
09 [6148f3a1] (05/10) Accurately ripped
10 [abd656c4] (05/10) Accurately ripped
11 [179dd6d9] (05/10) Accurately ripped
12 [2546d745] (05/10) Accurately ripped
13 [73350648] (05/10) Accurately ripped
Offsetted by 546:
01 [5510bada] (00/10) No match (V2 was not tested)
02 [3f597f60] (00/10) No match (V2 was not tested)
03 [53e92614] (00/10) No match (V2 was not tested)
04 [d438e505] (00/10) No match (V2 was not tested)
05 [d36986da] (00/10) No match (V2 was not tested)
06 [a51a7c30] (00/10) No match (V2 was not tested)
07 [e80420f1] (00/10) No match (V2 was not tested)
08 [e63864c0] (00/10) No match (V2 was not tested)
09 [8f5c6bf5] (00/10) No match (V2 was not tested)
10 [057ab394] (00/10) No match (V2 was not tested)
11 [f8c4cf78] (00/10) No match (V2 was not tested)
12 [912b3026] (00/10) No match (V2 was not tested)
13 [5d5a3bb8] (00/10) No match (V2 was not tested)

Track Peak [ CRC32 ] [W/O NULL] [ LOG ]
-- 99,9 [5BB14467] [2D67CE99] CRC32
01 99,9 [616372DD] [9EE0800E]
02 99,9 [3673DB0F] [8274BFBB]
03 99,9 [A00CF779] [601A18A9]
04 99,9 [5945B307] [9EB5A5C7]
05 99,9 [7991E3BE] [9F64902A]
06 99,9 CD8169A [F7773DB4]
07 99,9 [F60261A3] [2201F316]
08 99,9 [168E7175] [0C8B12F5]
09 99,9 [D4FC2136] [EB97E056]
10 99,9 [0DC213B9] [80E4E756]
11 99,9 [32B8FF80] [75C0C82F]
12 99,9 F1ED7BE [11A93BE5]
13 99,9 [6EC559A0] [61993E9F]

Nickelback - The Long Road (2003) [2008, Reissue, Japan]

DOWNLOAD:
Buy Premium To Support Me & Get Resumable Support & Max Speed


Links are Interchangeable - No Password
Direct Download

Tags: Nickelback, Reissue

Nickelback - The Long Road (2003) [2008, Reissue, Japan] Download via Hotfile Rapidshare Fileserve Megaupload & FileSonic, Nickelback - The Long Road (2003) [2008, Reissue, Japan] free torrent downloads included crack, serial, keygen.Nickelback - The Long Road (2003) [2008, Reissue, Japan] Fast Download via Rapidshare Hotfile Fileserve Filesonic Megaupload, Nickelback - The Long Road (2003) [2008, Reissue, Japan] Torrents and Emule Download or anything related.
Leave a Comment
Your Name:
E-Mail:
Add Comments:

Enter Code: