Tatiana Nikolaieva - Liszt, Schubert, Dutilleux (1992)

Download Now

Tatiana Nikolaieva - Liszt, Schubert, Dutilleux (1992)

Tatiana Nikolaieva - Liszt, Schubert, Dutilleux (1992)
Classical/Romantic/Contemporary | FLAC lossless | cuesheets+log | covers+booklet | 59m07 | 188mb
Label: Vogue | cat. no. VG 615035

There was a request for this album by Tatiana Nikolaieva, because it seems to be extremely rare and therefore almost impossible to get. And indeed it is, for reasonably large cover art is not to be found on the net. Fortunately, I managed to find out the name of the painting by Caspar David Friedrich, although it was not mentioned in the booklet. I used a copy of that painting for my attempt to restore the front cover, which was obliterated with the usual library stickers.
I need not tell you how beautifully Nikolaieva performs these pieces; there is a reason why she became such a legend.

Tracks:

01. Franz Liszt - Sonate pour piano en si m [0:28:31.33]
02. Franz Schubert & Franz Liszt - Lied der Müller und der Bach (Le Meunier et le ruisseau) [0:04:48.62]
03. Henri Dutilleux - Sonate pour piano 1. Allegro con moto [0:08:24.73]
04. Henri Dutilleux - Sonate pour piano 2. Lied (assez lent) [0:06:29.64]
05. Henri Dutilleux - Sonate pour piano 3. Choral et variations [0:10:52.66]

Performer:

Tatiana Nikolaieva - piano

Exact Audio Copy V1.0 beta 3 from 29. August 2011

EAC extraction logfile from 22. September 2015, 21:51

Tatiana Nikolaieva / Liszt, Schubert, Dutilleux

Used drive : TSSTcorpCDDVDW SH-216AB Adapter: 0 ID: 0

Read mode : Secure
Utilize accurate stream : Yes
Defeat audio cache : Yes
Make use of C2 pointers : No

Read offset correction

: 6
Overread into Lead-In and Lead-Out : No
Fill up missing offset samples with silence : Yes
Delete leading and trailing silent blocks : No
Null samples used in CRC calculations : Yes
Used interface
: Native Win32 interface for Win NT & 2000
Gap handling
: Appended to previous track

Used output format : User Defined Encoder
Selected bitrate : 768 kBit/s
Quality : High
Add ID3 tag : No
Command line compressor : C:\Program Files (x86)\FLAC Frontend\tools\flac.exe
Additional command line options : -8 -V -T "ARTIST=%artist%" -T "TITLE=%title%" -T "ALBUM=%albumtitle%" -T "DATE=%year%" -T "TRACKNUMBER=%tracknr%" -T "GENRE=%genre%" -T "PERFORMER=%albuminterpret%" -T "COMPOSER=%composer%" %haslyrics%--tag-from-file=LYRICS="%lyricsfile%"%haslyrics% -T "ALBUMARTIST=%albumartist%" -T "DISCNUMBER=%cdnumber%" -T "TOTALDISCS=%totalcds%" -T "TOTALTRACKS=%numtracks%" -T "COMMENT=%comment%" %source% -o %dest%

TOC of the extracted CD Track | Start | Length | Start sector | End sector
--1 | 0:00.33 | 28:31.25 | 33 | 128382 2 | 28:31.58 | 4:48.47 | 128383 | 150029 3 | 33:20.30 | 8:24.55 | 150030 | 187884 4 | 41:45.10 | 6:29.48 | 187885 | 217107 5 | 48:14.58 | 10:52.50 | 217108 | 266057

Track 1 Filename H:\Users\astarte\03. POST\Nikolaieva\01 Franz Liszt - Sonate pour piano en si m.wav Pre-gap length 0:00:02.44 Peak level 80.8 %
Extraction speed 2.5 X
Track quality 100.0 %
Copy CRC F57E225D
Accurately ripped (confidence 1) [E1869C26] (AR v1)
Copy OK

Track 2 Filename H:\Users\astarte\03. POST\Nikolaieva\02 Franz Schubert & Franz Liszt - Lied der Müller und der Bach (Le Meunier et le ruisseau).wav Peak level 47.6 %
Extraction speed 2.9 X
Track quality 100.0 %
Copy CRC 95B41335
Accurately ripped (confidence 1) F99D204 (AR v1)
Copy OK

Track 3 Filename H:\Users\astarte\03. POST\Nikolaieva\03 Henri Dutilleux - Sonate pour piano 1. Allegro con moto.wav Pre-gap length 0:00:02.33 Peak level 57.2 %
Extraction speed 3.3 X
Track quality 100.0 %
Copy CRC 77E505BB
Accurately ripped (confidence 1) [522FC8A4] (AR v1)
Copy OK

Track 4 Filename H:\Users\astarte\03. POST\Nikolaieva\04 Henri Dutilleux - Sonate pour piano 2. Lied (assez lent).wav Peak level 25.9 %
Extraction speed 3.4 X
Track quality 100.0 %
Copy CRC 74008E6F
Accurately ripped (confidence 1) [4187F17F] (AR v1)
Copy OK

Track 5 Filename H:\Users\astarte\03. POST\Nikolaieva\05 Henri Dutilleux - Sonate pour piano 3. Choral et variations.wav Peak level 56.8 %
Extraction speed 3.8 X
Track quality 100.0 %
Copy CRC 980175BB
Accurately ripped (confidence 1) [3CAA83E3] (AR v1)
Copy OK

All tracks accurately ripped

No errors occurred

End of status report

==== Log checksum C619191A5BA249CE24B733988346DE0934B3825FB1A84A91217E420BF26BFD4F ====
DOWNLOAD LINKS
Buy Premium From My Links To Get Resumable Support & Max Speed & To Support Me


Links are Interchangeable - No Password - Single Extraction
Direct Download

Tags: Tatiana, Nikolaieva, Schubert, Dutilleux

Tatiana Nikolaieva - Liszt, Schubert, Dutilleux (1992) Download via Hotfile Rapidshare Fileserve Megaupload & FileSonic, Tatiana Nikolaieva - Liszt, Schubert, Dutilleux (1992) free torrent downloads included crack, serial, keygen.Tatiana Nikolaieva - Liszt, Schubert, Dutilleux (1992) Fast Download via Rapidshare Hotfile Fileserve Filesonic Megaupload, Tatiana Nikolaieva - Liszt, Schubert, Dutilleux (1992) Torrents and Emule Download or anything related.
Leave a Comment
Your Name:
E-Mail:
Add Comments:

Enter Code: