The Angels - Liveline (1987)

Download Now

The Angels - Liveline (1987)

The Angels - Liveline (1987)
EAC | Flac(Image) + Cue + Log & MP3 CBR 320Kbps
2CD | 1998 | Shock Records, ANGELS 09 | ~ 1208 or 367 Mb | Scans(jpg) -> 128 Mb
Classic Rock / Hard Rock

"An amazing re-issue of this 1987 classic. Not only do the original tracks, expertly mixed by Bill Price, sound better than before, but Rick Brewster himself dug up, restored and mixed 10 unreleased recordings dating from between 1981 and 1983, including a version of "Gonna Leave You" that predates the studio version by three years..."


Tracklist CD1:

01. Comin Down (4:29)
02. No Secrets (4:42)
03. Did You Hurt Somebody (3:28)
04. Standing Over You (3:06)
05. Shadow Boxer (2:39)
06. After the Rain (5:07)
07. Small Price (4:48)
08. Fashion & Fame (4:51)
09. Love Takes Care (4:37)
10. Be With You (4:08)
11. Run for the Shelter (4:00)
12. Save Me (4:23)
13. Underground (6:56)
14. Back on You (3:30)
15. Am I Ever Gonna See Your Face Again (4:10)
16. Stand Up (3:15)
17. Don't Waste My Time (4:12)
18. Face the Day (5:30)

Exact Audio Copy V0.99 prebeta 4 from 23. January 2008

EAC extraction logfile from 9. January 2010, 0:26

The Angels / Liveline (Remastered Edition) (Disc 1)

Used drive : PIONEER DVD-RW DVR-110D Adapter: 1 ID: 1

Read mode : Secure
Utilize accurate stream : Yes
Defeat audio cache : Yes
Make use of C2 pointers : No

Read offset correction

: 48
Overread into Lead-In and Lead-Out : Yes
Fill up missing offset samples with silence : Yes
Delete leading and trailing silent blocks : No
Null samples used in CRC calculations : Yes
Used interface
: Installed external ASPI interface
Gap handling
: Appended to previous track

Used output format : User Defined Encoder
Selected bitrate : 1024 kBit/s
Quality : High
Add ID3 tag : No
Command line compressor : C:\Program Files\Exact Audio Copy\Flac\flac.exe
Additional command line options : -8 -V -T "ARTIST=%a" -T "TITLE=%t" -T "ALBUM=%g" -T "DATE=%y" -T "TRACKNUMBER=%n" -T "GENRE=%m" -T "COMMENT=EAC FLAC-8" %s

TOC of the extracted CD Track | Start | Length | Start sector | End sector
--1 | 0:00.00 | 4:28.60 | 0 | 20159 2 | 4:28.60 | 4:41.45 | 20160 | 41279 3 | 9:10.30 | 3:28.02 | 41280 | 56881 4 | 12:38.32 | 3:06.10 | 56882 | 70841 5 | 15:44.42 | 2:39.08 | 70842 | 82774 6 | 18:23.50 | 5:07.20 | 82775 | 105819 7 | 23:30.70 | 4:48.35 | 105820 | 127454 8 | 28:19.30 | 4:50.65 | 127455 | 149269 9 | 33:10.20 | 4:37.22 | 149270 | 170066
10 | 37:47.42 | 4:07.73 | 170067 | 188664
11 | 41:55.40 | 4:00.00 | 188665 | 206664
12 | 45:55.40 | 4:23.27 | 206665 | 226416
13 | 50:18.67 | 6:55.48 | 226417 | 257589
14 | 57:14.40 | 3:29.70 | 257590 | 273334
15 | 60:44.35 | 4:09.55 | 273335 | 292064
16 | 64:54.15 | 3:15.20 | 292065 | 306709
17 | 68:09.35 | 4:11.52 | 306710 | 325586
18 | 72:21.12 | 5:29.65 | 325587 | 350326

Track 1 Filename D:\The Angels\Liveline\CD 1\01 - Comin' Down.wav Pre-gap length 0:00:02.00 Peak level 99.9 %
Track quality 100.0 %
Test CRC E3514C18
Copy CRC E3514C18
Cannot be verified as accurate (confidence 2) [2FF47E19], AccurateRip returned [7C2A74B2]
Copy OK

Track 2 Filename D:\The Angels\Liveline\CD 1\02 - No Secrets.wav Peak level 99.9 %
Track quality 99.9 %
Test CRC A3DAACFE
Copy CRC A3DAACFE
Cannot be verified as accurate (confidence 2) [970CF3B6], AccurateRip returned [37683D19]
Copy OK

Track 3 Filename D:\The Angels\Liveline\CD 1\03 - Did You Hurt Somebody .wav Peak level 99.9 %
Track quality 100.0 %
Test CRC 441E05AF
Copy CRC 441E05AF
Cannot be verified as accurate (confidence 2) [DEC190A9], AccurateRip returned [345348BD]
Copy OK

Track 4 Filename D:\The Angels\Liveline\CD 1\04 - Standing Over You.wav Peak level 99.9 %
Track quality 100.0 %
Test CRC 2E59A379
Copy CRC 2E59A379
Cannot be verified as accurate (confidence 2) [C4FD9768], AccurateRip returned [D47485A2]
Copy OK

Track 5 Filename D:\The Angels\Liveline\CD 1\05 - Shadow Boxer.wav Peak level 99.9 %
Track quality 100.0 %
Test CRC 657F3095
Copy CRC 657F3095
Cannot be verified as accurate (confidence 2) 3F14C46, AccurateRip returned [65FE3536]
Copy OK

Track 6 Filename D:\The Angels\Liveline\CD 1\06 - After The Rain.wav Peak level 99.9 %
Track quality 100.0 %
Test CRC FB365919
Copy CRC FB365919
Cannot be verified as accurate (confidence 2) [EB1E406D], AccurateRip returned [3CF2D12E]
Copy OK

Track 7 Filename D:\The Angels\Liveline\CD 1\07 - Small Price.wav Peak level 99.9 %
Track quality 100.0 %
Test CRC 63924C77
Copy CRC 63924C77
Cannot be verified as accurate (confidence 2) [882C95D4], AccurateRip returned [8F478CCA]
Copy OK

Track 8 Filename D:\The Angels\Liveline\CD 1\08 - Fashion & Fame.wav Peak level 99.9 %
Track quality 99.9 %
Test CRC 33C5EAE0
Copy CRC 33C5EAE0
Cannot be verified as accurate (confidence 2) [D37DBCDF], AccurateRip returned E79980B
Copy OK

Track 9 Filename D:\The Angels\Liveline\CD 1\09 - Love Takes Care.wav Peak level 99.9 %
Track quality 99.9 %
Test CRC 786E493B
Copy CRC 786E493B
Cannot be verified as accurate (confidence 2) [D2C02F1B], AccurateRip returned [7EFC2814]
Copy OK

Track 10 Filename D:\The Angels\Liveline\CD 1\10 - Be With You.wav Peak level 99.9 %
Track quality 100.0 %
Test CRC 8D67B7A6
Copy CRC 8D67B7A6
Cannot be verified as accurate (confidence 2) [39C539F2], AccurateRip returned [4010C06E]
Copy OK

Track 11 Filename D:\The Angels\Liveline\CD 1\11 - Run For The Shelter.wav Peak level 99.9 %
Track quality 100.0 %
Test CRC DD08517D
Copy CRC DD08517D
Cannot be verified as accurate (confidence 2) 94E8789, AccurateRip returned [583E2D71]
Copy OK

Track 12 Filename D:\The Angels\Liveline\CD 1\12 - Save Me.wav Peak level 99.9 %
Track quality 100.0 %
Test CRC 7173EEBD
Copy CRC 7173EEBD
Cannot be verified as accurate (confidence 2) [A7BC63D5], AccurateRip returned [20EAFAC8]
Copy OK

Track 13 Filename D:\The Angels\Liveline\CD 1\13 - Underground.wav Peak level 100.0 %
Track quality 100.0 %
Test CRC 23F208AA
Copy CRC 23F208AA
Cannot be verified as accurate (confidence 2) [5B148CA7], AccurateRip returned [52337263]
Copy OK

Track 14 Filename D:\The Angels\Liveline\CD 1\14 - Back On You.wav Peak level 99.9 %
Track quality 100.0 %
Test CRC 8FF4C34F
Copy CRC 8FF4C34F
Cannot be verified as accurate (confidence 2) [5BACFB25], AccurateRip returned [F75AFCE1]
Copy OK

Track 15 Filename D:\The Angels\Liveline\CD 1\15 - Am I Ever Gonna See Your Face Again.wav Peak level 100.0 %
Track quality 99.9 %
Test CRC D46AAFAE
Copy CRC D46AAFAE
Cannot be verified as accurate (confidence 2) [1A559358], AccurateRip returned [835DD0C5]
Copy OK

Track 16 Filename D:\The Angels\Liveline\CD 1\16 - Stand Up.wav Peak level 99.9 %
Track quality 99.9 %
Test CRC C5A4AD61
Copy CRC C5A4AD61
Cannot be verified as accurate (confidence 2) [D2626936], AccurateRip returned [E28C930F]
Copy OK

Track 17 Filename D:\The Angels\Liveline\CD 1\17 - Don't Waste My Time.wav Peak level 99.9 %
Track quality 99.9 %
Test CRC D2276B21
Copy CRC D2276B21
Cannot be verified as accurate (confidence 2) [53E04628], AccurateRip returned [3DBB62F6]
Copy OK

Track 18 Filename D:\The Angels\Liveline\CD 1\18 - Face The Day.wav Peak level 99.9 %
Track quality 100.0 %
Test CRC ADE33187
Copy CRC ADE33187
Cannot be verified as accurate (confidence 2) [D9977DE4], AccurateRip returned [9ECB6531]
Copy OK

No tracks could be verified as accurate
You may have a different pressing from the one(s) in the database

No errors occurred

End of status report

foobar2000 1.2.9 / Dynamic Range Meter 1.1.1
log date: 2015-09-23 08:48:17

Analyzed: The Angels / Liveline (Remastered Edition) (Disc 1)

DR Peak RMS Duration Track

DR7 0.00 dB -8.63 dB 4:29 01-Comin' Down
DR7 0.00 dB -8.36 dB 4:42 02-No Secrets
DR7 0.00 dB -8.36 dB 3:28 03-Did You Hurt Somebody?
DR7 0.00 dB -7.74 dB 3:06 04-Standing Over You
DR7 0.00 dB -8.16 dB 2:39 05-Shadow Boxer
DR7 0.00 dB -8.33 dB 5:07 06-After The Rain
DR7 0.00 dB -8.33 dB 4:48 07-Small Price
DR8 0.00 dB -8.87 dB 4:51 08-Fashion & Fame
DR11 0.00 dB -13.46 dB 4:37 09-Love Takes Care
DR8 0.00 dB -9.73 dB 4:08 10-Be With You
DR8 0.00 dB -9.05 dB 4:00 11-Run For The Shelter
DR8 0.00 dB -8.84 dB 4:23 12-Save Me
DR8 0.00 dB -9.41 dB 6:56 13-Underground
DR9 0.00 dB -9.82 dB 3:30 14-Back On You
DR8 0.00 dB -9.04 dB 4:10 15-Am I Ever Gonna See Your Face Again
DR7 0.00 dB -8.38 dB 3:15 16-Stand Up
DR9 0.00 dB -10.27 dB 4:12 17-Don't Waste My Time
DR9 0.00 dB -10.71 dB 5:30 18-Face The Day

Number of tracks: 18
Official DR value: DR8

Samplerate: 44100 Hz
Channels: 2
Bits per sample: 16
Bitrate: 1059 kbps
Codec: FLAC

[CUETools log; Date: 23.09.2015 8:48:06; Version: 2.1.4]
[CTDB TOCID: K3QwRJ0LNJumbL4TbnVnxabVYDM-] found.
Track | CTDB Status
1 | (9/9) Accurately ripped
2 | (9/9) Accurately ripped
3 | (8/9) Accurately ripped
4 | (9/9) Accurately ripped
5 | (9/9) Accurately ripped
6 | (9/9) Accurately ripped
7 | (9/9) Accurately ripped
8 | (9/9) Accurately ripped
9 | (9/9) Accurately ripped
10 | (9/9) Accurately ripped
11 | (9/9) Accurately ripped
12 | (9/9) Accurately ripped
13 | (9/9) Accurately ripped
14 | (9/9) Accurately ripped
15 | (9/9) Accurately ripped
16 | (9/9) Accurately ripped
17 | (9/9) Accurately ripped
18 | (9/9) Accurately ripped
[AccurateRip ID: 00319ec8-029a22ef-f9123f12] found.
Track [ CRC | V2 ] Status
01 [2ff47e19|607e8b5a] (03+02/10) Accurately ripped
02 [970cf3b6|f2219996] (03+02/10) Accurately ripped
03 [dec190a9|2ef9f8f7] (03+02/10) Accurately ripped
04 [c4fd9768|c3735cd1] (03+02/10) Accurately ripped
05 3f14c46|815e847a (03+02/10) Accurately ripped
06 [eb1e406d|b3fdb60e] (03+02/10) Accurately ripped
07 [882c95d4|4d6e6c83] (03+02/10) Accurately ripped
08 [d37dbcdf|a647242c] (03+02/10) Accurately ripped
09 [d2c02f1b|8ebaad39] (03+02/10) Accurately ripped
10 [39c539f2|f4f5b3f8] (03+02/10) Accurately ripped
11 94e8789|58defc67 (03+02/10) Accurately ripped
12 [a7bc63d5|93391716] (03+02/10) Accurately ripped
13 [5b148ca7|4aef9a9a] (03+02/10) Accurately ripped
14 [5bacfb25|cde656ec] (03+02/10) Accurately ripped
15 [1a559358|d7906bd9] (03+02/10) Accurately ripped
16 [d2626936|496a6f8d] (03+02/10) Accurately ripped
17 [53e04628|66b53978] (03+02/10) Accurately ripped
18 [d9977de4|5dbb12dd] (03+02/10) Accurately ripped
Offsetted by -1365:
01 [7c2a74b2] (03/10) Accurately ripped
02 [37683d19] (03/10) Accurately ripped
03 [345348bd] (03/10) Accurately ripped
04 [d47485a2] (03/10) Accurately ripped
05 [65fe3536] (03/10) Accurately ripped
06 [3cf2d12e] (03/10) Accurately ripped
07 [8f478cca] (03/10) Accurately ripped
08 e79980b (03/10) Accurately ripped
09 [7efc2814] (03/10) Accurately ripped
10 [4010c06e] (03/10) Accurately ripped
11 [583e2d71] (03/10) Accurately ripped
12 [20eafac8] (03/10) Accurately ripped
13 [52337263] (03/10) Accurately ripped
14 [f75afce1] (03/10) Accurately ripped
15 [835dd0c5] (03/10) Accurately ripped
16 [e28c930f] (03/10) Accurately ripped
17 [3dbb62f6] (03/10) Accurately ripped
18 [9ecb6531] (03/10) Accurately ripped
Offsetted by 98:
01 [d2e39fc0] (00/10) No match (V2 was not tested)
02 [3e0fdc5e] (00/10) No match (V2 was not tested)
03 [d68f6c21] (00/10) No match (V2 was not tested)
04 [c64e2748] (00/10) No match (V2 was not tested)
05 [64b00c7f] (00/10) No match (V2 was not tested)
06 [50cecf03] (00/10) No match (V2 was not tested)
07 [3599ab1c] (00/10) No match (V2 was not tested)
08 [acc2c299] (00/10) No match (V2 was not tested)
09 [2d8463fd] (00/10) No match (V2 was not tested)
10 [1bb3d80d] (00/10) No match (V2 was not tested)
11 [ce79b7d0] (00/10) No match (V2 was not tested)
12 [696b44db] (00/10) No match (V2 was not tested)
13 [99313748] (00/10) No match (V2 was not tested)
14 [09ce6bb1] (00/10) No match (V2 was not tested)
15 [1e4fb727] (00/10) No match (V2 was not tested)
16 [cec7af89] (00/10) No match (V2 was not tested)
17 [0de3805c] (00/10) No match (V2 was not tested)
18 [d98dd44f] (00/10) No match (V2 was not tested)

Track Peak [ CRC32 ] [W/O NULL] [ LOG ]
-- 100,0 [AF7825ED] [DE7313D7]
01 99,9 [E3514C18] [D5B48E25] CRC32
02 99,9 [A3DAACFE] [52237DBC] CRC32
03 99,9 [441E05AF] [C245AE78] CRC32
04 99,9 [2E59A379] [94269D85] CRC32
05 99,9 [657F3095] [FCAE68A3] CRC32
06 99,9 [FB365919] [882530DF] CRC32
07 99,9 [63924C77] [2BE6B20A] CRC32
08 99,9 [33C5EAE0] [43E9A516] CRC32
09 99,9 [786E493B] [0C13A7DB] CRC32
10 99,9 [8D67B7A6] [084D12B9] CRC32
11 99,9 [DD08517D] [83E3A5E6] CRC32
12 99,9 [7173EEBD] [0B95974D] CRC32
13 100,0 [23F208AA] FB4D796 CRC32
14 99,9 [8FF4C34F] [E785CD17] CRC32
15 100,0 [D46AAFAE] [E20944B9] CRC32
16 99,9 [C5A4AD61] [86ADE6E8] CRC32
17 99,9 [D2276B21] F0DC1AB CRC32
18 99,9 [ADE33187] [1A51B9F2] CRC32

The Angels - Liveline (1987)

Tracklist CD2:

01. City Out of Control (9:57)
02. Eat City (5:05)
03. Smalltalk (3:27)
04. Take a Long Line (5:30)
05. Mr Damage (4:24)
06. Marseilles (10:21)
07. Nothin to Win (5:15)
08. Night Comes Early (3:59)
09. Into the Heat (3:17)
10. Long Night (4:17)
11. Easy Prey (3:22)
12. Is That You (3:48)
13. No Sleep in Hell (5:25)
14. Talk About You (3:47)
15. Gonna Leave You (3:05)
16. I Ain't the One (2:56)

Exact Audio Copy V0.99 prebeta 4 from 23. January 2008

EAC extraction logfile from 9. January 2010, 0:55

The Angels / Liveline (Remastered Edition) (Disc 2)

Used drive : PIONEER DVD-RW DVR-110D Adapter: 1 ID: 1

Read mode : Secure
Utilize accurate stream : Yes
Defeat audio cache : Yes
Make use of C2 pointers : No

Read offset correction

: 48
Overread into Lead-In and Lead-Out : Yes
Fill up missing offset samples with silence : Yes
Delete leading and trailing silent blocks : No
Null samples used in CRC calculations : Yes
Used interface
: Installed external ASPI interface
Gap handling
: Appended to previous track

Used output format : User Defined Encoder
Selected bitrate : 1024 kBit/s
Quality : High
Add ID3 tag : No
Command line compressor : C:\Program Files\Exact Audio Copy\Flac\flac.exe
Additional command line options : -8 -V -T "ARTIST=%a" -T "TITLE=%t" -T "ALBUM=%g" -T "DATE=%y" -T "TRACKNUMBER=%n" -T "GENRE=%m" -T "COMMENT=EAC FLAC-8" %s

TOC of the extracted CD Track | Start | Length | Start sector | End sector
--1 | 0:00.00 | 9:56.60 | 0 | 44759 2 | 9:56.60 | 5:04.67 | 44760 | 67626 3 | 15:01.52 | 3:26.40 | 67627 | 83116 4 | 18:28.17 | 5:29.48 | 83117 | 107839 5 | 23:57.65 | 4:24.20 | 107840 | 127659 6 | 28:22.10 | 10:20.40 | 127660 | 174199 7 | 38:42.50 | 5:14.65 | 174200 | 197814 8 | 43:57.40 | 3:59.00 | 197815 | 215739 9 | 47:56.40 | 3:16.55 | 215740 | 230494
10 | 51:13.20 | 4:17.27 | 230495 | 249796
11 | 55:30.47 | 3:22.10 | 249797 | 264956
12 | 58:52.57 | 3:48.15 | 264957 | 282071
13 | 62:40.72 | 5:25.18 | 282072 | 306464
14 | 68:06.15 | 3:46.67 | 306465 | 323481
15 | 71:53.07 | 3:04.60 | 323482 | 337341
16 | 74:57.67 | 2:56.43 | 337342 | 350584

Track 1 Filename D:\The Angels\Liveline\CD 2\01 - City Out Of Control.wav Pre-gap length 0:00:02.00 Peak level 99.9 %
Track quality 100.0 %
Test CRC 09CD5894
Copy CRC 09CD5894
Cannot be verified as accurate (confidence 2) [716439EC], AccurateRip returned [1AF0A720]
Copy OK

Track 2 Filename D:\The Angels\Liveline\CD 2\02 - Eat City.wav Peak level 99.9 %
Track quality 100.0 %
Test CRC 8B11F973
Copy CRC 8B11F973
Cannot be verified as accurate (confidence 2) [2BDCA3E8], AccurateRip returned [E3A9AB4C]
Copy OK

Track 3 Filename D:\The Angels\Liveline\CD 2\03 - Smalltalk.wav Peak level 99.9 %
Track quality 99.9 %
Test CRC E573CDD7
Copy CRC E573CDD7
Cannot be verified as accurate (confidence 2) [F6642CA4], AccurateRip returned 54946E2
Copy OK

Track 4 Filename D:\The Angels\Liveline\CD 2\04 - Take A Long Line.wav Peak level 99.9 %
Track quality 100.0 %
Test CRC D6FB41A5
Copy CRC D6FB41A5
Cannot be verified as accurate (confidence 2) [DCA71C8E], AccurateRip returned [94910123]
Copy OK

Track 5 Filename D:\The Angels\Liveline\CD 2\05 - Mr Damage.wav Peak level 99.9 %
Track quality 100.0 %
Test CRC B7AFEAB6
Copy CRC B7AFEAB6
Cannot be verified as accurate (confidence 2) [5111B0F7], AccurateRip returned [06272D61]
Copy OK

Track 6 Filename D:\The Angels\Liveline\CD 2\06 - Marseilles.wav Peak level 99.9 %
Track quality 100.0 %
Test CRC CB29D086
Copy CRC CB29D086
Cannot be verified as accurate (confidence 2) [2E4A186D], AccurateRip returned [06E5DDB6]
Copy OK

Track 7 Filename D:\The Angels\Liveline\CD 2\07 - Nothin' To Win.wav Peak level 100.0 %
Track quality 100.0 %
Test CRC A018D357
Copy CRC A018D357
Cannot be verified as accurate (confidence 2) [1DAF0CFD], AccurateRip returned [DFD55DA8]
Copy OK

Track 8 Filename D:\The Angels\Liveline\CD 2\08 - Night Comes Early.wav Peak level 99.9 %
Track quality 100.0 %
Test CRC 6BECA30E
Copy CRC 6BECA30E
Cannot be verified as accurate (confidence 2) [EF83C4A5], AccurateRip returned [14936C56]
Copy OK

Track 9 Filename D:\The Angels\Liveline\CD 2\09 - Into The Heat.wav Peak level 100.0 %
Track quality 100.0 %
Test CRC 41D0F2D2
Copy CRC 41D0F2D2
Cannot be verified as accurate (confidence 2) [A7A2477B], AccurateRip returned [3FB67DD5]
Copy OK

Track 10 Filename D:\The Angels\Liveline\CD 2\10 - Long Night.wav Peak level 100.0 %
Track quality 99.9 %
Test CRC 2757801D
Copy CRC 2757801D
Cannot be verified as accurate (confidence 2) [2458B30E], AccurateRip returned [8FA067D3]
Copy OK

Track 11 Filename D:\The Angels\Liveline\CD 2\11 - Easy Prey.wav Peak level 99.9 %
Track quality 100.0 %
Test CRC 29E6E937
Copy CRC 29E6E937
Cannot be verified as accurate (confidence 2) [3A2AD487], AccurateRip returned [79CAC86A]
Copy OK

Track 12 Filename D:\The Angels\Liveline\CD 2\12 - Is That You .wav Peak level 99.9 %
Track quality 100.0 %
Test CRC D26BC5ED
Copy CRC D26BC5ED
Cannot be verified as accurate (confidence 2) [039D8FA1], AccurateRip returned [672760B5]
Copy OK

Track 13 Filename D:\The Angels\Liveline\CD 2\13 - No Sleep In Hell.wav Peak level 100.0 %
Track quality 100.0 %
Test CRC F3830B0D
Copy CRC F3830B0D
Cannot be verified as accurate (confidence 2) [3CDBDBF1], AccurateRip returned [1602722A]
Copy OK

Track 14 Filename D:\The Angels\Liveline\CD 2\14 - Talk About You.wav Peak level 99.9 %
Track quality 100.0 %
Test CRC B908545F
Copy CRC B908545F
Cannot be verified as accurate (confidence 2) [1C7AF905], AccurateRip returned [3BCF2151]
Copy OK

Track 15 Filename D:\The Angels\Liveline\CD 2\15 - Gonna Leave You.wav Peak level 100.0 %
Track quality 100.0 %
Test CRC F3A2FB97
Copy CRC F3A2FB97
Cannot be verified as accurate (confidence 2) [3B180474], AccurateRip returned [670524CB]
Copy OK

Track 16 Filename D:\The Angels\Liveline\CD 2\16 - I Ain't The One.wav Peak level 99.9 %
Track quality 100.0 %
Test CRC 73076483
Copy CRC 73076483
Cannot be verified as accurate (confidence 2) [27D29AD2], AccurateRip returned [DB915BD4]
Copy OK

No tracks could be verified as accurate
You may have a different pressing from the one(s) in the database

No errors occurred

End of status report

foobar2000 1.2.9 / Dynamic Range Meter 1.1.1
log date: 2015-09-23 08:48:37

Analyzed: The Angels / Liveline (Remastered Edition) (Disc 2)

DR Peak RMS Duration Track

DR9 0.00 dB -10.57 dB 9:57 01-City Out Of Control
DR8 0.00 dB -9.58 dB 5:05 02-Eat City
DR8 0.00 dB -8.63 dB 3:27 03-Smalltalk
DR7 0.00 dB -8.54 dB 5:30 04-Take A Long Line
DR7 0.00 dB -8.04 dB 4:24 05-Mr Damage
DR7 0.00 dB -9.46 dB 10:21 06-Marseilles
DR6 0.00 dB -7.43 dB 5:15 07-Nothin' To Win
DR7 0.00 dB -7.31 dB 3:59 08-Night Comes Early
DR7 0.00 dB -7.41 dB 3:17 09-Into The Heat
DR8 0.00 dB -9.13 dB 4:17 10-Long Night
DR8 0.00 dB -9.96 dB 3:22 11-Easy Prey
DR7 0.00 dB -7.89 dB 3:48 12-Is That You?
DR7 0.00 dB -7.92 dB 5:25 13-No Sleep In Hell
DR8 0.00 dB -9.55 dB 3:47 14-Talk About You
DR6 0.00 dB -6.78 dB 3:05 15-Gonna Leave You
DR7 0.00 dB -8.18 dB 2:57 16-I Ain't The One

Number of tracks: 16
Official DR value: DR7

Samplerate: 44100 Hz
Channels: 2
Bits per sample: 16
Bitrate: 1047 kbps
Codec: FLAC

[CUETools log; Date: 23.09.2015 8:48:24; Version: 2.1.4]
[CTDB TOCID: XJ7BbVmwRJ0BW7ANteDe_64QZPU-] found.
Track | CTDB Status
1 | (9/9) Accurately ripped
2 | (9/9) Accurately ripped
3 | (9/9) Accurately ripped
4 | (8/9) Accurately ripped
5 | (9/9) Accurately ripped
6 | (9/9) Accurately ripped
7 | (9/9) Accurately ripped
8 | (9/9) Accurately ripped
9 | (9/9) Accurately ripped
10 | (9/9) Accurately ripped
11 | (9/9) Accurately ripped
12 | (9/9) Accurately ripped
13 | (9/9) Accurately ripped
14 | (9/9) Accurately ripped
15 | (9/9) Accurately ripped
16 | (9/9) Accurately ripped
[AccurateRip ID: 00335472-02543488-f2124210] found.
Track [ CRC | V2 ] Status
01 [716439ec|c52cbc74] (03+02/10) Accurately ripped
02 [2bdca3e8|af26c83f] (03+02/10) Accurately ripped
03 [f6642ca4|b0323123] (03+02/10) Accurately ripped
04 [dca71c8e|2bc5e970] (03+02/10) Accurately ripped
05 [5111b0f7|5e237653] (03+02/10) Accurately ripped
06 [2e4a186d|bc387bb5] (03+02/10) Accurately ripped
07 [1daf0cfd|c7423e45] (03+02/10) Accurately ripped
08 [ef83c4a5|6fb71d44] (03+02/10) Accurately ripped
09 [a7a2477b|ad9385fa] (03+02/10) Accurately ripped
10 [2458b30e|03aee695] (03+02/10) Accurately ripped
11 [3a2ad487|3918a71e] (03+02/10) Accurately ripped
12 [039d8fa1|f8f45201] (03+02/10) Accurately ripped
13 [3cdbdbf1|394083d9] (03+02/10) Accurately ripped
14 [1c7af905|09b23985] (03+02/10) Accurately ripped
15 [3b180474|1e31cc13] (03+02/10) Accurately ripped
16 [27d29ad2|06a03392] (03+02/10) Accurately ripped
Offsetted by -1337:
01 [1af0a720] (03/10) Accurately ripped
02 [e3a9ab4c] (03/10) Accurately ripped
03 54946e2 (03/10) Accurately ripped
04 [94910123] (03/10) Accurately ripped
05 [06272d61] (03/10) Accurately ripped
06 [06e5ddb6] (03/10) Accurately ripped
07 [dfd55da8] (03/10) Accurately ripped
08 [14936c56] (03/10) Accurately ripped
09 [3fb67dd5] (03/10) Accurately ripped
10 [8fa067d3] (03/10) Accurately ripped
11 [79cac86a] (03/10) Accurately ripped
12 [672760b5] (03/10) Accurately ripped
13 [1602722a] (03/10) Accurately ripped
14 [3bcf2151] (03/10) Accurately ripped
15 [670524cb] (03/10) Accurately ripped
16 [db915bd4] (03/10) Accurately ripped
Offsetted by 98:
01 [2e62fcd4] (00/10) No match (V2 was not tested)
02 [e40b2af0] (00/10) No match (V2 was not tested)
03 [aad02623] (00/10) No match (V2 was not tested)
04 [18be16f1] (00/10) No match (V2 was not tested)
05 c3ca305 (00/10) No match (V2 was not tested)
06 [408d1a0d] (00/10) No match (V2 was not tested)
07 [9dbeaffe] (00/10) No match (V2 was not tested)
08 [155fd769] (00/10) No match (V2 was not tested)
09 [e4200322] (00/10) No match (V2 was not tested)
10 [c7c9139d] (00/10) No match (V2 was not tested)
11 [69595667] (00/10) No match (V2 was not tested)
12 [7db4613a] (00/10) No match (V2 was not tested)
13 [97d06d6b] (00/10) No match (V2 was not tested)
14 [56efe198] (00/10) No match (V2 was not tested)
15 [a730b86e] (00/10) No match (V2 was not tested)
16 [cab2cd6b] (00/10) No match (V2 was not tested)

Track Peak [ CRC32 ] [W/O NULL] [ LOG ]
-- 100,0 [4DF05D6E] [7D5669E5]
01 99,9 [09CD5894] DBD4231 CRC32
02 99,9 [8B11F973] [D74F9ED8] CRC32
03 99,9 [E573CDD7] [6E44E287] CRC32
04 99,9 [D6FB41A5] [1705F0CD] CRC32
05 99,9 7AFEAB6 [D241934B] CRC32
06 99,9 [CB29D086] [6F139A33] CRC32
07 100,0 [A018D357] [AF98FE91] CRC32
08 99,9 [6BECA30E] [AF9F33E3] CRC32
09 100,0 [41D0F2D2] [53E4C35B] CRC32
10 100,0 [2757801D] [3F6781EF] CRC32
11 99,9 [29E6E937] [F247E84E] CRC32
12 99,9 [D26BC5ED] [056631B2] CRC32
13 100,0 [F3830B0D] [89DFBDF4] CRC32
14 99,9 908545F [A3A328B0] CRC32
15 99,9 [F3A2FB97] [CE849C24] CRC32
16 99,9 [73076483] [ADB2C690] CRC32

Musicians:

Bass, Vocals, Saxophone - Jim Hilbun
Drums - Brent Eccles
Guitar, Backing Vocals - Rick Brewster
Mixed By - Bill Price
Rhythm Guitar, Backing Vocals - Bob Spencer, John Brewster
Vocals - Doc Neeson


The Angels - Liveline (1987)

All thanks go to the original releaser



Download The Angels - Liveline (1987):

DOWNLOAD LINKS
Buy Premium From My Links To Get Resumable Support & Max Speed & To Support Me


Links are Interchangeable - No Password - Single Extraction
Direct Download

Tags: Angels, Liveline

The Angels - Liveline (1987) Download via Hotfile Rapidshare Fileserve Megaupload & FileSonic, The Angels - Liveline (1987) free torrent downloads included crack, serial, keygen.The Angels - Liveline (1987) Fast Download via Rapidshare Hotfile Fileserve Filesonic Megaupload, The Angels - Liveline (1987) Torrents and Emule Download or anything related.
Leave a Comment
Your Name:
E-Mail:
Add Comments:

Enter Code: