Various Artists - Herbie: Fully Loaded - Original Soundtrack (2005) [Japanese Release] RESTORED

Download Now


Various Artists - Herbie: Fully Loaded - Original Soundtrack (2005) [Japanese Release] RESTORED
VA - Herbie: Fully Loaded - Original Soundtrack (2005)
FLAC+CUE+LOG or MP3 CBR 320 | Complete Scanwork | 400 or 114 MB
Soundtrack / Rock / Pop Rock | Avex Trax # AVCX-12439

Herbie: Fully Loaded is the soundtrack album to the 2005 film of the same name, it was released on Summer 2005. It includes Lindsay Lohan's third single, "First", and remakes of classic songs by Hollywood Records artists including Aly & A.J., Caleigh Peters, Ingram Hill and Josh Kelley, and big names such as Lionel Richie and Mark McGrath.
Tracklist:

01. Lindsay Lohan -- First
02. Mark McGrath -- Getcha Back
03. Aly & A.J. -- Walking On Sunshine
04. Caleigh Peters -- Fun Fun Fun
05. Pilot -- Magic
06. Josh Gracin -- Working For The Weekend
07. The Donnas -- Roll On Down The Highway
08. The Mooney Suzuki -- Born To Be Wild
09. Ingram Hill -- More Than A Feeling
10. Rooney -- Metal Guru
11. Josh Kelly -- You Are The Woman
12. Lionel Richie -- Hello
13. Mavin -- Welcome To My World
14. The Blacksmoke Organisation -- Herbie (Fully Loaded Remix)
15. The Blacksmoke Organisation -- Herbie vs Nascar

Exact Audio Copy V1.0 beta 1 from 15. November 2010

EAC extraction logfile from 27. January 2011, 23:21

Various / Herbie: Fully Loaded

Used drive : PIONEER DVD-RW DVR-116D Adapter: 1 ID: 0

Read mode : Secure
Utilize accurate stream : Yes
Defeat audio cache : Yes
Make use of C2 pointers : No

Read offset correction

: 96
Overread into Lead-In and Lead-Out : No
Fill up missing offset samples with silence : Yes
Delete leading and trailing silent blocks : No
Null samples used in CRC calculations : Yes
Used interface
: Installed external ASPI interface

Used output format : Internal WAV Routines
Sample format : 44.100 Hz; 16 Bit; Stereo

TOC of the extracted CD Track | Start | Length | Start sector | End sector
--1 | 0:00.00 | 3:30.42 | 0 | 15791 2 | 3:30.42 | 3:08.45 | 15792 | 29936 3 | 6:39.12 | 3:54.68 | 29937 | 47554 4 | 10:34.05 | 2:17.32 | 47555 | 57861 5 | 12:51.37 | 3:05.30 | 57862 | 71766 6 | 15:56.67 | 3:35.15 | 71767 | 87906 7 | 19:32.07 | 3:32.38 | 87907 | 103844 8 | 23:04.45 | 3:54.67 | 103845 | 121461 9 | 26:59.37 | 4:31.00 | 121462 | 141786
10 | 31:30.37 | 2:33.48 | 141787 | 153309
11 | 34:04.10 | 2:36.32 | 153310 | 165041
12 | 36:40.42 | 4:09.30 | 165042 | 183746
13 | 40:49.72 | 3:58.40 | 183747 | 201636
14 | 44:48.37 | 2:49.30 | 201637 | 214341
15 | 47:37.67 | 2:38.00 | 214342 | 226191

Range status and errors

Selected range Filename C:\AvaxHome.ru\VA -- Herbie - Fully Loaded (OST, 2005) [Japan]\OST -- Herbie - Fully Loaded (AVCX-12439).wav Peak level 96.6 %
Extraction speed 0.3 X
Range quality 100.0 %
Test CRC CBB0CE9F
Copy CRC CBB0CE9F
Copy OK

No errors occurred


AccurateRip summary

Track 1 not present in database
Track 2 not present in database
Track 3 not present in database
Track 4 not present in database
Track 5 not present in database
Track 6 not present in database
Track 7 not present in database
Track 8 not present in database
Track 9 not present in database
Track 10 not present in database
Track 11 not present in database
Track 12 not present in database
Track 13 not present in database
Track 14 not present in database
Track 15 not present in database

None of the tracks are present in the AccurateRip database

End of status report

==== Log checksum D28EF523BBF88B25A8843E80374E4354B468D47476571098828C518E126E2F15 ====

Soundtrack Album Produced by Mitchell Leib and Kaylin Frank.

Original Release Date: June 21, 2005
Japanese Release: July 27, 2005
Label: Avex Trax, Japan
Catalog No.: AVCX-12439
DOWNLOAD LINKS
Buy Premium From My Links To Get Resumable Support & Max Speed & To Support Me


Links are Interchangeable - No Password - Single Extraction
Direct Download

Tags: Various, Artists, Herbie, Loaded, Original, Soundtrack, Japanese, Release, RESTORED

Various Artists - Herbie: Fully Loaded - Original Soundtrack (2005) [Japanese Release] RESTORED Download via Hotfile Rapidshare Fileserve Megaupload & FileSonic, Various Artists - Herbie: Fully Loaded - Original Soundtrack (2005) [Japanese Release] RESTORED free torrent downloads included crack, serial, keygen.Various Artists - Herbie: Fully Loaded - Original Soundtrack (2005) [Japanese Release] RESTORED Fast Download via Rapidshare Hotfile Fileserve Filesonic Megaupload, Various Artists - Herbie: Fully Loaded - Original Soundtrack (2005) [Japanese Release] RESTORED Torrents and Emule Download or anything related.
Leave a Comment
Your Name:
E-Mail:
Add Comments:

Enter Code: