Battista Lena Trio - Plays (2000) {VVJ}

Download Now

Battista Lena Trio - Plays (2000) {VVJ}

Battista Lena Trio - Plays (2000) {VVJ}
EAC 1.0b2 | FLAC tracks level 8 | Cue+Log+M3U | Full Scans 300dpi | 290MB + 5% Recovery
Genre: Jazz, Post-Bop

""Plays" is the debut album of Battista Lena Via Veneto Jazz, but is also and above all an album that marks a sort of "back to basics", ie to the essential dimension of the jazz trio. This work differs from previous recordings of the guitarist and composer, focusing on projects with extended and rich in organic contamination with other musical universes (remember the experience with the Plectrum Orchestra Senese and the Banda Sonora); "Plays" is configured as a return to the starting point in the musical journey of Lena (a decidedly elliptical path, which often included the composition of film scores), and as a re-taking possession of the instrument, after having concentrated years mainly on writing."

Track List
01. Airegin (Sonny Rollins)
02. Time After Time (Jule Styne)
03. Yesterdays (Jerome Kern)
04. Falling Grace (Steve Swallow)
05. Stella By Starlight (Victor Young)
06. My Ideal (Newell Chase)
07. Seсor Blues (Horace Silver)
08. Blue in Green (Miles Davis)
09. Lover Richard Rogers
10. Barbados (Charlie Parker)
11. Road Song (Wes Montgomery)

musicians
Battista Lena - guitar
Enzo Pietropaoli - double bass
Marcello Di Leonardo - drums

Exact Audio Copy V1.0 beta 2 from 29. April 2011

EAC extraction logfile from 8. October 2011, 23:54

Battista Lena Trio / Plays

Used drive : HL-DT-STDVDRAM GH24NS50 Adapter: 1 ID: 1

Read mode : Secure
Utilize accurate stream : Yes
Defeat audio cache : Yes
Make use of C2 pointers : No

Read offset correction

: 667
Overread into Lead-In and Lead-Out : No
Fill up missing offset samples with silence : Yes
Delete leading and trailing silent blocks : No
Null samples used in CRC calculations : Yes
Used interface
: Native Win32 interface for Win NT & 2000
Gap handling
: Appended to previous track

Used output format : User Defined Encoder
Selected bitrate : 768 kBit/s
Quality : High
Add ID3 tag : No
Command line compressor : E:\Programmi\Exact Audio Copy\Flac\flac.exe
Additional command line options : -8 -V -T "ARTIST=%artist%" -T "TITLE=%title%" -T "ALBUM=%albumtitle%" -T "DATE=%year%" -T "TRACKNUMBER=%tracknr%" -T "TOTALTRACKS=%numtracks%" -T "GENRE=%genre%" -T "ALBUMARTIST=%albumartist%" -T "ALBUM ARTIST=%albumartist%

TOC of the extracted CD Track | Start | Length | Start sector | End sector
--1 | 0:00.00 | 3:33.31 | 0 | 16005 2 | 3:33.31 | 6:43.42 | 16006 | 46272 3 | 10:16.73 | 7:39.11 | 46273 | 80708 4 | 17:56.09 | 3:54.20 | 80709 | 98278 5 | 21:50.29 | 3:10.72 | 98279 | 112600 6 | 25:01.26 | 6:04.29 | 112601 | 139929 7 | 31:05.55 | 6:26.59 | 139930 | 168938 8 | 37:32.39 | 3:29.36 | 168939 | 184649 9 | 41:02.00 | 3:21.07 | 184650 | 199731
10 | 44:23.07 | 3:50.07 | 199732 | 216988
11 | 48:13.14 | 5:35.70 | 216989 | 242183

Track 1 Filename C:\Documents and Settings\user\Desktop\Battista Lena Trio - Plays (2000) [FLAC] {VVJ}\01 - Airegin.wav Pre-gap length 0:00:02.00 Peak level 99.0 %
Extraction speed 1.0 X
Track quality 100.0 %
Test CRC AE1AEB48
Copy CRC AE1AEB48
Track not present in AccurateRip database
Copy OK

Track 2 Filename C:\Documents and Settings\user\Desktop\Battista Lena Trio - Plays (2000) [FLAC] {VVJ}\02 - Time After Time.wav Pre-gap length 0:00:00.28 Peak level 98.3 %
Extraction speed 1.2 X
Track quality 100.0 %
Test CRC D8D32A51
Copy CRC D8D32A51
Track not present in AccurateRip database
Copy OK

Track 3 Filename C:\Documents and Settings\user\Desktop\Battista Lena Trio - Plays (2000) [FLAC] {VVJ}\03 - Yesterday.wav Pre-gap length 0:00:00.45 Peak level 94.0 %
Extraction speed 1.3 X
Track quality 99.9 %
Test CRC 27577D51
Copy CRC 27577D51
Track not present in AccurateRip database
Copy OK

Track 4 Filename C:\Documents and Settings\user\Desktop\Battista Lena Trio - Plays (2000) [FLAC] {VVJ}\04 - Falling Grace.wav Pre-gap length 0:00:01.00 Peak level 99.2 %
Extraction speed 1.5 X
Track quality 100.0 %
Test CRC 21B43225
Copy CRC 21B43225
Track not present in AccurateRip database
Copy OK

Track 5 Filename C:\Documents and Settings\user\Desktop\Battista Lena Trio - Plays (2000) [FLAC] {VVJ}\05 - Stella By Starlight.wav Pre-gap length 0:00:00.73 Peak level 97.4 %
Extraction speed 1.5 X
Track quality 100.0 %
Test CRC 10A45748
Copy CRC 10A45748
Track not present in AccurateRip database
Copy OK

Track 6 Filename C:\Documents and Settings\user\Desktop\Battista Lena Trio - Plays (2000) [FLAC] {VVJ}\06 - My Ideal.wav Pre-gap length 0:00:00.72 Peak level 99.6 %
Extraction speed 1.7 X
Track quality 100.0 %
Test CRC E915715B
Copy CRC E915715B
Track not present in AccurateRip database
Copy OK

Track 7 Filename C:\Documents and Settings\user\Desktop\Battista Lena Trio - Plays (2000) [FLAC] {VVJ}\07 - Senor Blues.wav Pre-gap length 0:00:00.53 Peak level 98.2 %
Extraction speed 1.7 X
Track quality 99.9 %
Test CRC 5EFC4E99
Copy CRC 5EFC4E99
Track not present in AccurateRip database
Copy OK

Track 8 Filename C:\Documents and Settings\user\Desktop\Battista Lena Trio - Plays (2000) [FLAC] {VVJ}\08 - Blue In Green.wav Pre-gap length 0:00:00.28 Peak level 95.6 %
Extraction speed 1.6 X
Track quality 99.9 %
Test CRC DC32C39B
Copy CRC DC32C39B
Track not present in AccurateRip database
Copy OK

Track 9 Filename C:\Documents and Settings\user\Desktop\Battista Lena Trio - Plays (2000) [FLAC] {VVJ}\09 - Lover.wav Pre-gap length 0:00:00.39 Peak level 90.0 %
Extraction speed 1.8 X
Track quality 100.0 %
Test CRC 4FB5A98E
Copy CRC 4FB5A98E
Track not present in AccurateRip database
Copy OK

Track 10 Filename C:\Documents and Settings\user\Desktop\Battista Lena Trio - Plays (2000) [FLAC] {VVJ}\10 - Barbados.wav Pre-gap length 0:00:00.40 Peak level 98.8 %
Extraction speed 1.7 X
Track quality 99.9 %
Test CRC ECC8AECC
Copy CRC ECC8AECC
Track not present in AccurateRip database
Copy OK

Track 11 Filename C:\Documents and Settings\user\Desktop\Battista Lena Trio - Plays (2000) [FLAC] {VVJ}\11 - Road Song.wav Pre-gap length 0:00:00.53 Peak level 98.4 %
Extraction speed 2.2 X
Track quality 100.0 %
Test CRC 7791204E
Copy CRC 7791204E
Track not present in AccurateRip database
Copy OK

None of the tracks are present in the AccurateRip database

No errors occurred

End of status report

==== Log checksum EB6BCC390D551323B8EE68CFF3CA7647121D18D549FC8C59C8F09AD0EBD714DA ====

Analyzed: Battista Lena Trio / Plays

DR Peak RMS Duration Track

DR9 -0.08 dB -11.90 dB 3:33 01-Airegin
DR10 -0.15 dB -14.87 dB 6:44 02-Time After Time
DR8 -0.53 dB -12.81 dB 7:39 03-Yesterday
DR8 -0.06 dB -11.95 dB 3:54 04-Falling Grace
DR8 -0.23 dB -11.27 dB 3:11 05-Stella By Starlight
DR8 -0.03 dB -11.86 dB 6:04 06-My Ideal
DR9 -0.16 dB -12.20 dB 6:27 07-Senor Blues
DR10 -0.39 dB -15.23 dB 3:29 08-Blue In Green
DR9 -0.91 dB -11.28 dB 3:21 09-Lover
DR10 -0.10 dB -14.65 dB 3:50 10-Barbados
DR9 -0.13 dB -12.42 dB 5:36 11-Road Song

Number of tracks: 11
Official DR value: DR9

Samplerate: 44100 Hz
Channels: 2
Bits per sample: 16
Bitrate: 813 kbps
Codec: FLAC

Battista Lena Trio - Plays (2000) {VVJ}

Battista Lena Trio - Plays (2000) {VVJ}

Battista Lena Trio - Plays (2000) {VVJ}

Rip by cifelius


DOWNLOAD:
Buy Premium To Support Me & Get Resumable Support & Max Speed


Links are Interchangeable - No Password
Direct Download

Tags: Battista

Battista Lena Trio - Plays (2000) {VVJ} Download via Hotfile Rapidshare Fileserve Megaupload & FileSonic, Battista Lena Trio - Plays (2000) {VVJ} free torrent downloads included crack, serial, keygen.Battista Lena Trio - Plays (2000) {VVJ} Fast Download via Rapidshare Hotfile Fileserve Filesonic Megaupload, Battista Lena Trio - Plays (2000) {VVJ} Torrents and Emule Download or anything related.
Leave a Comment
Your Name:
E-Mail:
Add Comments:

Enter Code: