Shelly Manne & His Men - Here That's Manne: Septet & Quintet Sessions 1951-1958 (2009) 3CD Box Set

Download Now

Shelly Manne & His Men - Here That's Manne: Septet & Quintet Sessions 1951-1958 (2009) 3CD Box Set

Shelly Manne & His Men - Here That's Manne: Septet & Quintet Sessions 1951-1958 (2009) 3CD Box Set
EAC | FLAC | Tracks (Cue&Log) ~ 1.14 Gb (incl 5%) | Mp3 (CBR320) ~ 550 Mb (incl 5%) | Scans ~ 107 Mb
Genre: West Coast Jazz, Mainstream Jazz, Cool, Bop | Label: Fresh Sound | # FSRCD 2251 | Time: 03:47:07

"3-CD Box set, 60-page booklet including comprehensive biography, original liner notes and cover art, rare photos, unseen memorabilia and extensive discography. Shelly Manne (1920-1984) was one of the most important drummers in jazz history. Opening with his first recordings as a leader for Dee Gee Records in 1951 (Chicago) and 1952 (Los Angeles), this collection covers both these septet sessions and the great series of all-star septet and quintet recordings made for Contemporary by Shelly Manne and His Men between 1953 and 1958. Here's that Manne."

"Writing this review is a labor of love because Manne is a drummer whom I not only hold in the highest regard, but who is an inspiration as well. These tracks are pure west coast jazz, and most of them are from 1952-53. Some tracks were recorded as late as 1958, and all epitomize Manne's tasteful and inventive drumming.

The discs are beautifully mastered. I have come to depend on Fresh Sounds Records to lavish attention to restoring these out of print gems. Indeed, nearly all of the albums from which these tracks are taken are out of print.

It's a shame that there are no sound samples on this page (at the time of this review) because they would provide a glimpse into the beauty of the music. Here are the sources and personnel for each album. My information is slightly different from what Fresh Sounds provides. I did cross-reference the following information with my usual sources. Here is what you get:

====
DISC ONE
====
The first eight tracks comprise the out-of-print album titled Here's That Manne that was recorded for Dee Gee during two sessions on November 12, 1951 and January 7, 1952. The November session was recorded in Chicago and features a front line comprised of Conte Candoli on trumpet, Bill Russo on trombone, Art Pepper on alto sax and Bob Cooper on tenor sax. The rhythm section is Gene Esposito on piano, Don Bargley on bass and Manne on drums and vocals, accompanied by Shelby Davis on vocals.

The 1952 session was recorded in Los Angeles and features both Conte Candoli and Shorty Rogers on trumpet, Jimmy Giuffre on tenor sax and Bob Gordon on baritone sax. The rhythm section is Frank Patchen on piano, Joe Mondragon on bass and Manne on drums.

Tracks 9 through 16 are from the out-of-print album titled Shelly Manne and His Men, Volume 1 that was recorded for the Contemporary label in Los Angeles on April 6 and July 20, 1953. Personnel on these sessions included Bob Enevoldsen on valve trombone, Bud Shank (tracks 9 through 12) and Art Pepper (tracks 13 through 16) on alto sax, Bob Cooper on tenor sax and Jimmy Giuffre on baritone sax. The rhythm section was comprised of Marty Paich on piano, Joe Mondragon (tracks 9 through 12) and Curtis Counce (tracks 13 throu bass, and Manne on drums.

Tracks 17 through 19 were recorded for Contemporary for an out-of-print album titled Shelly Manne and His Men, Volume 2. These tracks were recorded in Los Angeles in two sessions, the first of which was on December 18, 1953 and featured Don Fagerquist on trumpet, Shorty Rogers flugelhorn, Bob Enevoldsen on valve trombone and Paul Sarmento on tuba. They were backed by Marty Paich on piano, Joe Mondragon on bass and Manne on drums.

The remaining tracks were recorded on May 17, 1954 with a front line comprised of Ollie Mitchell on trumpet, Shorty Rogers flugelhorn, Bob Enevoldsen on valve trombone and Paul Sarmento on tuba. Russ Freeman on piano, Joe Mondragon on bass and Manne on drums.

====
DISC TWO
====
The first four tracks are from an album titled B000000Y8T that was recorded in Los Angeles for the Contemporary label on April 6, 1953. The front line is Bob Enevoldsen on valve trombone, Art Pepper on alto sax, Bob Cooper on tenor sax and Jimmy Giuffre on baritone sax. They are backed by Marty Paich on piano, Curtis Counce on bass and Manne on drums.

Tracks 5 and 6 are from the album titled Shelly Manne And His Men, Vol. 6 - Concerto For Clarinet And Combo that was recorded in Los Angeles on December 6, 1955. Personnel are Stu Williamson on trumpet and valve trombone, Bill Holman on tenor sax, with backing by Russ Freeman on piano, Leroy Vinnegar on bass and Manne on drums.

Tracks 7 through 13 are from the album titled Shelly Manne And His Men, Vol. 4 - Swinging Sounds that was recorded on January 19 and 26, 1956. This ensemble features Stu Williamson on trumpet and valve trombone, Charlie Mariano on alto sax, Russ Freeman on piano, Leroy Vinnegar on bass and Manne on drums.

Track 14 has the same personnel and was recorded on Los Angeles, CA, February 2, 1956

The final two tracks were recorded in Los Angeles for Shelly Manne And His Men, Vol. 5 - More Swinging Sounds on August 15 and 16, 1956. Personnel are Stu Williamson on trumpet and valve trombone, Charlie Mariano on alto sax, Russ Freeman on piano, Leroy Vinnegar on bass and Manne on drums.

====
DISC THREE
====
The first six tracks are from the same Vol. 5 - More Swinging Sounds album that capped Disc Two. Tracks 1 and 2 are from the August 15 and 16, 1956 sessions cited above, while tracks 3 through 6 are from a July 16, 1956 session. The same personnel as the previous disc.

With the exception of track 11, the remaining tracks are from Shelly Manne And His Men, Vol. 7 - The Gambit that spans four sessions between January 1957 and February 1958. Personnel are Stu Williamson on trumpet and valve trombone, Charlie Mariano on alto sax, Russ Freeman on piano, Monty Budwig on bass and Manne on drums.

Track 11 was recorded in Los Angeles on July 25, 1957 and features Stu Williamson on trumpet and valve trombone, Charlie Mariano on alto sax, Russ Freeman on piano, Monty Budwig on bass and Manne on drums.

Review by Mike Tarrani, Amazon.com
"




Featuring: Shelly Manne (d, lead) with Conte Candoli, Shorty Rogers,
Don Fagerquist (tp), Art Pepper,Bud Shank, Charlie Mariano,
Joe Maini (as), Bob Cooper, Bill Holman, Jimmy Giuffre (bs),
Marty Paich, Russ Freeman (p), Curtis Counce, Leroy Vinnegar (b)

Tracklist:

CD1:

01. The Count On Rush Street (03:08)
02. All Of Me (02:24)
03. Pooch McGooch (02:40)
04. Back In Your Own Backyard (02:28)
05. Slightly Brightly (02:36)
06. It Don't Mean A Thing (02:20)
07. The Princess Of Evil (03:16)
08. Deep People (03:01)
09. Mallets (03:26)
10. You And The Night And The Music (03:09)
11. La Mucura (03:00)
12. Gazelle (02:59)
13. You're My Thrill (03:03)
14. Fugue (02:46)
15. Afrodesia (03:29)
16. Sweets (02:51)
17. Alternation (03:38)
18. Dimension In Thirds (02:56)
19. Shapes, Motion, Colors (06:47)
20. Lullaby (02:29)
21. Etude de Concert (06:40)
22. Divertimento For Brass And Rhythm (02:55)

CD2:

01. Grasshopper (02:51)
02. Summer Night (03:19)
03. Spring is Here (02:43)
04. You're Getting To Be A Habit With Me (03:14)
05. Bag's Groove (10:48)
06. My Old Flame (05:47)
07. The Dart Game (03:13)
08. Bea's Flat (04:41)
09. Parthenia (04:48)
10. Bernie's Tune (04:31)
11. Doxy (06:44)
12. Slan (04:53)
13. A Gem From Tiffany (03:06)
14. Un Poco Loco (09:04)
15. The Wind (05:04)
16. Tommyhawk (04:17)

CD3:

01. Moose The Mooche (07:28)
02. Pint Of Blues (09:54)
03. Quartet - Part I (03:17)
04. Quartet - Part II (04:49)
05. Quartet - Part III (03:57)
06. Quartet - Part IV (03:39)
07. The Gambit - Part I - Queen's Pawn (04:45)
08. The Gambit - Part II - En Passant (03:29)
09. The Gambit - Part III - Castling (04:25)
10. The Gambit - Part IV - Checkmate (07:18)
11. Sophisticated Rabbit (03:22)
12. Blu Gnu (06:46)
13. Tom Brown's Body (05:58)
14. Hugo Hurwhey (06:35)


Exact Audio Copy V1.0 beta 4 from 7. December 2014

EAC extraction logfile from 22. September 2015, 15:16

Shelly Manne & His Men / Septet And Quintet Sessions 1951-1958

Used drive : HL-DT-STDVD+-RW GH82N Adapter: 1 ID: 0

Read mode : Secure
Utilize accurate stream : Yes
Defeat audio cache : Yes
Make use of C2 pointers : No

Read offset correction

: 667
Overread into Lead-In and Lead-Out : No
Fill up missing offset samples with silence : Yes
Delete leading and trailing silent blocks : No
Null samples used in CRC calculations : Yes
Used interface
: Native Win32 interface for Win NT & 2000
Gap handling
: Appended to previous track

Used output format : User Defined Encoder
Selected bitrate : 1024 kBit/s
Quality : High
Add ID3 tag : No
Command line compressor : C:\Program Files (x86)\Exact Audio Copy\FLAC\FLAC.EXE
Additional command line options : -6 -V -T "ARTIST=%artist%" -T "TITLE=%title%" -T "ALBUM=%albumtitle%" -T "DATE=%year%" -T "TRACKNUMBER=%tracknr%" -T "GENRE=%genre%" -T "COMMENT=%comment%" -T "BAND=%albuminterpret%" -T "ALBUMARTIST=%albuminterpret%" -T "COMPOSER=%composer%" %haslyrics%--tag-from-file=LYRICS="%lyricsfile%"%haslyrics% -T "DISCNUMBER=%cdnumber%" -T "TOTALDISCS=%totalcds%" -T "TOTALTRACKS=%numtracks%" %hascover%--picture="%coverfile%"%hascover% %source% -o %dest%

TOC of the extracted CD Track | Start | Length | Start sector | End sector
--1 | 0:00.00 | 3:08.54 | 0 | 14153 2 | 3:08.54 | 2:24.55 | 14154 | 25008 3 | 5:33.34 | 2:40.19 | 25009 | 37027 4 | 8:13.53 | 2:28.31 | 37028 | 48158 5 | 10:42.09 | 2:36.33 | 48159 | 59891 6 | 13:18.42 | 2:20.25 | 59892 | 70416 7 | 15:38.67 | 3:16.19 | 70417 | 85135 8 | 18:55.11 | 3:01.04 | 85136 | 98714 9 | 21:56.15 | 3:26.14 | 98715 | 114178
10 | 25:22.29 | 3:09.03 | 114179 | 128356
11 | 28:31.32 | 3:00.06 | 128357 | 141862
12 | 31:31.38 | 2:59.69 | 141863 | 155356
13 | 34:31.32 | 3:03.18 | 155357 | 169099
14 | 37:34.50 | 2:46.24 | 169100 | 181573
15 | 40:20.74 | 3:29.27 | 181574 | 197275
16 | 43:50.26 | 2:51.71 | 197276 | 210171
17 | 46:42.22 | 3:38.01 | 210172 | 226522
18 | 50:20.23 | 2:56.05 | 226523 | 239727
19 | 53:16.28 | 6:47.34 | 239728 | 270286
20 | 60:03.62 | 2:29.22 | 270287 | 281483
21 | 62:33.09 | 6:40.04 | 281484 | 311487
22 | 69:13.13 | 2:55.61 | 311488 | 324673

Track 1 Filename C:\Rips\Shelly Manne & His Men - Septet And Quintet Sessions 1951-1958\CD 1\01 The Count On Rush Street.wav Pre-gap length 0:00:02.00 Peak level 99.4 %
Extraction speed 1.8 X
Track quality 100.0 %
Copy CRC DE6810E7
Accurately ripped (confidence 4) [0C2D3A3B] (AR v2)
Copy OK

Track 2 Filename C:\Rips\Shelly Manne & His Men - Septet And Quintet Sessions 1951-1958\CD 1\02 All Of Me.wav Pre-gap length 0:00:02.19 Peak level 100.0 %
Extraction speed 1.5 X
Track quality 99.9 %
Copy CRC 1F246B9C
Accurately ripped (confidence 4) [C796C3ED] (AR v2)
Copy OK

Track 3 Filename C:\Rips\Shelly Manne & His Men - Septet And Quintet Sessions 1951-1958\CD 1\03 Pooch McGooch.wav Pre-gap length 0:00:01.61 Peak level 91.0 %
Extraction speed 1.9 X
Track quality 100.0 %
Copy CRC CFEB482D
Accurately ripped (confidence 4) [7CC0E83E] (AR v2)
Copy OK

Track 4 Filename C:\Rips\Shelly Manne & His Men - Septet And Quintet Sessions 1951-1958\CD 1\04 Back In Your Own Backyard.wav Pre-gap length 0:00:02.07 Peak level 83.8 %
Extraction speed 1.6 X
Track quality 99.9 %
Copy CRC FECD04E3
Accurately ripped (confidence 4) [D7005792] (AR v2)
Copy OK

Track 5 Filename C:\Rips\Shelly Manne & His Men - Septet And Quintet Sessions 1951-1958\CD 1\05 Slightly Brightly.wav Pre-gap length 0:00:02.67 Peak level 100.0 %
Extraction speed 2.1 X
Track quality 100.0 %
Copy CRC F93DB268
Accurately ripped (confidence 4) [60387CB2] (AR v2)
Copy OK

Track 6 Filename C:\Rips\Shelly Manne & His Men - Septet And Quintet Sessions 1951-1958\CD 1\06 It Don't Mean A Thing.wav Pre-gap length 0:00:02.12 Peak level 95.9 %
Extraction speed 2.1 X
Track quality 100.0 %
Copy CRC 07054118
Accurately ripped (confidence 4) [6A7CCD73] (AR v2)
Copy OK

Track 7 Filename C:\Rips\Shelly Manne & His Men - Septet And Quintet Sessions 1951-1958\CD 1\07 The Princess Of Evil.wav Pre-gap length 0:00:02.10 Peak level 81.6 %
Extraction speed 2.4 X
Track quality 100.0 %
Copy CRC C77CF1DF
Accurately ripped (confidence 4) [80940FA1] (AR v2)
Copy OK

Track 8 Filename C:\Rips\Shelly Manne & His Men - Septet And Quintet Sessions 1951-1958\CD 1\08 Deep People.wav Pre-gap length 0:00:01.49 Peak level 94.4 %
Extraction speed 2.5 X
Track quality 100.0 %
Copy CRC 409569C4
Accurately ripped (confidence 4) [33515F05] (AR v2)
Copy OK

Track 9 Filename C:\Rips\Shelly Manne & His Men - Septet And Quintet Sessions 1951-1958\CD 1\09 Mallets.wav Pre-gap length 0:00:02.21 Peak level 100.0 %
Extraction speed 2.3 X
Track quality 99.9 %
Copy CRC BA73B8FC
Accurately ripped (confidence 4) [72E5F7AE] (AR v2)
Copy OK

Track 10 Filename C:\Rips\Shelly Manne & His Men - Septet And Quintet Sessions 1951-1958\CD 1\10 You And The Night And The Music.wav Pre-gap length 0:00:01.61 Peak level 96.0 %
Extraction speed 2.7 X
Track quality 100.0 %
Copy CRC 246F21C8
Accurately ripped (confidence 4) [F223AFB3] (AR v2)
Copy OK

Track 11 Filename C:\Rips\Shelly Manne & His Men - Septet And Quintet Sessions 1951-1958\CD 1\11 La Mucura.wav Pre-gap length 0:00:01.09 Peak level 100.0 %
Extraction speed 2.7 X
Track quality 100.0 %
Copy CRC 615526DC
Accurately ripped (confidence 4) [798AF514] (AR v2)
Copy OK

Track 12 Filename C:\Rips\Shelly Manne & His Men - Septet And Quintet Sessions 1951-1958\CD 1\12 Gazelle.wav Pre-gap length 0:00:00.73 Peak level 96.3 %
Extraction speed 2.4 X
Track quality 99.9 %
Copy CRC 76CD0EEF
Accurately ripped (confidence 4) E4AE842 (AR v2)
Copy OK

Track 13 Filename C:\Rips\Shelly Manne & His Men - Septet And Quintet Sessions 1951-1958\CD 1\13 You're My Thrill.wav Pre-gap length 0:00:01.29 Peak level 75.4 %
Extraction speed 2.4 X
Track quality 99.9 %
Copy CRC F0105604
Accurately ripped (confidence 4) [32A44913] (AR v2)
Copy OK

Track 14 Filename C:\Rips\Shelly Manne & His Men - Septet And Quintet Sessions 1951-1958\CD 1\14 Fugue.wav Pre-gap length 0:00:01.51 Peak level 100.0 %
Extraction speed 2.4 X
Track quality 99.9 %
Copy CRC 1C11FF8A
Accurately ripped (confidence 4) [9733CFCA] (AR v2)
Copy OK

Track 15 Filename C:\Rips\Shelly Manne & His Men - Septet And Quintet Sessions 1951-1958\CD 1\15 Afrodesia.wav Pre-gap length 0:00:01.03 Peak level 82.9 %
Extraction speed 3.1 X
Track quality 100.0 %
Copy CRC 3805BF0D
Accurately ripped (confidence 4) [88BAC73F] (AR v2)
Copy OK

Track 16 Filename C:\Rips\Shelly Manne & His Men - Septet And Quintet Sessions 1951-1958\CD 1\16 Sweets.wav Pre-gap length 0:00:01.42 Peak level 100.0 %
Extraction speed 2.6 X
Track quality 99.9 %
Copy CRC 03912A84
Accurately ripped (confidence 4) [EC7E122B] (AR v2)
Copy OK

Track 17 Filename C:\Rips\Shelly Manne & His Men - Septet And Quintet Sessions 1951-1958\CD 1\17 Alternation.wav Pre-gap length 0:00:01.44 Peak level 100.0 %
Extraction speed 3.3 X
Track quality 100.0 %
Copy CRC 107ADA52
Accurately ripped (confidence 4) [C4720659] (AR v2)
Copy OK

Track 18 Filename C:\Rips\Shelly Manne & His Men - Septet And Quintet Sessions 1951-1958\CD 1\18 Dimension In Thirds.wav Pre-gap length 0:00:01.25 Peak level 85.1 %
Extraction speed 3.3 X
Track quality 100.0 %
Copy CRC 2B707866
Accurately ripped (confidence 4) [FA1B0654] (AR v2)
Copy OK

Track 19 Filename C:\Rips\Shelly Manne & His Men - Septet And Quintet Sessions 1951-1958\CD 1\19 Shapes, Motion, Colors.wav Pre-gap length 0:00:01.32 Peak level 95.5 %
Extraction speed 3.8 X
Track quality 100.0 %
Copy CRC E7DC2A13
Accurately ripped (confidence 4) [179EFD75] (AR v2)
Copy OK

Track 20 Filename C:\Rips\Shelly Manne & His Men - Septet And Quintet Sessions 1951-1958\CD 1\20 Lullaby.wav Pre-gap length 0:00:02.66 Peak level 95.5 %
Extraction speed 3.3 X
Track quality 100.0 %
Copy CRC F1A1D9B6
Accurately ripped (confidence 4) [8ABE1E55] (AR v2)
Copy OK

Track 21 Filename C:\Rips\Shelly Manne & His Men - Septet And Quintet Sessions 1951-1958\CD 1\21 Etude de Concert.wav Pre-gap length 0:00:01.27 Peak level 95.5 %
Extraction speed 3.6 X
Track quality 99.9 %
Copy CRC 4ADEE335
Accurately ripped (confidence 4) [95C01E8C] (AR v2)
Copy OK

Track 22 Filename C:\Rips\Shelly Manne & His Men - Septet And Quintet Sessions 1951-1958\CD 1\22 Divertimento For Brass And Rhythm.wav Pre-gap length 0:00:01.06 Peak level 95.5 %
Extraction speed 3.7 X
Track quality 100.0 %
Copy CRC 64536581
Accurately ripped (confidence 4) [934CADFF] (AR v2)
Copy OK

All tracks accurately ripped

No errors occurred

End of status report

- CUETools DB Plugin V2.1.4

[CTDB TOCID: FR.fLoxmSsd6xE8H5eGhQajuz8U-] disk not present in database
Submit result: FR.fLoxmSsd6xE8H5eGhQajuz8U- has been uploaded

==== Log checksum 491E78065AD99E72008AEA66497A8C492D4A3880C1A0A4925D9DB1BC3F0E66C1 ====

foobar2000 1.2 / Dynamic Range Meter 1.1.1
log date: 2015-09-23 16:42:22

Analyzed: Shelly Manne & His Men (septet) / Septet And Quintet Sessions 1951-1958 (1-14) Shelly Manne Septet / Septet And Quintet Sessions 1951-1958 (15-22)

DR Peak RMS Duration Track

DR12 0.00 dB -14.44 dB 3:26 09-Mallets
DR11 -0.35 dB -14.71 dB 3:09 10-You And The Night And The Music
DR12 0.00 dB -13.64 dB 3:00 11-La Mucura
DR12 -0.32 dB -14.01 dB 3:00 12-Gazelle
DR11 -2.45 dB -15.97 dB 3:03 13-You're My Thrill
DR11 0.00 dB -15.34 dB 2:46 14-Fugue
DR10 -1.62 dB -14.10 dB 3:29 15-Afrodesia
DR12 0.00 dB -13.51 dB 2:52 16-Sweets
DR13 0.00 dB -15.87 dB 3:38 17-Alternation
DR11 -1.40 dB -13.78 dB 2:56 18-Dimension In Thirds
DR13 -0.40 dB -15.46 dB 6:47 19-Shapes, Motion, Colors
DR13 -0.40 dB -17.53 dB 2:29 20-Lullaby
DR13 -0.40 dB -16.42 dB 6:40 21-Etude de Concert
DR12 -0.40 dB -14.76 dB 2:56 22-Divertimento For Brass And Rhythm
DR11 -0.05 dB -13.38 dB 3:09 01-The Count On Rush Street
DR13 0.00 dB -15.02 dB 2:25 02-All Of Me
DR11 -0.82 dB -14.49 dB 2:40 03-Pooch McGooch
DR11 -1.53 dB -15.16 dB 2:28 04-Back In Your Own Backyard
DR12 0.00 dB -14.00 dB 2:36 05-Slightly Brightly
DR13 -0.35 dB -14.98 dB 2:20 06-It Don't Mean A Thing
DR11 -1.76 dB -17.24 dB 3:16 07-The Princess Of Evil
DR11 -0.50 dB -13.59 dB 3:01 08-Deep People

Number of tracks: 22
Official DR value: DR12

Samplerate: 44100 Hz
Channels: 2
Bits per sample: 16
Bitrate: 561 kbps
Codec: FLAC

Exact Audio Copy V1.0 beta 4 from 7. December 2014

EAC extraction logfile from 22. September 2015, 15:51

Shelly Manne & His Men / Septet And Quintet Sessions 1951-1958

Used drive : HL-DT-STDVD+-RW GH82N Adapter: 1 ID: 0

Read mode : Secure
Utilize accurate stream : Yes
Defeat audio cache : Yes
Make use of C2 pointers : No

Read offset correction

: 667
Overread into Lead-In and Lead-Out : No
Fill up missing offset samples with silence : Yes
Delete leading and trailing silent blocks : No
Null samples used in CRC calculations : Yes
Used interface
: Native Win32 interface for Win NT & 2000
Gap handling
: Appended to previous track

Used output format : User Defined Encoder
Selected bitrate : 1024 kBit/s
Quality : High
Add ID3 tag : No
Command line compressor : C:\Program Files (x86)\Exact Audio Copy\FLAC\FLAC.EXE
Additional command line options : -6 -V -T "ARTIST=%artist%" -T "TITLE=%title%" -T "ALBUM=%albumtitle%" -T "DATE=%year%" -T "TRACKNUMBER=%tracknr%" -T "GENRE=%genre%" -T "COMMENT=%comment%" -T "BAND=%albuminterpret%" -T "ALBUMARTIST=%albuminterpret%" -T "COMPOSER=%composer%" %haslyrics%--tag-from-file=LYRICS="%lyricsfile%"%haslyrics% -T "DISCNUMBER=%cdnumber%" -T "TOTALDISCS=%totalcds%" -T "TOTALTRACKS=%numtracks%" %hascover%--picture="%coverfile%"%hascover% %source% -o %dest%

TOC of the extracted CD Track | Start | Length | Start sector | End sector
--1 | 0:00.00 | 2:51.31 | 0 | 12855 2 | 2:51.31 | 3:19.47 | 12856 | 27827 3 | 6:11.03 | 2:43.19 | 27828 | 40071 4 | 8:54.22 | 3:14.44 | 40072 | 54665 5 | 12:08.66 | 10:48.44 | 54666 | 103309 6 | 22:57.35 | 5:47.43 | 103310 | 129377 7 | 28:45.03 | 3:13.55 | 129378 | 143907 8 | 31:58.58 | 4:41.35 | 143908 | 165017 9 | 36:40.18 | 4:48.13 | 165018 | 186630
10 | 41:28.31 | 4:31.20 | 186631 | 206975
11 | 45:59.51 | 6:44.17 | 206976 | 237292
12 | 52:43.68 | 4:53.61 | 237293 | 259328
13 | 57:37.54 | 3:06.40 | 259329 | 273318
14 | 60:44.19 | 9:04.68 | 273319 | 314186
15 | 69:49.12 | 5:04.42 | 314187 | 337028
16 | 74:53.54 | 4:17.00 | 337029 | 356303

Track 1 Filename C:\Rips\Shelly Manne & His Men - Septet And Quintet Sessions 1951-1958\CD 2\01 Grasshopper.wav Pre-gap length 0:00:02.00 Peak level 97.8 %
Extraction speed 1.7 X
Track quality 100.0 %
Copy CRC 41CDE1E6
Accurately ripped (confidence 4) 0A1FF14 (AR v2)
Copy OK

Track 2 Filename C:\Rips\Shelly Manne & His Men - Septet And Quintet Sessions 1951-1958\CD 2\02 Summer Night.wav Pre-gap length 0:00:00.37 Peak level 99.4 %
Extraction speed 1.9 X
Track quality 100.0 %
Copy CRC 1BF71D56
Accurately ripped (confidence 4) [41F0B937] (AR v2)
Copy OK

Track 3 Filename C:\Rips\Shelly Manne & His Men - Septet And Quintet Sessions 1951-1958\CD 2\03 Spring is Here.wav Pre-gap length 0:00:00.37 Peak level 92.2 %
Extraction speed 1.9 X
Track quality 100.0 %
Copy CRC BB744596
Accurately ripped (confidence 4) [DBCD26C5] (AR v2)
Copy OK

Track 4 Filename C:\Rips\Shelly Manne & His Men - Septet And Quintet Sessions 1951-1958\CD 2\04 You're Getting To Be A Habit With Me.wav Pre-gap length 0:00:00.37 Peak level 95.4 %
Extraction speed 2.1 X
Track quality 100.0 %
Copy CRC F1CB68DD
Accurately ripped (confidence 4) [77C6F64D] (AR v2)
Copy OK

Track 5 Filename C:\Rips\Shelly Manne & His Men - Septet And Quintet Sessions 1951-1958\CD 2\05 Bag's Groove.wav Pre-gap length 0:00:00.37 Peak level 95.0 %
Extraction speed 2.7 X
Track quality 100.0 %
Copy CRC F1C7ADC6
Accurately ripped (confidence 4) [4BF48624] (AR v2)
Copy OK

Track 6 Filename C:\Rips\Shelly Manne & His Men - Septet And Quintet Sessions 1951-1958\CD 2\06 My Old Flame.wav Pre-gap length 0:00:00.37 Peak level 100.0 %
Extraction speed 2.6 X
Track quality 99.9 %
Copy CRC 46AEDB92
Accurately ripped (confidence 4) [DFABDE49] (AR v2)
Copy OK

Track 7 Filename C:\Rips\Shelly Manne & His Men - Septet And Quintet Sessions 1951-1958\CD 2\07 The Dart Game.wav Pre-gap length 0:00:00.37 Peak level 96.4 %
Extraction speed 2.7 X
Track quality 100.0 %
Copy CRC C709044C
Accurately ripped (confidence 4) [559EA00B] (AR v2)
Copy OK

Track 8 Filename C:\Rips\Shelly Manne & His Men - Septet And Quintet Sessions 1951-1958\CD 2\08 Bea's Flat.wav Pre-gap length 0:00:00.37 Peak level 97.4 %
Extraction speed 3.0 X
Track quality 100.0 %
Copy CRC 6ED01ED3
Accurately ripped (confidence 4) [4B91B504] (AR v2)
Copy OK

Track 9 Filename C:\Rips\Shelly Manne & His Men - Septet And Quintet Sessions 1951-1958\CD 2\09 Parthenia.wav Pre-gap length 0:00:00.37 Peak level 78.7 %
Extraction speed 2.8 X
Track quality 99.9 %
Copy CRC 9AED7E6D
Accurately ripped (confidence 4) [397BADD6] (AR v2)
Copy OK

Track 10 Filename C:\Rips\Shelly Manne & His Men - Septet And Quintet Sessions 1951-1958\CD 2\10 Bernie's Tune.wav Pre-gap length 0:00:00.37 Peak level 74.2 %
Extraction speed 2.9 X
Track quality 99.9 %
Copy CRC 099BCA3D
Accurately ripped (confidence 4) [E3E3C2F9] (AR v2)
Copy OK

Track 11 Filename C:\Rips\Shelly Manne & His Men - Septet And Quintet Sessions 1951-1958\CD 2\11 Doxy.wav Pre-gap length 0:00:00.37 Peak level 85.7 %
Extraction speed 3.5 X
Track quality 100.0 %
Copy CRC 86268A8B
Accurately ripped (confidence 4) [1CE48B37] (AR v2)
Copy OK

Track 12 Filename C:\Rips\Shelly Manne & His Men - Septet And Quintet Sessions 1951-1958\CD 2\12 Slan.wav Pre-gap length 0:00:00.37 Peak level 81.0 %
Extraction speed 3.2 X
Track quality 99.9 %
Copy CRC 51C89BEA
Accurately ripped (confidence 4) [AE5A720E] (AR v2)
Copy OK

Track 13 Filename C:\Rips\Shelly Manne & His Men - Septet And Quintet Sessions 1951-1958\CD 2\13 A Gem From Tiffany.wav Pre-gap length 0:00:00.37 Peak level 98.3 %
Extraction speed 2.9 X
Track quality 99.9 %
Copy CRC AAACD0D0
Accurately ripped (confidence 4) [FAE0CF42] (AR v2)
Copy OK

Track 14 Filename C:\Rips\Shelly Manne & His Men - Septet And Quintet Sessions 1951-1958\CD 2\14 Un Poco Loco.wav Pre-gap length 0:00:00.37 Peak level 100.0 %
Extraction speed 4.0 X
Track quality 100.0 %
Copy CRC F75D25EC
Accurately ripped (confidence 4) [6E2B9921] (AR v2)
Copy OK

Track 15 Filename C:\Rips\Shelly Manne & His Men - Septet And Quintet Sessions 1951-1958\CD 2\15 The Wind.wav Peak level 76.7 %
Extraction speed 4.0 X
Track quality 100.0 %
Copy CRC 9E7989CA
Accurately ripped (confidence 4) [644AE4E4] (AR v2)
Copy OK

Track 16 Filename C:\Rips\Shelly Manne & His Men - Septet And Quintet Sessions 1951-1958\CD 2\16 Tommyhawk.wav Pre-gap length 0:00:00.37 Peak level 89.9 %
Extraction speed 3.5 X
Track quality 99.9 %
Copy CRC 995A1871
Accurately ripped (confidence 4) [88E2E9A9] (AR v2)
Copy OK

All tracks accurately ripped

No errors occurred

End of status report

- CUETools DB Plugin V2.1.4

[CTDB TOCID: YEHUgj7kwVwcUzbNFPc5HvVfMIM-] disk not present in database
Submit result: YEHUgj7kwVwcUzbNFPc5HvVfMIM- has been uploaded

==== Log checksum 55AC92501BCB31243F7D9BD3EA4213BEA5F686E716AED4561FA127C7EC9D2757 ====

foobar2000 1.2 / Dynamic Range Meter 1.1.1
log date: 2015-09-23 16:43:20

Analyzed: Shelly Manne & His Men (quintet) / Septet And Quintet Sessions 1951-1958 (1-12) Shelly Manne & His Men (septet) / Septet And Quintet Sessions 1951-1958 (13-16)

DR Peak RMS Duration Track

DR12 -0.45 dB -15.86 dB 10:49 05-Bag's Groove
DR14 0.00 dB -15.55 dB 5:48 06-My Old Flame
DR12 -0.32 dB -14.13 dB 3:14 07-The Dart Game
DR14 -0.23 dB -16.60 dB 4:41 08-Bea's Flat
DR11 -2.08 dB -16.02 dB 4:48 09-Parthenia
DR12 -2.58 dB -16.90 dB 4:31 10-Bernie's Tune
DR13 -1.33 dB -16.52 dB 6:44 11-Doxy
DR12 -1.83 dB -16.32 dB 4:54 12-Slan
DR13 -0.15 dB -15.39 dB 3:07 13-A Gem From Tiffany
DR13 0.00 dB -16.22 dB 9:05 14-Un Poco Loco
DR11 -2.30 dB -17.90 dB 5:05 15-The Wind
DR13 -0.92 dB -17.26 dB 4:17 16-Tommyhawk
DR12 -0.19 dB -14.79 dB 2:51 01-Grasshopper
DR11 -0.05 dB -13.50 dB 3:20 02-Summer Night
DR11 -0.70 dB -13.77 dB 2:43 03-Spring is Here
DR12 -0.41 dB -13.81 dB 3:15 04-You're Getting To Be A Habit With Me

Number of tracks: 16
Official DR value: DR12

Samplerate: 44100 Hz
Channels: 2
Bits per sample: 16
Bitrate: 566 kbps
Codec: FLAC

Exact Audio Copy V1.0 beta 4 from 7. December 2014

EAC extraction logfile from 22. September 2015, 16:24

Shelly Manne & His Men / Septet And Quintet Sessions 1951-1958

Used drive : HL-DT-STDVD+-RW GH82N Adapter: 1 ID: 0

Read mode : Secure
Utilize accurate stream : Yes
Defeat audio cache : Yes
Make use of C2 pointers : No

Read offset correction

: 667
Overread into Lead-In and Lead-Out : No
Fill up missing offset samples with silence : Yes
Delete leading and trailing silent blocks : No
Null samples used in CRC calculations : Yes
Used interface
: Native Win32 interface for Win NT & 2000
Gap handling
: Appended to previous track

Used output format : User Defined Encoder
Selected bitrate : 1024 kBit/s
Quality : High
Add ID3 tag : No
Command line compressor : C:\Program Files (x86)\Exact Audio Copy\FLAC\FLAC.EXE
Additional command line options : -6 -V -T "ARTIST=%artist%" -T "TITLE=%title%" -T "ALBUM=%albumtitle%" -T "DATE=%year%" -T "TRACKNUMBER=%tracknr%" -T "GENRE=%genre%" -T "COMMENT=%comment%" -T "BAND=%albuminterpret%" -T "ALBUMARTIST=%albuminterpret%" -T "COMPOSER=%composer%" %haslyrics%--tag-from-file=LYRICS="%lyricsfile%"%haslyrics% -T "DISCNUMBER=%cdnumber%" -T "TOTALDISCS=%totalcds%" -T "TOTALTRACKS=%numtracks%" %hascover%--picture="%coverfile%"%hascover% %source% -o %dest%

TOC of the extracted CD Track | Start | Length | Start sector | End sector
--1 | 0:00.00 | 7:28.33 | 0 | 33632 2 | 7:28.33 | 9:54.23 | 33633 | 78205 3 | 17:22.56 | 3:17.04 | 78206 | 92984 4 | 20:39.60 | 4:49.39 | 92985 | 114698 5 | 25:29.24 | 3:57.56 | 114699 | 132529 6 | 29:27.05 | 3:39.07 | 132530 | 148961 7 | 33:06.12 | 4:45.07 | 148962 | 170343 8 | 37:51.19 | 3:29.00 | 170344 | 186018 9 | 41:20.19 | 4:25.10 | 186019 | 205903
10 | 45:45.29 | 7:18.30 | 205904 | 238783
11 | 53:03.59 | 3:22.54 | 238784 | 253987
12 | 56:26.38 | 6:46.17 | 253988 | 284454
13 | 63:12.55 | 5:58.45 | 284455 | 311349
14 | 69:11.25 | 6:35.57 | 311350 | 341031

Track 1 Filename C:\Rips\Shelly Manne & His Men - Septet And Quintet Sessions 1951-1958\CD 3\01 Moose The Mooche.wav Pre-gap length 0:00:02.00 Peak level 92.0 %
Extraction speed 2.1 X
Track quality 100.0 %
Copy CRC 21F2776D
Accurately ripped (confidence 3) [0EEB37B6] (AR v2)
Copy OK

Track 2 Filename C:\Rips\Shelly Manne & His Men - Septet And Quintet Sessions 1951-1958\CD 3\02 Pint Of Blues.wav Peak level 91.9 %
Extraction speed 2.5 X
Track quality 100.0 %
Copy CRC EB012EF9
Accurately ripped (confidence 3) [F9C8E2D4] (AR v2)
Copy OK

Track 3 Filename C:\Rips\Shelly Manne & His Men - Septet And Quintet Sessions 1951-1958\CD 3\03 Quartet - Part I.wav Pre-gap length 0:00:03.00 Peak level 88.6 %
Extraction speed 2.4 X
Track quality 100.0 %
Copy CRC C32EA2A5
Accurately ripped (confidence 2) [3C0B3904] (AR v2)
Copy OK

Track 4 Filename C:\Rips\Shelly Manne & His Men - Septet And Quintet Sessions 1951-1958\CD 3\04 Quartet - Part II.wav Peak level 83.1 %
Extraction speed 2.4 X
Track quality 99.9 %
Copy CRC 1AFBDC39
Accurately ripped (confidence 3) [E3DE42F1] (AR v2)
Copy OK

Track 5 Filename C:\Rips\Shelly Manne & His Men - Septet And Quintet Sessions 1951-1958\CD 3\05 Quartet - Part III.wav Peak level 91.9 %
Extraction speed 2.8 X
Track quality 100.0 %
Copy CRC 8FC4E090
Accurately ripped (confidence 3) [C26C26F9] (AR v2)
Copy OK

Track 6 Filename C:\Rips\Shelly Manne & His Men - Septet And Quintet Sessions 1951-1958\CD 3\06 Quartet - Part IV.wav Peak level 91.5 %
Extraction speed 2.5 X
Track quality 99.9 %
Copy CRC CE79ADBE
Accurately ripped (confidence 3) [752417CC] (AR v2)
Copy OK

Track 7 Filename C:\Rips\Shelly Manne & His Men - Septet And Quintet Sessions 1951-1958\CD 3\07 The Gambit - Part I - Queen's Pawn.wav Pre-gap length 0:00:02.00 Peak level 99.6 %
Extraction speed 3.1 X
Track quality 100.0 %
Copy CRC C5DCB27D
Accurately ripped (confidence 3) [6D8D682E] (AR v2)
Copy OK

Track 8 Filename C:\Rips\Shelly Manne & His Men - Septet And Quintet Sessions 1951-1958\CD 3\08 The Gambit - Part II - En Passant.wav Pre-gap length 0:00:02.00 Peak level 99.9 %
Extraction speed 3.0 X
Track quality 100.0 %
Copy CRC BB95FE69
Accurately ripped (confidence 3) CAC82BC (AR v2)
Copy OK

Track 9 Filename C:\Rips\Shelly Manne & His Men - Septet And Quintet Sessions 1951-1958\CD 3\09 The Gambit - Part III - Castling.wav Pre-gap length 0:00:02.00 Peak level 99.9 %
Extraction speed 3.3 X
Track quality 100.0 %
Copy CRC 4AC8B929
Accurately ripped (confidence 3) [6BC8EDC1] (AR v2)
Copy OK

Track 10 Filename C:\Rips\Shelly Manne & His Men - Septet And Quintet Sessions 1951-1958\CD 3\10 The Gambit - Part IV - Checkmate.wav Pre-gap length 0:00:02.00 Peak level 99.8 %
Extraction speed 3.7 X
Track quality 100.0 %
Copy CRC 35975D62
Accurately ripped (confidence 3) [08DDEEA8] (AR v2)
Copy OK

Track 11 Filename C:\Rips\Shelly Manne & His Men - Septet And Quintet Sessions 1951-1958\CD 3\11 Sophisticated Rabbit.wav Pre-gap length 0:00:01.37 Peak level 77.4 %
Extraction speed 3.4 X
Track quality 100.0 %
Copy CRC FE18CFBE
Accurately ripped (confidence 2) [A60364C3] (AR v2)
Copy OK

Track 12 Filename C:\Rips\Shelly Manne & His Men - Septet And Quintet Sessions 1951-1958\CD 3\12 Blu Gnu.wav Pre-gap length 0:00:02.00 Peak level 98.7 %
Extraction speed 3.8 X
Track quality 100.0 %
Copy CRC 128DC4B5
Accurately ripped (confidence 3) [7A01C42A] (AR v2)
Copy OK

Track 13 Filename C:\Rips\Shelly Manne & His Men - Septet And Quintet Sessions 1951-1958\CD 3\13 Tom Brown's Body.wav Peak level 97.4 %
Extraction speed 4.0 X
Track quality 100.0 %
Copy CRC 19D3DCF5
Accurately ripped (confidence 3) [2654DE01] (AR v2)
Copy OK

Track 14 Filename C:\Rips\Shelly Manne & His Men - Septet And Quintet Sessions 1951-1958\CD 3\14 Hugo Hurwhey.wav Pre-gap length 0:00:00.37 Peak level 100.0 %
Extraction speed 3.8 X
Track quality 99.9 %
Copy CRC 5B897D32
Accurately ripped (confidence 4) AB63074 (AR v2)
Copy OK

All tracks accurately ripped

No errors occurred

End of status report

- CUETools DB Plugin V2.1.4

[CTDB TOCID: kN5EbI3e86A2Ay2Yt5xE50MGeDc-] disk not present in database
Submit result: kN5EbI3e86A2Ay2Yt5xE50MGeDc- has been uploaded

==== Log checksum 87E20CC8F1114998016D5D56E7555945752A29296402DFBC06A0D2AFF4113423 ====

foobar2000 1.2 / Dynamic Range Meter 1.1.1
log date: 2015-09-23 16:43:45

Analyzed: Shelly Manne & His Men (quintet) / Septet And Quintet Sessions 1951-1958

DR Peak RMS Duration Track

DR13 -0.72 dB -16.31 dB 7:28 01-Moose The Mooche
DR13 -0.73 dB -16.88 dB 9:54 02-Pint Of Blues
DR12 -1.04 dB -17.21 dB 3:17 03-Quartet - Part I
DR12 -1.60 dB -17.38 dB 4:50 04-Quartet - Part II
DR12 -0.73 dB -17.25 dB 3:58 05-Quartet - Part III
DR13 -0.77 dB -17.07 dB 3:39 06-Quartet - Part IV
DR13 -0.03 dB -17.69 dB 4:45 07-The Gambit - Part I - Queen's Pawn
DR14 -0.01 dB -18.43 dB 3:29 08-The Gambit - Part II - En Passant
DR15 0.00 dB -17.77 dB 4:25 09-The Gambit - Part III - Castling
DR14 -0.01 dB -18.37 dB 7:18 10-The Gambit - Part IV - Checkmate
DR12 -2.22 dB -16.67 dB 3:23 11-Sophisticated Rabbit
DR15 -0.11 dB -18.78 dB 6:46 12-Blu Gnu
DR14 -0.23 dB -18.12 dB 5:59 13-Tom Brown's Body
DR15 0.00 dB -18.05 dB 6:36 14-Hugo Hurwhey

Number of tracks: 14
Official DR value: DR13

Samplerate: 44100 Hz
Channels: 2
Bits per sample: 16
Bitrate: 930 kbps
Codec: FLAC

Shelly Manne & His Men - Here That's Manne: Septet & Quintet Sessions 1951-1958 (2009) 3CD Box Set

All thanks to original releaser - LolaMontes
Password: designol

DOWNLOAD:
Buy Premium To Support Me & Get Resumable Support & Max Speed


Links are Interchangeable - No Password
Direct Download

Tags: Shelly, Septet, Quintet, Sessions

Shelly Manne & His Men - Here That's Manne: Septet & Quintet Sessions 1951-1958 (2009) 3CD Box Set Download via Hotfile Rapidshare Fileserve Megaupload & FileSonic, Shelly Manne & His Men - Here That's Manne: Septet & Quintet Sessions 1951-1958 (2009) 3CD Box Set free torrent downloads included crack, serial, keygen.Shelly Manne & His Men - Here That's Manne: Septet & Quintet Sessions 1951-1958 (2009) 3CD Box Set Fast Download via Rapidshare Hotfile Fileserve Filesonic Megaupload, Shelly Manne & His Men - Here That's Manne: Septet & Quintet Sessions 1951-1958 (2009) 3CD Box Set Torrents and Emule Download or anything related.
Leave a Comment
Your Name:
E-Mail:
Add Comments:

Enter Code: