Public Image Ltd. - Public Image: First Issue (1978) [2015, Universal Music Japan, UICY-40154]

Download Now

Public Image Ltd. - Public Image: First Issue (1978) [2015, Universal Music Japan, UICY-40154]

Public Image Ltd. - Public Image: First Issue (1978)
EAC | Flac(Image) + Cue + Log & MP3 CBR 320Kbps
Universal Music Japan, UICY-40154 | ~ 290 or 105 Mb | Scans(png) -> 136 Mb
Alternative Rock / Post Punk

"Like it or not, Public Image Limited's First Issue (aka Public Image) was an album that helped set the pace for what eventually became known as post-punk. In England a vacuum had opened up in the wake of the breakup of the Sex Pistols in January 1978, and many punk fans and rival groups were impatient to see what ex-Sex Pistols frontman John Lydon aka "Johnny Rotten" was going to roll out next..."


Tracklist:

01 Theme
02 Religion I
03 Religion II
04 Annalisa
05 Public Image
06 Low Life
07 Attack
08 Fodderstompf

Exact Audio Copy V1.1 from 23. June 2015

EAC extraction logfile from 23. September 2015, 17:05

PiL / First Issue PT-SHM

Used drive : PLEXTOR BD-R PX-B950SA Adapter: 1 ID: 1

Read mode : Secure
Utilize accurate stream : Yes
Defeat audio cache : Yes
Make use of C2 pointers : No

Read offset correction

: 6
Overread into Lead-In and Lead-Out : No
Fill up missing offset samples with silence : Yes
Delete leading and trailing silent blocks : No
Null samples used in CRC calculations : Yes
Used interface
: Native Win32 interface for Win NT & 2000

Used output format : Internal WAV Routines
Sample format : 44.100 Hz; 16 Bit; Stereo

TOC of the extracted CD Track | Start | Length | Start sector | End sector
--1 | 0:00.00 | 9:12.15 | 0 | 41414 2 | 9:12.15 | 1:26.00 | 41415 | 47864 3 | 10:38.15 | 5:53.40 | 47865 | 74379 4 | 16:31.55 | 6:06.20 | 74380 | 101849 5 | 22:38.00 | 3:01.40 | 101850 | 115464 6 | 25:39.40 | 3:38.20 | 115465 | 131834 7 | 29:17.60 | 2:55.57 | 131835 | 145016 8 | 32:13.42 | 7:47.73 | 145017 | 180114

Range status and errors

Selected range Filename C:\Users\Meijin\Desktop\ALLexxess\PiL\1978 First Issue (Mini LP PT-SHM Universal Japan 2015)\PiL - First Issue PT-SHM.wav Peak level 100.0 %
Extraction speed 6.6 X
Range quality 100.0 %
Test CRC 5B59ECD4
Copy CRC 5B59ECD4
Copy OK

No errors occurred


AccurateRip summary

Track 1 not present in database
Track 2 not present in database
Track 3 not present in database
Track 4 not present in database
Track 5 not present in database
Track 6 not present in database
Track 7 not present in database
Track 8 not present in database

None of the tracks are present in the AccurateRip database

End of status report

- CUETools DB Plugin V2.1.6

[CTDB TOCID: VkkZdWqJR0KeP9i4CWJ0euX9Ets-] disk not present in database
Submit result: VkkZdWqJR0KeP9i4CWJ0euX9Ets- has been uploaded

==== Log checksum F55AFF97DADC6A0235773243103DCAAE71C83853B482FEA7F3EC45E595BC0F15 ====

foobar2000 1.2.9 / Dynamic Range Meter 1.1.1
log date: 2015-09-25 15:35:34

Analyzed: PiL / First Issue PT-SHM

DR Peak RMS Duration Track

DR11 -0.02 dB -12.66 dB 9:12 01-Theme
DR14 -5.38 dB -21.82 dB 1:26 02-Religion I
DR11 0.00 dB -12.97 dB 5:54 03-Religion II
DR10 0.00 dB -11.39 dB 6:06 04-Annalisa
DR9 0.00 dB -10.45 dB 3:02 05-Public Image
DR9 0.00 dB -10.41 dB 3:38 06-Low Life
DR11 0.00 dB -12.21 dB 2:56 07-Attack
DR15 0.00 dB -16.21 dB 7:48 08-Fodderstompf

Number of tracks: 8
Official DR value: DR11

Samplerate: 44100 Hz
Channels: 2
Bits per sample: 16
Bitrate: 947 kbps
Codec: FLAC

[CUETools log; Date: 25.09.2015 15:25:13; Version: 2.1.4]
[CTDB TOCID: VkkZdWqJR0KeP9i4CWJ0euX9Ets-] found.
Track | CTDB Status
1 | (1/1) Accurately ripped
2 | (1/1) Accurately ripped
3 | (1/1) Accurately ripped
4 | (1/1) Accurately ripped
5 | (1/1) Accurately ripped
6 | (1/1) Accurately ripped
7 | (1/1) Accurately ripped
8 | (1/1) Accurately ripped
[AccurateRip ID: 000cc936-0052daf2-6c096108] disk not present in database.

Track Peak [ CRC32 ] [W/O NULL] [ LOG ]
-- 100,0 [5B59ECD4] [751DA4D2] CRC32
01 99,7 D6B715B [9F9FEB0E]
02 53,8 [12B829FE] [20D66BEA]
03 100,0 [0DF1646A] [49496BB3]
04 100,0 [D1D28560] [A727A522]
05 100,0 [6B2A53CC] [8472EA25]
06 100,0 [CDFCEDC0] [0B20EC2E]
07 100,0 [2DF095C8] [E19A13CC]
08 100,0 [0F8D9DCD] [318E1DE9]

Public Image Ltd. - Public Image: First Issue (1978) [2015, Universal Music Japan, UICY-40154]

DOWNLOAD LINKS:
Buy Premium To Support Me & Get Resumable Support & Max Speed


Links are Interchangeable - No Password - Single Extraction
Direct Download

Tags: Public, Public, Universal

Public Image Ltd. - Public Image: First Issue (1978) [2015, Universal Music Japan, UICY-40154] Download via Hotfile Rapidshare Fileserve Megaupload & FileSonic, Public Image Ltd. - Public Image: First Issue (1978) [2015, Universal Music Japan, UICY-40154] free torrent downloads included crack, serial, keygen.Public Image Ltd. - Public Image: First Issue (1978) [2015, Universal Music Japan, UICY-40154] Fast Download via Rapidshare Hotfile Fileserve Filesonic Megaupload, Public Image Ltd. - Public Image: First Issue (1978) [2015, Universal Music Japan, UICY-40154] Torrents and Emule Download or anything related.
Leave a Comment
Your Name:
E-Mail:
Add Comments:

Enter Code: