Astrud Gilberto - Gilberto With Turrentine (1971) [2013, Blu-spec CD, Reissue, Japan]

Download Now

Astrud Gilberto - Gilberto With Turrentine (1971) [2013, Blu-spec CD, Reissue, Japan]

Astrud Gilberto - Gilberto With Turrentine (1971)
XLD Rip | FLAC (Img) + Cue + Log ~ 225 Mb | MP3 CBR320 ~ 98 Mb
Scans Included (JPG, 600 dpi) | RAR 5% Recovery
Jazz, Bossa Nova | CTI Records #KICJ 2324

"Gilberto with Turrentine is an album by Brazilian samba and bossa nova singer Astrud Gilberto and American saxophonist Stanley Turrentine featuring performances recorded in 1971 released on the CTI label."

Wiki | Discogs | All Music
***************

Astrud Gilberto - Gilberto With Turrentine (1971) [2013, Blu-spec CD, Reissue, Japan]

Track List:

01. Wanting Things [02:44]
02. Brazilian Tapestry [05:19]
03. To A Flame [03:23]
04. Solo El Fin (For All We Know) [03:20]
05. Zazueira [03:50]
06. Ponteio [03:45]
07. Traveling Light [02:33]
08. Vera Cruz [05:13]
09. Historia De Amor (Love Story) [03:36]
10. Where There's A Heartache (There Must Be A Heart) [Album Version] [03:15]

X Lossless Decoder version 20100711 (120.5)

XLD extraction logfile from 2015-09-20 05:35:40 +0000

Astrud Gilberto & Stanley Turrentine / Gilberto With Turrentine

Used drive : HL-DT-ST DVDRW GX30N (revision RP09)

Use cdparanoia mode : YES (CDParanoia III 10.2 engine)
Disable audio cache : OK for the drive with cache less than 2750KB
Make use of C2 pointers : NO
Read offset correction : 6
Max retry count : 100
Gap status : Analyzed, Appended

TOC of the extracted CD
Track | Start | Length | Start sector | End sector
--1 | 00:00:00 | 02:43:37 | 0 | 12261 2 | 02:43:37 | 05:18:23 | 12262 | 36134 3 | 08:01:60 | 03:22:22 | 36135 | 51306 4 | 11:24:07 | 03:19:68 | 51307 | 66299 5 | 14:44:00 | 03:49:09 | 66300 | 83483 6 | 18:33:09 | 03:44:22 | 83484 | 100305 7 | 22:17:31 | 02:32:08 | 100306 | 111713 8 | 24:49:39 | 05:12:62 | 111714 | 135175 9 | 30:02:26 | 03:35:71 | 135176 | 151371
10 | 33:38:22 | 03:14:47 | 151372 | 165968

All Tracks
Filename : /Users/Urij/Desktop/Gilberto-1971/Gilberto With Turrentine.flac
CRC32 hash : 0B3D6068
CRC32 hash (skip zero) : EEE38EDF
StatisticsRead error : 0Skipped (treated as error) : 0Edge jitter error (maybe fixed) : 0Atom jitter error (maybe fixed) : 0Drift error (maybe fixed) : 0Dropped bytes error (maybe fixed) : 0Duplicated bytes error (maybe fixed) : 0

Track 01 Pre-gap length : 00:02:00 CRC32 hash : FED56876
CRC32 hash (skip zero) : 8002E651
AccurateRip signature : 685AC87B->Rip may not be accurate.
StatisticsRead error : 0Skipped (treated as error) : 0Edge jitter error (maybe fixed) : 0Atom jitter error (maybe fixed) : 0Drift error (maybe fixed) : 0Dropped bytes error (maybe fixed) : 0Duplicated bytes error (maybe fixed) : 0

Track 02 Pre-gap length : 00:03:08 CRC32 hash : 06725CB0
CRC32 hash (skip zero) : E9BCB5E7
AccurateRip signature : 72018EF2->Rip may not be accurate.
StatisticsRead error : 0Skipped (treated as error) : 0Edge jitter error (maybe fixed) : 0Atom jitter error (maybe fixed) : 0Drift error (maybe fixed) : 0Dropped bytes error (maybe fixed) : 0Duplicated bytes error (maybe fixed) : 0

Track 03 Pre-gap length : 00:02:46 CRC32 hash : 61241F1E
CRC32 hash (skip zero) : 80C2ACB6
AccurateRip signature : BBEE34B2->Rip may not be accurate.
StatisticsRead error : 0Skipped (treated as error) : 0Edge jitter error (maybe fixed) : 0Atom jitter error (maybe fixed) : 0Drift error (maybe fixed) : 0Dropped bytes error (maybe fixed) : 0Duplicated bytes error (maybe fixed) : 0

Track 04 Pre-gap length : 00:01:71 CRC32 hash : 5475989F
CRC32 hash (skip zero) : 6AC1119D
AccurateRip signature : A7236317->Rip may not be accurate.
StatisticsRead error : 0Skipped (treated as error) : 0Edge jitter error (maybe fixed) : 0Atom jitter error (maybe fixed) : 0Drift error (maybe fixed) : 0Dropped bytes error (maybe fixed) : 0Duplicated bytes error (maybe fixed) : 0

Track 05 Pre-gap length : 00:02:43 CRC32 hash : EE79DA4E
CRC32 hash (skip zero) : 9168A288
AccurateRip signature : 03044DF3->Rip may not be accurate.
StatisticsRead error : 0Skipped (treated as error) : 0Edge jitter error (maybe fixed) : 0Atom jitter error (maybe fixed) : 0Drift error (maybe fixed) : 0Dropped bytes error (maybe fixed) : 0Duplicated bytes error (maybe fixed) : 0

Track 06 Pre-gap length : 00:02:22 CRC32 hash : 3F414967
CRC32 hash (skip zero) : C1793B8D
AccurateRip signature : 52D336D6->Rip may not be accurate.
StatisticsRead error : 0Skipped (treated as error) : 0Edge jitter error (maybe fixed) : 0Atom jitter error (maybe fixed) : 0Drift error (maybe fixed) : 0Dropped bytes error (maybe fixed) : 0Duplicated bytes error (maybe fixed) : 0

Track 07 Pre-gap length : 00:04:06 CRC32 hash : 01FA9878
CRC32 hash (skip zero) : A35C43A1
AccurateRip signature : 71F7E403->Rip may not be accurate.
StatisticsRead error : 0Skipped (treated as error) : 0Edge jitter error (maybe fixed) : 0Atom jitter error (maybe fixed) : 0Drift error (maybe fixed) : 0Dropped bytes error (maybe fixed) : 0Duplicated bytes error (maybe fixed) : 0

Track 08 Pre-gap length : 00:02:21 CRC32 hash : 5BBB94BD
CRC32 hash (skip zero) : 3A54F2AA
AccurateRip signature : 1D88720B->Rip may not be accurate.
StatisticsRead error : 0Skipped (treated as error) : 0Edge jitter error (maybe fixed) : 0Atom jitter error (maybe fixed) : 0Drift error (maybe fixed) : 0Dropped bytes error (maybe fixed) : 0Duplicated bytes error (maybe fixed) : 0

Track 09 Pre-gap length : 00:02:63 CRC32 hash : 1C0AA824
CRC32 hash (skip zero) : F6223C4A
AccurateRip signature : F4C75BCD->Rip may not be accurate.
StatisticsRead error : 0Skipped (treated as error) : 0Edge jitter error (maybe fixed) : 0Atom jitter error (maybe fixed) : 0Drift error (maybe fixed) : 0Dropped bytes error (maybe fixed) : 0Duplicated bytes error (maybe fixed) : 0

Track 10 Pre-gap length : 00:01:18 CRC32 hash : 3F186AD5
CRC32 hash (skip zero) : 67EE29ED
AccurateRip signature : 434EF7A6->Rip may not be accurate.
StatisticsRead error : 0Skipped (treated as error) : 0Edge jitter error (maybe fixed) : 0Atom jitter error (maybe fixed) : 0Drift error (maybe fixed) : 0Dropped bytes error (maybe fixed) : 0Duplicated bytes error (maybe fixed) : 0

No errors occurred

End of status report

foobar2000 1.2.6 / Dynamic Range Meter 1.1.1
log date: 2015-09-24 22:48:32

Analyzed: Astrud Gilberto & Stanley Turrentine / Gilberto With Turrentine

DR Peak RMS Duration Track

DR10 -1.09 dB -15.18 dB 2:43 01-Wanting Things
DR11 -0.93 dB -14.74 dB 5:18 02-Brazilian Tapestry
DR10 0.00 dB -13.52 dB 3:22 03-To A Flame
DR10 -2.05 dB -14.70 dB 3:20 04-Solo El Fin (For All We Know)
DR11 0.00 dB -13.26 dB 3:49 05-Zazueira
DR11 0.00 dB -14.45 dB 3:44 06-Ponteio
DR10 -0.34 dB -14.63 dB 2:32 07-Traveling Light
DR11 -0.59 dB -16.23 dB 5:13 08-Vera Cruz
DR11 -1.73 dB -16.27 dB 3:36 09-Historia De Amor (Love Story)
DR10 -3.63 dB -17.01 dB 3:15 10-Where There's A Heartache (There Must Be A Heart) [Album Version]

Number of tracks: 10
Official DR value: DR10

Samplerate: 44100 Hz
Channels: 2
Bits per sample: 16
Bitrate: 779 kbps
Codec: FLAC

[CUETools log; Date: 24.09.2015 22:48:22; Version: 2.1.5]
[CTDB TOCID: Fix4NlBPh4NEWIJ2FVty9Ur5rhg-] found.
Track | CTDB Status
1 | (1/1) Accurately ripped
2 | (1/1) Accurately ripped
3 | (1/1) Accurately ripped
4 | (1/1) Accurately ripped
5 | (1/1) Accurately ripped
6 | (1/1) Accurately ripped
7 | (1/1) Accurately ripped
8 | (1/1) Accurately ripped
9 | (1/1) Accurately ripped
10 | (1/1) Accurately ripped
[AccurateRip ID: 000df269-006fbb0b-7f08a40a] found.
Track [ CRC | V2 ] Status
01 [685ac87b|3064ef8e] (0+2/2) Accurately ripped
02 [72018ef2|e13b08ce] (0+2/2) Accurately ripped
03 bee34b2|4ce12a47 (0+2/2) Accurately ripped
04 [a7236317|db595ec5] (0+2/2) Accurately ripped
05 [03044df3|30971b48] (0+2/2) Accurately ripped
06 [52d336d6|48d94b21] (0+2/2) Accurately ripped
07 [71f7e403|9ce9d52e] (0+2/2) Accurately ripped
08 [1d88720b|b88bf87e] (0+2/2) Accurately ripped
09 [f4c75bcd|c915f47c] (0+2/2) Accurately ripped
10 [434ef7a6|51b010d3] (0+2/2) Accurately ripped

Track Peak [ CRC32 ] [W/O NULL]
-- 100,0 [0B3D6068] [EEE38EDF]
01 88,2 [FED56876] [8002E651]
02 89,8 [06725CB0] [E9BCB5E7]
03 99,9 [61241F1E] [80C2ACB6]
04 78,9 [5475989F] [6AC1119D]
05 100,0 [EE79DA4E] [9168A288]
06 100,0 [3F414967] [C1793B8D]
07 96,1 [01FA9878] [A35C43A1]
08 93,3 [5BBB94BD] [3A54F2AA]
09 81,9 [1C0AA824] [F6223C4A]
10 65,8 [3F186AD5] [67EE29ED]

Astrud Gilberto - Gilberto With Turrentine (1971) [2013, Blu-spec CD, Reissue, Japan]

Astrud Gilberto - Gilberto With Turrentine (1971) [2013, Blu-spec CD, Reissue, Japan]


DOWNLOAD LINKS
Buy Premium From My Links To Get Resumable Support & Max Speed & To Support Me


Links are Interchangeable - No Password - Single Extraction
Direct Download

Tags: Astrud, Gilberto, Gilberto, Turrentine, Reissue

Astrud Gilberto - Gilberto With Turrentine (1971) [2013, Blu-spec CD, Reissue, Japan] Download via Hotfile Rapidshare Fileserve Megaupload & FileSonic, Astrud Gilberto - Gilberto With Turrentine (1971) [2013, Blu-spec CD, Reissue, Japan] free torrent downloads included crack, serial, keygen.Astrud Gilberto - Gilberto With Turrentine (1971) [2013, Blu-spec CD, Reissue, Japan] Fast Download via Rapidshare Hotfile Fileserve Filesonic Megaupload, Astrud Gilberto - Gilberto With Turrentine (1971) [2013, Blu-spec CD, Reissue, Japan] Torrents and Emule Download or anything related.
Leave a Comment
Your Name:
E-Mail:
Add Comments:

Enter Code: