Magical Power Mako - Super Record (1975)

Download Now

Magical Power Mako - Super Record (1975)

Magical Power Mako - Super Record (1975)
EAC Rip | FLAC (tracks & cue & log) | 252 MB | MP3 CBR 320 kbps | 101 MB | Artwork (PNG 300 dpi) | 47 MB | 43:11
Genre: Psychedelic Rock / Experimental / Prog Rock | Country: Japan | Label: Polydor | POCH-1487

"On this second shot by Magical Power Mako (not with his bandmates but with his family), his experimental trial as the previous work is suppressed but gets to be more sensitive and theoretical for music. That is, in my humble opinion, Mako might accept that everything eccentric is not alright but consistency of music should be needed. With featuring many kinds of instruments, he might consider the important thing is musical integration. Well, please listen to the first half named as 'Butch Side'. The stream-like starting of the first track Andromeda is the proof as above mentioned. Oh, I see, the integration could be constructed because he was the one and only player in this work. Tundra, with quiet and cold psychedelia, next Oriental chandelier Silk Road, and wonderfully hot and juicy Woman in South Island...all are made so compact, not scattered. Could they be easy for us to listen? Leaving Butch's voice behind (sorry), Pink Butch (Lalala) is a beautiful piece of cake. Very sweet, very melancholic, and very feminine."

Magical Power Mako - Super Record (1975)

progarchives

Tracklist:

1 Andromeda 6:01
2 Tundra 3:12
3 Silk Road 4:17
4 Woman In South Island 2:36
5 Pink Butch 8:30
6 Sound 3 0:49
7 Rock Baby In Meadow 2:36
8 Sound 3 0:26
9 Majorica Resistance Song 6:21
10 Sound 3 0:16
11 Cosmos Sandglass 3:22
12 Sound 3 0:11
13 Sound, Mother Earth 5:18
14 Sound 3 1:57

Exact Audio Copy V1.0 beta 4 from 7. December 2014

EAC extraction logfile from 16. August 2015, 15:47

Magical Power Mako / Super Record

Used drive : MATSHITADVD-RAM UJ8D1 Adapter: 1 ID: 0

Read mode : Secure
Utilize accurate stream : Yes
Defeat audio cache : Yes
Make use of C2 pointers : No

Read offset correction

: 6
Overread into Lead-In and Lead-Out : No
Fill up missing offset samples with silence : Yes
Delete leading and trailing silent blocks : No
Null samples used in CRC calculations : Yes
Used interface
: Native Win32 interface for Win NT & 2000
Gap handling
: Appended to previous track

Used output format : User Defined Encoder
Selected bitrate : 1024 kBit/s
Quality : High
Add ID3 tag : No
Command line compressor : C:\Program Files (x86)\Exact Audio Copy\Flac\flac.exe
Additional command line options : -8 -V -T "ARTIST=%artist%" -T "TITLE=%title%" -T "ALBUM=%albumtitle%" -T "DATE=%year%" -T "TRACKNUMBER=%tracknr%" -T "GENRE=%genre%" -T "PERFORMER=%albuminterpret%" -T "COMPOSER=%composer%" %haslyrics%--tag-from-file=LYRICS="%lyricsfile%"%haslyrics% -T "ALBUMARTIST=%albumartist%" -T "DISCNUMBER=%cdnumber%" -T "TOTALDISCS=%totalcds%" -T "TOTALTRACKS=%numtracks%" -T "COMMENT=%comment%" %source% -o %dest%

TOC of the extracted CD Track | Start | Length | Start sector | End sector
--1 | 0:00.00 | 6:07.25 | 0 | 27549 2 | 6:07.25 | 3:12.55 | 27550 | 42004 3 | 9:20.05 | 4:17.57 | 42005 | 61336 4 | 13:37.62 | 2:36.50 | 61337 | 73086 5 | 16:14.37 | 5:35.00 | 73087 | 98211 6 | 21:49.37 | 0:49.53 | 98212 | 101939 7 | 22:39.15 | 2:36.62 | 101940 | 113701 8 | 25:16.02 | 0:26.50 | 113702 | 115701 9 | 25:42.52 | 6:21.25 | 115702 | 144301
10 | 32:04.02 | 0:16.30 | 144302 | 145531
11 | 32:20.32 | 3:22.50 | 145532 | 160731
12 | 35:43.07 | 0:11.50 | 160732 | 161606
13 | 35:54.57 | 5:18.45 | 161607 | 185501
14 | 41:13.27 | 1:57.23 | 185502 | 194299

Track 1 Filename C:\EAC\01 - Andromeda.wav Pre-gap length 0:00:02.00 Peak level 91.2 %
Extraction speed 1.9 X
Track quality 100.0 %
Test CRC 64C4272C
Copy CRC 64C4272C
Track not present in AccurateRip database
Copy OK

Track 2 Filename C:\EAC\02 - Tundra.wav Peak level 63.9 %
Extraction speed 2.0 X
Track quality 100.0 %
Test CRC 1B9D8B13
Copy CRC 1B9D8B13
Track not present in AccurateRip database
Copy OK

Track 3 Filename C:\EAC\03 - Silk Road.wav Peak level 100.0 %
Extraction speed 2.2 X
Track quality 100.0 %
Test CRC 043AF6B6
Copy CRC 043AF6B6
Track not present in AccurateRip database
Copy OK

Track 4 Filename C:\EAC\04 - Woman in South Island.wav Peak level 85.4 %
Extraction speed 1.8 X
Track quality 99.9 %
Test CRC E06B9A39
Copy CRC E06B9A39
Track not present in AccurateRip database
Copy OK

Track 5 Filename C:\EAC\05 - Pink Butch (Lalala).wav Peak level 99.3 %
Extraction speed 2.3 X
Track quality 99.9 %
Test CRC 89D946CB
Copy CRC 89D946CB
Track not present in AccurateRip database
Copy OK

Track 6 Filename C:\EAC\06 - Sound 3.wav Peak level 39.5 %
Extraction speed 1.6 X
Track quality 100.0 %
Test CRC 3F5F750A
Copy CRC 3F5F750A
Track not present in AccurateRip database
Copy OK

Track 7 Filename C:\EAC\07 - Rock Baby in Meadow.wav Peak level 93.0 %
Extraction speed 2.5 X
Track quality 100.0 %
Test CRC 6A8065E2
Copy CRC 6A8065E2
Track not present in AccurateRip database
Copy OK

Track 8 Filename C:\EAC\08 - Sound 3.wav Peak level 41.7 %
Extraction speed 1.3 X
Track quality 100.0 %
Test CRC 881E72D0
Copy CRC 881E72D0
Track not present in AccurateRip database
Copy OK

Track 9 Filename C:\EAC\09 - Majorica Resistance Song.wav Peak level 100.0 %
Extraction speed 2.9 X
Track quality 100.0 %
Test CRC E10CA73C
Copy CRC E10CA73C
Track not present in AccurateRip database
Copy OK

Track 10 Filename C:\EAC\10 - Sound 3.wav Peak level 50.6 %
Extraction speed 1.0 X
Track quality 100.0 %
Test CRC 19480920
Copy CRC 19480920
Track not present in AccurateRip database
Copy OK

Track 11 Filename C:\EAC\11 - Cosmos Sandglass.wav Peak level 79.0 %
Extraction speed 2.9 X
Track quality 100.0 %
Test CRC 17FC625D
Copy CRC 17FC625D
Track not present in AccurateRip database
Copy OK

Track 12 Filename C:\EAC\12 - Sound 3.wav Peak level 52.2 %
Extraction speed 0.6 X
Track quality 100.0 %
Test CRC FEA7BA27
Copy CRC FEA7BA27
Track not present in AccurateRip database
Copy OK

Track 13 Filename C:\EAC\13 - Sound, Mother Earth.wav Peak level 95.3 %
Extraction speed 3.2 X
Track quality 100.0 %
Test CRC 2EE0FDF5
Copy CRC 2EE0FDF5
Track not present in AccurateRip database
Copy OK

Track 14 Filename C:\EAC\14 - Sound 3.wav Peak level 47.8 %
Extraction speed 2.8 X
Track quality 100.0 %
Test CRC 56A2614D
Copy CRC 56A2614D
Track not present in AccurateRip database
Copy OK

None of the tracks are present in the AccurateRip database

No errors occurred

End of status report

- CUETools DB Plugin V2.1.4

[CTDB TOCID: OafvvYKXushSdZsWNjkMjzJlgrA-] disk not present in database
Submit result: OafvvYKXushSdZsWNjkMjzJlgrA- has been uploaded

==== Log checksum 4D13E9A024CC7B9A78B0E2606C16688C0A8526BBD884B415EFC10330092A5024 ====

Personnel

- Mako/ various instruments
- Butch/ vocals
- Rock/ voice

All thanks to original releaser

Magical Power Mako - Super Record (1975)


DOWNLOAD LINKS
Buy Premium From My Links To Get Resumable Support & Max Speed & To Support Me


Links are Interchangeable - No Password - Single Extraction
Direct Download

Tags: Magical, Record

Magical Power Mako - Super Record (1975) Download via Hotfile Rapidshare Fileserve Megaupload & FileSonic, Magical Power Mako - Super Record (1975) free torrent downloads included crack, serial, keygen.Magical Power Mako - Super Record (1975) Fast Download via Rapidshare Hotfile Fileserve Filesonic Megaupload, Magical Power Mako - Super Record (1975) Torrents and Emule Download or anything related.
Leave a Comment
Your Name:
E-Mail:
Add Comments:

Enter Code: